<?xml version="1.0" standalone="no"?>
<!DOCTYPE svg PUBLIC "-//W3C//DTD SVG 1.1//EN" "http://www.w3.org/Graphics/SVG/1.1/DTD/svg11.dtd" >
<svg xmlns="http://www.w3.org/2000/svg" xmlns:xlink="http://www.w3.org/1999/xlink" version="1.1">
<metadata>
Created by FontForge 20170731 at Tue Oct 10 12:45:31 2017
 By Aleksey,,,
(c) TIGHTYPE 2017
</metadata>
<defs>
<font id="Moderat-Regular" horiz-adv-x="833" >
  <font-face 
    font-family="Moderat"
    font-weight="400"
    font-stretch="normal"
    units-per-em="1000"
    panose-1="0 0 5 0 0 0 0 0 0 0"
    ascent="800"
    descent="-200"
    x-height="500"
    cap-height="700"
    bbox="-141 -299 1141 967"
    underline-thickness="50"
    underline-position="-200"
    unicode-range="U+0020-FB02"
  />
<missing-glyph 
d="M776 350q0 -150 -105 -255t-255 -105t-255 106t-105 254q0 149 105.5 254.5t254.5 105.5q151 0 255.5 -105.5t104.5 -254.5zM228 533v-45h44v-128h46v128h44v45h-134zM470 533v-45h45v-128h45v128h45v45h-135zM416 81q109 0 187 76t81 183l-46 8q0 -92 -65 -156.5
t-157 -64.5t-156.5 64.5t-64.5 156.5l-46 -8q3 -107 81 -183t186 -76z" />
    <glyph glyph-name="arrowleft" unicode="&#x3c;&#x2d;" horiz-adv-x="795" 
d="M762 350v-79h-601l211 -208l-58 -58l-292 301v9l292 301l58 -58l-211 -208h601z" />
    <glyph glyph-name="arrowright" unicode="&#x2d;&#x3e;" horiz-adv-x="794" 
d="M480 616l292 -301v-9l-292 -301l-58 58l211 208h-601v79h601l-211 208z" />
    <glyph glyph-name="fi" unicode="fi" horiz-adv-x="550" 
d="M480 500v-500h-89v427h-185v-427h-85v427h-89v73h89v81q0 59 34 94t95 35q37 0 69 -17l-22 -70q-18 11 -38 11q-53 0 -53 -61v-73h274zM437 578q-25 0 -43 17.5t-18 42.5t18 42.5t43 17.5t42.5 -17.5t17.5 -42.5t-17.5 -42.5t-42.5 -17.5z" />
    <glyph glyph-name="f_f" unicode="ff" horiz-adv-x="661" 
d="M486 563v-63h126v-73h-126v-427h-88v427h-189v-427h-88v427h-89v73h89v72q0 65 36 101.5t94 36.5q65 0 101 -36l-31 -67q-25 25 -58 25q-26 0 -40 -18t-14 -51v-63h189v72q0 65 36 101.5t94 36.5q65 0 101 -36l-31 -67q-25 25 -58 25q-26 0 -40 -18t-14 -51z" />
    <glyph glyph-name="f_f_i" unicode="ffi" horiz-adv-x="826" 
d="M757 500v-500h-89v427h-185v-427h-85v427h-189v-427h-88v427h-89v73h89v72q0 65 36 101.5t94 36.5q65 0 101 -36l-31 -67q-25 25 -58 25q-26 0 -40 -18t-14 -51v-63h189v81q0 59 34 94t95 35q37 0 69 -17l-22 -70q-18 11 -38 11q-53 0 -53 -61v-73h274zM714 578
q-25 0 -43 17.5t-18 42.5t18 42.5t43 17.5t42.5 -17.5t17.5 -42.5t-17.5 -42.5t-42.5 -17.5z" />
    <glyph glyph-name="f_f_j" unicode="ffj" horiz-adv-x="824" 
d="M756 500v-572q0 -65 -36 -101.5t-94 -36.5q-65 0 -101 36l31 67q25 -25 58 -25q26 0 40 18t14 51v490h-185v-427h-85v427h-189v-427h-88v427h-89v73h89v72q0 65 36 101.5t94 36.5q65 0 101 -36l-31 -67q-25 25 -58 25q-26 0 -40 -18t-14 -51v-63h189v81q0 59 34 94t95 35
q37 0 69 -17l-22 -70q-18 11 -38 11q-53 0 -53 -61v-73h273zM712 578q-25 0 -43 17.5t-18 42.5t18 42.5t43 17.5t42.5 -17.5t17.5 -42.5t-17.5 -42.5t-42.5 -17.5z" />
    <glyph glyph-name="f_j" unicode="fj" horiz-adv-x="548" 
d="M479 500v-572q0 -65 -36 -101.5t-94 -36.5q-65 0 -101 36l31 67q25 -25 58 -25q26 0 40 18t14 51v490h-185v-427h-85v427h-89v73h89v81q0 59 34 94t95 35q37 0 69 -17l-22 -70q-18 11 -38 11q-53 0 -53 -61v-73h273zM435 578q-25 0 -43 17.5t-18 42.5t18 42.5t43 17.5
t42.5 -17.5t17.5 -42.5t-17.5 -42.5t-42.5 -17.5z" />
    <glyph glyph-name=".notdef" 
d="M776 350q0 -150 -105 -255t-255 -105t-255 106t-105 254q0 149 105.5 254.5t254.5 105.5q151 0 255.5 -105.5t104.5 -254.5zM228 533v-45h44v-128h46v128h44v45h-134zM470 533v-45h45v-128h45v128h45v45h-135zM416 81q109 0 187 76t81 183l-46 8q0 -92 -65 -156.5
t-157 -64.5t-156.5 64.5t-64.5 156.5l-46 -8q3 -107 81 -183t186 -76z" />
    <glyph glyph-name=".null" horiz-adv-x="0" 
 />
    <glyph glyph-name="nonmarkingreturn" horiz-adv-x="333" 
 />
    <glyph glyph-name="space" unicode=" " horiz-adv-x="270" 
 />
    <glyph glyph-name="exclam" unicode="!" horiz-adv-x="239" 
d="M73 700h93l-14 -506h-63zM121 -8q-25 0 -43 17.5t-18 42.5t17.5 42.5t43.5 17.5q24 0 41.5 -17.5t17.5 -42.5t-17.5 -42.5t-41.5 -17.5z" />
    <glyph glyph-name="quotedbl" unicode="&#x22;" horiz-adv-x="340" 
d="M125 609l-18 -142h-39l-18 142q-8 59 -8 68q0 24 12.5 37.5t32.5 13.5q21 0 33 -13.5t12 -37.5q0 -17 -7 -68zM290 609l-18 -142h-39l-18 142q-8 59 -8 68q0 24 12.5 37.5t32.5 13.5q21 0 33 -13.5t12 -37.5q0 -17 -7 -68z" />
    <glyph glyph-name="numbersign" unicode="#" horiz-adv-x="682" 
d="M649 441h-110l-37 -185h93v-75h-108l-36 -181h-82l36 181h-187l-36 -181h-81l36 181h-105v75h120l37 185h-103v75h118l37 184h81l-37 -184h187l37 184h82l-37 -184h95v-75zM420 256l37 185h-187l-37 -185h187z" />
    <glyph glyph-name="dollar" unicode="$" horiz-adv-x="568" 
d="M512 168q0 -78 -52 -124t-138 -53v-81h-75v83q-90 12 -140 68t-50 133h86q1 -44 28.5 -78t75.5 -46v229q-87 35 -129.5 72t-42.5 104q0 71 47 118t125 55v82h75v-83q82 -12 127 -65.5t45 -115.5h-86q0 38 -23 66t-63 38v-213q97 -36 143.5 -76.5t46.5 -112.5zM162 478
q0 -33 21.5 -53.5t63.5 -39.5v187q-40 -8 -62.5 -34t-22.5 -60zM322 66q45 6 73 31t28 69q0 38 -23 59.5t-78 44.5v-204z" />
    <glyph glyph-name="percent" unicode="%" horiz-adv-x="774" 
d="M207 350q-61 0 -105.5 44t-44.5 106t44.5 106t105.5 44t105.5 -44.5t44.5 -105.5t-44.5 -105.5t-105.5 -44.5zM654 640l-446 -640h-94l446 640h94zM207 423q34 0 55.5 22t21.5 55t-21.5 55t-55.5 22t-55.5 -22t-21.5 -55t21.5 -55t55.5 -22zM568 -10q-62 0 -106 44
t-44 106t44 106t106 44q61 0 105.5 -44.5t44.5 -105.5t-44.5 -105.5t-105.5 -44.5zM568 63q34 0 55.5 22t21.5 55t-21.5 55t-55.5 22t-55.5 -22t-21.5 -55t21.5 -55t55.5 -22z" />
    <glyph glyph-name="ampersand" unicode="&#x26;" horiz-adv-x="667" 
d="M641 0h-96l-92 99q-46 -54 -95 -81.5t-112 -27.5q-82 0 -136 46t-54 119q0 66 35.5 110.5t113.5 101.5q-32 33 -49 52.5t-34.5 55.5t-17.5 71q0 68 50 116t129 48q80 0 131.5 -44t51.5 -110q0 -31 -9.5 -57t-34 -52t-44 -42.5t-61.5 -48.5l127 -139l77 117h92l-101 -156
q-1 -2 -6 -9t-8 -11zM285 634q-43 0 -70 -26t-27 -65q0 -32 17.5 -59t60.5 -72q43 30 63.5 47t38 42t17.5 51q0 37 -29 59.5t-71 22.5zM249 69q78 0 151 88l-143 154q-63 -47 -90 -77.5t-27 -69.5q0 -40 31.5 -67.5t77.5 -27.5z" />
    <glyph glyph-name="quotesingle" unicode="'" horiz-adv-x="175" 
d="M125 609l-18 -142h-39l-18 142q-8 59 -8 68q0 24 12.5 37.5t32.5 13.5q21 0 33 -13.5t12 -37.5q0 -17 -7 -68z" />
    <glyph glyph-name="parenleft" unicode="(" horiz-adv-x="303" 
d="M281 -126l-56 -43q-75 84 -121.5 206.5t-46.5 272.5t46.5 273t121.5 207l56 -44q-144 -171 -144 -436q0 -264 144 -436z" />
    <glyph glyph-name="parenright" unicode=")" horiz-adv-x="303" 
d="M22 -126q144 172 144 436q0 265 -144 436l56 44q75 -84 121.5 -207t46.5 -273t-46.5 -272.5t-121.5 -206.5z" />
    <glyph glyph-name="asterisk" unicode="*" horiz-adv-x="393" 
d="M351 593l-102 -53l102 -53l-31 -54l-97 61l5 -114h-63l5 114l-97 -61l-31 54l102 53l-102 53l31 54l97 -62l-5 115h63l-5 -115l97 62z" />
    <glyph glyph-name="plus" unicode="+" horiz-adv-x="541" 
d="M490 317v-74h-179v-183h-80v183h-180v74h180v183h80v-183h179z" />
    <glyph glyph-name="comma" unicode="," horiz-adv-x="247" 
d="M123 113q30 0 46.5 -22t16.5 -58q0 -54 -29.5 -94t-69.5 -60l-21 27q56 43 57 89q-25 -3 -43 13t-18 44q0 27 17 44t44 17z" />
    <glyph glyph-name="hyphen" unicode="-" horiz-adv-x="424" 
d="M32 349h360v-76h-360v76z" />
    <glyph glyph-name="period" unicode="." horiz-adv-x="241" 
d="M122 -8q-25 0 -43 17.5t-18 42.5t17.5 42.5t43.5 17.5q24 0 41.5 -17.5t17.5 -42.5t-17.5 -42.5t-41.5 -17.5z" />
    <glyph glyph-name="slash" unicode="/" horiz-adv-x="497" 
d="M475 750l-357 -800h-96l359 800h94z" />
    <glyph glyph-name="zero" unicode="0" horiz-adv-x="586" 
d="M294 -10q-108 0 -173 84t-65 247q0 161 65 245.5t173 84.5t171.5 -84.5t63.5 -246.5q0 -163 -63.5 -246.5t-171.5 -83.5zM294 75q63 0 100 62t37 183t-37.5 183.5t-99.5 62.5q-63 0 -100 -62t-37 -184t37 -183.5t100 -61.5z" />
    <glyph glyph-name="one" unicode="1" horiz-adv-x="323" 
d="M158 0v465h-126v73h59q77 0 77 71v31h81v-640h-91z" />
    <glyph glyph-name="two" unicode="2" horiz-adv-x="534" 
d="M316 261q-141 -91 -148 -178h305v-83h-417v37q0 160 174 272q98 63 122 86q33 34 33 74q0 45 -30 73.5t-81 28.5q-61 0 -91.5 -40.5t-33.5 -97.5h-92q0 53 21.5 100.5t73 82.5t123.5 35q89 0 146 -49.5t57 -132.5q0 -67 -40.5 -111.5t-121.5 -96.5z" />
    <glyph glyph-name="three" unicode="3" horiz-adv-x="547" 
d="M380 338q51 -17 80.5 -59t29.5 -99q0 -85 -58 -137.5t-157 -52.5q-102 0 -157.5 54.5t-61.5 143.5h87q4 -49 37 -82.5t92 -33.5q55 0 90 31t35 83q0 50 -33 82t-94 32h-33v77h33q50 0 79.5 28t29.5 71q0 42 -28 69t-75 27q-46 0 -75.5 -26.5t-32.5 -70.5h-88
q0 77 58 126.5t142 49.5q80 0 132.5 -47t52.5 -117q0 -96 -85 -142v-7z" />
    <glyph glyph-name="four" unicode="4" horiz-adv-x="558" 
d="M526 219v-77h-113v-142h-86v142h-295v58l270 440h111v-421h113zM134 219h193v315h-9z" />
    <glyph glyph-name="five" unicode="5" horiz-adv-x="550" 
d="M287 421q94 0 150.5 -60t56.5 -159q0 -94 -62 -153t-158 -59q-100 0 -157 57t-61 146h89q5 -56 38 -90t89 -34q58 0 94.5 36.5t36.5 97.5q0 62 -35.5 102.5t-92.5 40.5q-89 0 -129 -70l-79 23l34 341h361v-83h-282l-19 -180q48 44 126 44z" />
    <glyph glyph-name="six" unicode="6" horiz-adv-x="547" 
d="M301 404q73 0 131 -55.5t58 -148.5q0 -92 -60.5 -151t-155.5 -59q-98 0 -158 60t-60 158q0 54 20.5 102t61.5 112l137 218h107l-176 -261q35 25 95 25zM274 67q58 0 93.5 39t35.5 96q0 56 -35 93.5t-93 37.5q-59 0 -94 -37.5t-35 -93.5t35.5 -95.5t92.5 -39.5z" />
    <glyph glyph-name="seven" unicode="7" horiz-adv-x="508" 
d="M56 640h420v-63q-236 -220 -250 -577h-92q12 341 210 555h-288v85z" />
    <glyph glyph-name="eight" unicode="8" horiz-adv-x="557" 
d="M380 344q53 -18 87 -63.5t34 -105.5q0 -83 -62.5 -134t-160.5 -51q-100 0 -161 50.5t-61 133.5q0 63 35.5 108.5t86.5 61.5v6q-39 15 -65 52.5t-26 82.5q0 73 56 119.5t135 46.5q80 0 136.5 -45.5t56.5 -119.5q0 -47 -26 -83t-65 -53v-6zM279 577q-46 0 -76 -25.5
t-30 -68.5q0 -45 31.5 -72.5t72.5 -27.5q42 0 74.5 27.5t32.5 72.5q0 43 -29.5 68.5t-75.5 25.5zM276 68q55 0 92.5 31t37.5 82q0 49 -35 84.5t-94 35.5q-58 0 -92 -36t-34 -85q0 -50 35.5 -81t89.5 -31z" />
    <glyph glyph-name="nine" unicode="9" horiz-adv-x="547" 
d="M255 232q-73 0 -131 55.5t-58 148.5q0 92 60.5 151t155.5 59q98 0 158 -60t60 -158q0 -54 -20.5 -102t-61.5 -112l-137 -218h-107l176 261q-35 -25 -95 -25zM282 569q-58 0 -93.5 -39t-35.5 -96q0 -56 35 -93.5t93 -37.5q59 0 94 37.5t35 93.5t-35.5 95.5t-92.5 39.5z
" />
    <glyph glyph-name="colon" unicode=":" horiz-adv-x="241" 
d="M122 388q-25 0 -43 17.5t-18 42.5t17.5 42.5t43.5 17.5q24 0 41.5 -17.5t17.5 -42.5t-17.5 -42.5t-41.5 -17.5zM122 -8q-25 0 -43 17.5t-18 42.5t17.5 42.5t43.5 17.5q24 0 41.5 -17.5t17.5 -42.5t-17.5 -42.5t-41.5 -17.5z" />
    <glyph glyph-name="semicolon" unicode=";" horiz-adv-x="250" 
d="M125 388q-25 0 -43 17.5t-18 42.5t17.5 42.5t43.5 17.5q24 0 41.5 -17.5t17.5 -42.5t-17.5 -42.5t-41.5 -17.5zM126 113q30 0 46.5 -22t16.5 -58q0 -54 -29.5 -94t-69.5 -60l-21 27q56 43 57 89q-25 -3 -43 13t-18 44q0 27 17 44t44 17z" />
    <glyph glyph-name="less" unicode="&#x3c;" horiz-adv-x="542" 
d="M486 583v-100l-338 -193v-6l338 -195v-99l-430 247v99z" />
    <glyph glyph-name="equal" unicode="=" horiz-adv-x="540" 
d="M51 422h438v-76h-438v76zM51 214h438v-76h-438v76z" />
    <glyph glyph-name="greater" unicode="&#x3e;" horiz-adv-x="542" 
d="M56 583l430 -247v-99l-430 -247v99l338 195v6l-338 193v100z" />
    <glyph glyph-name="question" unicode="?" horiz-adv-x="441" 
d="M146 240q0 61 17.5 102.5t66.5 83.5q35 31 47.5 43t24.5 33.5t12 45.5q0 38 -25 61.5t-71 23.5q-49 0 -74.5 -30t-29.5 -72h-82q0 31 10.5 61t31 57.5t58 44t86.5 16.5q84 0 132.5 -43t48.5 -114q0 -14 -1.5 -26.5t-6.5 -25t-7.5 -20.5t-12 -20.5t-12 -17t-15.5 -17
t-14.5 -14.5t-17.5 -16l-16 -14q-37 -33 -52.5 -67t-15.5 -81v-40h-82v46zM188 -8q-25 0 -43 17.5t-18 42.5t17.5 42.5t43.5 17.5q24 0 41.5 -17.5t17.5 -42.5t-17.5 -42.5t-41.5 -17.5z" />
    <glyph glyph-name="at" unicode="@" horiz-adv-x="988" 
d="M491 710q188 0 314 -116t126 -310q0 -126 -48 -197.5t-132 -71.5q-99 0 -123 95q-19 -39 -61.5 -66t-102.5 -27q-88 0 -147 64.5t-59 169.5q0 108 59.5 177t147.5 69q51 0 90.5 -23t59.5 -61h8l19 77h45v-322q0 -39 19.5 -60.5t49.5 -21.5q42 0 69 52t27 139
q0 170 -99.5 265t-263.5 95q-151 0 -252 -107t-101 -282q0 -111 53.5 -195.5t136.5 -126.5t179 -42q119 0 207 60l32 -61q-102 -71 -246 -71q-86 0 -165.5 29.5t-141 84t-98.5 138.5t-37 185q0 140 61.5 246.5t159.5 160.5t214 54zM475 95q64 0 98.5 44t34.5 113
q0 75 -34 120.5t-99 45.5q-63 0 -98.5 -48t-35.5 -113q0 -69 35.5 -115.5t98.5 -46.5z" />
    <glyph glyph-name="A" unicode="A" horiz-adv-x="645" 
d="M525 0l-60 180h-285l-59 -180h-99l240 700h122l239 -700h-98zM207 261h231l-111 336h-9z" />
    <glyph glyph-name="B" unicode="B" horiz-adv-x="587" 
d="M410 367q136 -43 136 -176q0 -94 -63.5 -142.5t-161.5 -48.5h-248v700h222q99 0 158.5 -45.5t59.5 -129.5q0 -112 -103 -152v-6zM161 621v-220h131q64 0 98 30t34 83q0 52 -35.5 79.5t-92.5 27.5h-135zM307 79q66 0 106 31t40 88t-39 92t-105 35h-148v-246h146z" />
    <glyph glyph-name="C" unicode="C" horiz-adv-x="735" 
d="M684 213q-21 -101 -102 -162t-191 -61q-152 0 -243.5 99.5t-91.5 259.5q0 156 90.5 258.5t233.5 102.5q111 0 191.5 -58.5t100.5 -168.5h-97q-18 65 -68 102.5t-125 37.5q-102 0 -165 -79.5t-63 -193.5q0 -122 64.5 -197.5t172.5 -75.5q70 0 123 37.5t73 98.5h97z" />
    <glyph glyph-name="D" unicode="D" horiz-adv-x="683" 
d="M279 700q168 0 257.5 -93.5t89.5 -252.5q0 -164 -88.5 -259t-258.5 -95h-206v700h206zM277 87q127 0 191.5 72.5t64.5 196.5q0 116 -65 187t-191 71h-111v-527h111z" />
    <glyph glyph-name="E" unicode="E" horiz-adv-x="558" 
d="M163 85h362v-85h-452v700h442v-85h-352v-219h311v-82h-311v-229z" />
    <glyph glyph-name="F" unicode="F" horiz-adv-x="535" 
d="M503 613h-338v-226h295v-83h-295v-304h-92v700h430v-87z" />
    <glyph glyph-name="G" unicode="G" horiz-adv-x="740" 
d="M359 363h305v-363h-62l-16 76h-8q-83 -86 -213 -86q-145 0 -227 96.5t-82 247.5q0 164 89.5 270t230.5 106q126 0 198 -61t88 -159h-96q-14 57 -61 95t-124 38q-104 0 -167 -80t-63 -204q0 -117 59.5 -190.5t172.5 -73.5q62 0 111.5 26.5t77.5 59.5v126h-213v76z" />
    <glyph glyph-name="H" unicode="H" horiz-adv-x="672" 
d="M506 700h92v-700h-92v312h-340v-312h-93v700h93v-304h340v304z" />
    <glyph glyph-name="I" unicode="I" horiz-adv-x="242" 
d="M169 700v-700h-96v700h96z" />
    <glyph glyph-name="J" unicode="J" horiz-adv-x="531" 
d="M123 201q4 -54 35.5 -89t86.5 -35q52 0 86 36t34 105v482h93v-489q0 -105 -59.5 -163t-151.5 -58q-99 0 -155.5 58.5t-59.5 152.5h91z" />
    <glyph glyph-name="K" unicode="K" horiz-adv-x="607" 
d="M476 0l-261 315h-49v-315h-93v700h93v-295h49l234 295h109l-264 -337v-6l290 -357h-108z" />
    <glyph glyph-name="L" unicode="L" horiz-adv-x="563" 
d="M171 90h359v-90h-456v700h97v-610z" />
    <glyph glyph-name="M" unicode="M" horiz-adv-x="851" 
d="M778 700v-700h-91v562h-8l-204 -502h-99l-204 502h-9v-562h-90v700h131l218 -527h8l216 527h132z" />
    <glyph glyph-name="N" unicode="N" horiz-adv-x="710" 
d="M547 700h90v-700h-99l-367 543h-8v-543h-90v700h105l360 -541h9v541z" />
    <glyph glyph-name="O" unicode="O" horiz-adv-x="805" 
d="M403 -10q-149 0 -248 103t-99 257t99 257t247 103t247 -103t99 -257t-98.5 -257t-246.5 -103zM403 80q107 0 178 77.5t71 192.5t-71.5 192.5t-178.5 77.5t-178 -77.5t-71 -192.5t71 -192.5t179 -77.5z" />
    <glyph glyph-name="P" unicode="P" horiz-adv-x="607" 
d="M326 700q103 0 164 -59t61 -153q0 -100 -62 -157.5t-170 -57.5h-157v-273h-89v700h253zM309 356q70 0 109 34.5t39 97.5q0 60 -38.5 94.5t-102.5 34.5h-154v-261h147z" />
    <glyph glyph-name="Q" unicode="Q" horiz-adv-x="805" 
d="M603 -50q15 0 29 2.5t25.5 7.5t19 9t16.5 10t11 7l43 -62q-18 -18 -56.5 -34.5t-83.5 -16.5q-76 0 -128 32t-75 85h-1q-149 0 -248 103t-99 257t99 257t247 103t247 -103t99 -257q0 -128 -70.5 -223.5t-183.5 -124.5q28 -52 109 -52zM153 350q0 -115 71 -192.5t179 -77.5
q107 0 178 77.5t71 192.5t-71.5 192.5t-178.5 77.5t-178 -77.5t-71 -192.5z" />
    <glyph glyph-name="R" unicode="R" horiz-adv-x="600" 
d="M568 0h-102l-167 286h-1h-136v-286h-89v700h237q104 0 166 -56t62 -149q0 -70 -39 -121.5t-107 -73.5zM162 615v-244h136q69 0 108 33.5t39 89.5q0 58 -39 89.5t-108 31.5h-136z" />
    <glyph glyph-name="S" unicode="S" horiz-adv-x="600" 
d="M544 175q0 -90 -64.5 -137.5t-168.5 -47.5q-120 0 -186 62t-69 160h94q3 -63 42 -102t119 -39q61 0 99.5 26.5t38.5 78.5q0 48 -36 80.5t-128 62.5q-99 33 -153.5 77t-54.5 122q0 87 62 139.5t158 52.5q107 0 169.5 -60.5t64.5 -145.5h-88q-4 51 -40.5 87.5t-106.5 36.5
q-56 0 -90 -29.5t-34 -74.5q0 -46 36 -73.5t120 -55.5q109 -37 162.5 -88t53.5 -132z" />
    <glyph glyph-name="T" unicode="T" horiz-adv-x="561" 
d="M529 700v-84h-203v-616h-92v616h-202v84h497z" />
    <glyph glyph-name="U" unicode="U" horiz-adv-x="693" 
d="M620 700v-425q0 -138 -76.5 -211.5t-195.5 -73.5q-120 0 -197.5 73.5t-77.5 211.5v425h96v-423q0 -95 50 -146.5t129 -51.5t127.5 51.5t48.5 146.5v423h96z" />
    <glyph glyph-name="V" unicode="V" horiz-adv-x="651" 
d="M530 700h99l-239 -700h-130l-238 700h99l201 -598h8z" />
    <glyph glyph-name="W" unicode="W" horiz-adv-x="888" 
d="M776 700h89l-142 -700h-135l-140 526h-8l-141 -526h-134l-143 700h91l119 -589h8l143 539h121l143 -539h9z" />
    <glyph glyph-name="X" unicode="X" horiz-adv-x="613" 
d="M483 0l-171 281h-8l-171 -281h-111l222 361l-211 339h109l161 -261h9l162 261h105l-211 -339l222 -361h-107z" />
    <glyph glyph-name="Y" unicode="Y" horiz-adv-x="641" 
d="M508 700h111l-249 -370v-330h-98v330l-250 370h111l183 -269h8z" />
    <glyph glyph-name="Z" unicode="Z" horiz-adv-x="603" 
d="M189 86h350v-86h-483v63l358 545v7h-333v85h459v-62l-351 -545v-7z" />
    <glyph glyph-name="bracketleft" unicode="[" horiz-adv-x="290" 
d="M73 773h172v-73h-93v-796h103v-73h-182v942z" />
    <glyph glyph-name="backslash" unicode="\" horiz-adv-x="497" 
d="M22 750h94l359 -800h-96z" />
    <glyph glyph-name="bracketright" unicode="]" horiz-adv-x="290" 
d="M217 773v-942h-182v73h103v796h-93v73h172z" />
    <glyph glyph-name="asciicircum" unicode="^" horiz-adv-x="525" 
d="M392 360l-125 250h-8l-125 -250h-92l168 340h106l167 -340h-91z" />
    <glyph glyph-name="underscore" unicode="_" horiz-adv-x="499" 
d="M32 0h435v-77h-435v77z" />
    <glyph glyph-name="grave" unicode="`" horiz-adv-x="308" 
d="M175 687l59 -132h-62l-99 132h102z" />
    <glyph glyph-name="a" unicode="a" horiz-adv-x="519" 
d="M449 123q0 -28 11 -39t35 -11v-73h-16q-79 0 -97 68q-29 -36 -74.5 -57t-97.5 -21q-73 0 -120.5 36t-47.5 104q0 75 60 116t167 49l95 8v12q0 57 -27 91t-78 34q-50 0 -77 -29t-33 -69h-84q6 73 58 120.5t135 47.5q86 0 138.5 -52.5t52.5 -145.5v-189zM220 63
q58 0 101 36t43 103v35l-83 -6q-72 -6 -111 -31t-39 -65q0 -36 25.5 -54t63.5 -18z" />
    <glyph glyph-name="b" unicode="b" horiz-adv-x="588" 
d="M313 510q100 0 166 -72.5t66 -187.5t-65 -187.5t-164 -72.5q-102 0 -158 81h-10l-15 -71h-65v712h88v-285q44 83 157 83zM304 70q67 0 110 50.5t43 129.5t-42.5 129.5t-110.5 50.5q-67 0 -108 -49.5t-41 -130.5q0 -80 41 -130t108 -50z" />
    <glyph glyph-name="c" unicode="c" horiz-adv-x="562" 
d="M520 172q-11 -80 -74.5 -131t-153.5 -51q-118 0 -184 73.5t-66 186.5q0 109 71 184.5t177 75.5q92 0 155.5 -54t71.5 -137h-88q-8 48 -44.5 80t-96.5 32q-70 0 -113.5 -51.5t-43.5 -130.5q0 -81 41 -131.5t119 -50.5q54 0 90.5 29t48.5 76h90z" />
    <glyph glyph-name="d" unicode="d" horiz-adv-x="588" 
d="M432 712h88v-712h-65l-15 71h-10q-56 -81 -158 -81q-99 0 -164 72.5t-65 187.5t66 187.5t166 72.5q113 0 157 -83v285zM284 70q67 0 108 50t41 130q0 81 -41 130.5t-108 49.5q-68 0 -110.5 -50.5t-42.5 -129.5t43 -129.5t110 -50.5z" />
    <glyph glyph-name="e" unicode="e" horiz-adv-x="553" 
d="M280 510q106 0 171 -71.5t56 -207.5h-379q5 -76 45 -120.5t115 -44.5q45 0 80.5 20t52.5 59h85q-19 -75 -79 -115t-139 -40q-113 0 -179.5 71.5t-66.5 191.5q0 112 67.5 184.5t170.5 72.5zM131 299h293q-2 58 -40 98t-101 40q-61 0 -101 -37.5t-51 -100.5z" />
    <glyph glyph-name="f" unicode="f" horiz-adv-x="384" 
d="M209 563v-63h126v-73h-126v-427h-88v427h-89v73h89v72q0 65 36 101.5t94 36.5q65 0 101 -36l-31 -67q-25 25 -58 25q-26 0 -40 -18t-14 -51z" />
    <glyph glyph-name="g" unicode="g" horiz-adv-x="531" 
d="M501 482q-24 -30 -79 -54q27 -41 27 -94q0 -74 -54 -120t-138 -46q-46 0 -82 15q-38 -19 -38 -43q0 -46 82 -46h84q86 0 132 -38t46 -107q0 -73 -58.5 -116t-157.5 -43q-106 0 -165 52.5t-58 127.5l79 63q-64 24 -64 87q0 60 66 93q-55 47 -55 123t51.5 125t134.5 49
q73 0 127 -38q43 26 74 68zM259 234q47 0 75.5 30.5t28.5 75.5t-28.5 75t-74.5 30q-47 0 -77 -30t-30 -76q0 -44 30 -74.5t76 -30.5zM394 -53q0 39 -29 58t-75 19h-81l-80 -63q7 -43 41.5 -70.5t99.5 -27.5q55 0 89.5 21.5t34.5 62.5z" />
    <glyph glyph-name="h" unicode="h" horiz-adv-x="571" 
d="M317 510q90 0 140.5 -55.5t50.5 -154.5v-300h-90v270q0 75 -33.5 116t-96.5 41q-52 0 -89.5 -38t-37.5 -104v-285h-93v710h93v-269h8q22 28 61 48.5t87 20.5z" />
    <glyph glyph-name="i" unicode="i" horiz-adv-x="228" 
d="M115 578q-25 0 -43 17.5t-18 42.5t18 42.5t43 17.5t42.5 -17.5t17.5 -42.5t-17.5 -42.5t-42.5 -17.5zM158 500v-500h-89v500h89z" />
    <glyph glyph-name="j" unicode="j" horiz-adv-x="258" 
d="M145 578q-25 0 -43 17.5t-18 42.5t18 42.5t43 17.5t42.5 -17.5t17.5 -42.5t-17.5 -42.5t-42.5 -17.5zM-11 -107q25 -25 58 -25q26 0 40 18t14 51v563h88v-572q0 -65 -36 -101.5t-94 -36.5q-65 0 -101 36z" />
    <glyph glyph-name="k" unicode="k" horiz-adv-x="519" 
d="M489 500l-203 -210l203 -290h-101l-161 229l-71 -73v-156h-88v710h88v-431h9l211 221h113z" />
    <glyph glyph-name="l" unicode="l" horiz-adv-x="226" 
d="M68 710h90v-710h-90v710z" />
    <glyph glyph-name="m" unicode="m" horiz-adv-x="836" 
d="M601 509q79 0 125.5 -51.5t46.5 -152.5v-305h-91v300q0 63 -29 95.5t-76 32.5q-45 0 -78 -35t-33 -97v-296h-91v293q0 65 -29.5 100t-74.5 35q-44 0 -78 -33.5t-34 -95.5v-299h-91v500h69l14 -63h8q19 31 55 52t84 21q54 0 91 -28.5t52 -65.5h8q19 39 57.5 66t94.5 27z
" />
    <glyph glyph-name="n" unicode="n" horiz-adv-x="560" 
d="M312 510q81 0 133 -55t52 -156v-299h-92v282q0 72 -33.5 109.5t-89.5 37.5q-51 0 -86.5 -35.5t-35.5 -106.5v-287h-92v500h69l14 -63h8q49 73 153 73z" />
    <glyph glyph-name="o" unicode="o" horiz-adv-x="591" 
d="M296 -10q-110 0 -182 74t-72 187q0 111 71.5 185t181.5 74t182 -74t72 -186q0 -113 -71 -186.5t-182 -73.5zM295 69q73 0 119 52.5t46 128.5q0 75 -46.5 128t-118.5 53t-117.5 -53t-45.5 -128q0 -76 45.5 -128.5t117.5 -52.5z" />
    <glyph glyph-name="p" unicode="p" horiz-adv-x="587" 
d="M316 510q99 0 164 -72.5t65 -187.5t-66 -187.5t-166 -72.5q-113 0 -157 83v-273h-88v700h65l15 -71h10q56 81 158 81zM304 70q68 0 110.5 50.5t42.5 129.5t-43 129.5t-110 50.5t-108 -50t-41 -130q0 -81 41 -130.5t108 -49.5z" />
    <glyph glyph-name="q" unicode="q" horiz-adv-x="587" 
d="M454 500h65v-700h-88v273q-44 -83 -157 -83q-100 0 -166 72.5t-66 187.5t65 187.5t164 72.5q102 0 158 -81h10zM283 70q67 0 108 49.5t41 130.5q0 80 -41 130t-108 50t-110 -50.5t-43 -129.5t42.5 -129.5t110.5 -50.5z" />
    <glyph glyph-name="r" unicode="r" horiz-adv-x="371" 
d="M306 510h32v-90q-14 4 -41 4q-58 0 -98 -41.5t-40 -123.5v-259h-91v500h69l14 -70h8q55 80 147 80z" />
    <glyph glyph-name="s" unicode="s" horiz-adv-x="463" 
d="M421 129q0 -65 -51.5 -102t-130.5 -37q-89 0 -142.5 47.5t-54.5 123.5h86q1 -50 35 -75.5t78 -25.5q39 0 65.5 18.5t26.5 51.5q0 35 -30 55.5t-87 37.5q-32 10 -56 20.5t-49 27.5t-38.5 42t-13.5 56q0 64 49 102.5t125 38.5q79 0 126 -43.5t49 -105.5h-83q-2 35 -29 57
t-68 22q-34 0 -57.5 -17.5t-23.5 -47.5q0 -31 26 -50t81 -37q81 -26 124 -60.5t43 -98.5z" />
    <glyph glyph-name="t" unicode="t" horiz-adv-x="369" 
d="M334 13q-36 -23 -82 -23q-123 0 -123 134v303h-97v65h29q77 0 77 70v64h79v-126h119v-73h-119v-295q0 -63 50 -63q24 0 44 14z" />
    <glyph glyph-name="u" unicode="u" horiz-adv-x="560" 
d="M249 -10q-81 0 -132.5 55t-51.5 156v299h92v-282q0 -72 33.5 -109.5t88.5 -37.5q51 0 86 35.5t35 106.5v287h92v-500h-69l-14 63h-8q-49 -73 -152 -73z" />
    <glyph glyph-name="v" unicode="v" horiz-adv-x="550" 
d="M427 500h93l-181 -500h-128l-181 500h94l147 -420h9z" />
    <glyph glyph-name="w" unicode="w" horiz-adv-x="728" 
d="M614 500h84l-118 -500h-113l-99 372h-8l-100 -372h-112l-118 500h84l90 -408h8l100 372h104l101 -372h8z" />
    <glyph glyph-name="x" unicode="x" horiz-adv-x="519" 
d="M387 0l-123 191h-8l-124 -191h-102l167 260l-152 240h100l111 -173h8l108 173h101l-150 -240l166 -260h-102z" />
    <glyph glyph-name="y" unicode="y" horiz-adv-x="554" 
d="M432 500h92l-193 -565q-23 -70 -63 -107.5t-110 -37.5q-76 0 -114 43l37 63q34 -30 74 -30q31 0 55 24t37 61l16 49h-35l-197 500h96l158 -410h9z" />
    <glyph glyph-name="z" unicode="z" horiz-adv-x="462" 
d="M161 75h257v-75h-376v55l254 364v6h-239v75h358v-55l-254 -364v-6z" />
    <glyph glyph-name="braceleft" unicode="{" horiz-adv-x="280" 
d="M183 413q0 -75 -66 -108v-6q66 -31 66 -108v-234q0 -32 15.5 -47.5t40.5 -15.5h18v-63h-34q-58 0 -88 32t-30 90v230q0 82 -73 89v60q73 7 73 89v230q0 58 30 90t88 32h34v-63h-18q-25 0 -40.5 -15.5t-15.5 -47.5v-234z" />
    <glyph glyph-name="bar" unicode="|" horiz-adv-x="229" 
d="M156 770v-910h-83v910h83z" />
    <glyph glyph-name="braceright" unicode="}" horiz-adv-x="280" 
d="M97 413v234q0 32 -15.5 47.5t-40.5 15.5h-18v63h34q58 0 88 -32t30 -90v-230q0 -82 73 -89v-60q-73 -7 -73 -89v-230q0 -58 -30 -90t-88 -32h-34v63h18q25 0 40.5 15.5t15.5 47.5v234q0 77 66 108v6q-66 33 -66 108z" />
    <glyph glyph-name="asciitilde" unicode="~" horiz-adv-x="605" 
d="M549 328q-5 -17 -14.5 -35.5t-26 -40t-44.5 -35.5t-61 -14q-34 0 -63.5 13t-46.5 28.5t-41.5 28.5t-49.5 13q-56 0 -90 -73l-56 19q5 18 14.5 36.5t26.5 40t44.5 35.5t60.5 14q42 0 76.5 -21t63.5 -41.5t60 -20.5q58 0 92 73z" />
    <glyph glyph-name="uni00A0" unicode="&#xa0;" horiz-adv-x="250" 
 />
    <glyph glyph-name="exclamdown" unicode="&#xa1;" horiz-adv-x="239" 
d="M118 508q25 0 43 -17.5t18 -42.5t-17.5 -42.5t-43.5 -17.5q-24 0 -41.5 17.5t-17.5 42.5t17.5 42.5t41.5 17.5zM166 -200h-93l14 506h63z" />
    <glyph glyph-name="cent" unicode="&#xa2;" horiz-adv-x="539" 
d="M496 246q-9 -67 -58.5 -113t-122.5 -57v-76h-74v76q-95 12 -147 79.5t-52 164.5q0 94 56 162.5t143 81.5v76h74v-76q73 -10 122 -59t56 -119h-83q-6 36 -30.5 64t-64.5 37v-336q37 9 61.5 34t33.5 61h86zM126 320q0 -66 29.5 -111.5t85.5 -57.5v337q-53 -13 -84 -59
t-31 -109z" />
    <glyph glyph-name="sterling" unicode="&#xa3;" horiz-adv-x="573" 
d="M200 82v-6h307v-76h-451v58q58 18 97 61t39 102q0 28 -10 56h-126v63h93q-19 29 -26.5 41t-17 38.5t-9.5 52.5q0 81 57.5 129.5t143.5 48.5q52 0 95 -17.5t68 -44.5t39 -52t18 -47l-72 -21q-41 106 -147 106q-55 0 -86 -29t-31 -76q0 -17 6.5 -35.5t13 -29.5t22 -33
t20.5 -31h223l-15 -63h-179q6 -21 6 -47q0 -53 -23.5 -90.5t-54.5 -57.5z" />
    <glyph glyph-name="currency" unicode="&#xa4;" horiz-adv-x="588" 
d="M511 250q0 -69 -38 -124l73 -72l-57 -55l-71 72q-55 -38 -124 -38q-68 0 -123 38l-74 -72l-55 55l73 73q-39 55 -39 123q0 69 38 124l-72 72l55 55l73 -71q56 37 124 37q69 0 124 -38l71 72l57 -55l-73 -72q38 -55 38 -124zM294 114q56 0 95.5 40.5t39.5 95.5t-39.5 95.5
t-95.5 40.5t-95.5 -40.5t-39.5 -95.5t39.5 -95.5t95.5 -40.5z" />
    <glyph glyph-name="yen" unicode="&#xa5;" horiz-adv-x="552" 
d="M530 640l-179 -261h135v-62h-167v-63h167v-62h-167v-192h-87v192h-165v62h165v63h-165v62h132l-177 261h96l153 -234h8l154 234h97z" />
    <glyph glyph-name="brokenbar" unicode="&#xa6;" horiz-adv-x="229" 
d="M73 770h83v-355h-83v355zM73 -140v355h83v-355h-83z" />
    <glyph glyph-name="section" unicode="&#xa7;" horiz-adv-x="587" 
d="M407 87q105 -36 105 -129q0 -79 -60 -123t-148 -44q-107 0 -169.5 56t-60.5 135h86q2 -48 39.5 -80.5t102.5 -32.5q51 0 86 24.5t35 65.5q0 26 -13.5 44.5t-38.5 29t-47 16t-53 10.5q-97 15 -156 63.5t-59 132.5q0 63 40 105t84 54q-46 15 -75.5 47.5t-29.5 80.5
q0 80 60.5 124t148.5 44q108 0 170 -56.5t60 -135.5h-87q-2 48 -39 80.5t-102 32.5q-52 0 -87 -24.5t-35 -65.5q0 -25 13.5 -43.5t39 -29.5t48 -16.5t53.5 -10.5q96 -15 154.5 -63.5t58.5 -132.5q0 -63 -39.5 -104.5t-84.5 -53.5zM303 130q60 0 99 31.5t39 83.5
q0 58 -47 91.5t-110 33.5q-59 0 -98.5 -31t-39.5 -84q0 -57 47.5 -91t109.5 -34z" />
    <glyph glyph-name="dieresis" unicode="&#xa8;" horiz-adv-x="440" 
d="M129 558q-23 0 -39.5 16.5t-16.5 38.5q0 23 16.5 39t39.5 16t39 -16t16 -39t-16 -39t-39 -16zM312 558q-22 0 -38.5 16t-16.5 39t16 39t39 16t38.5 -16t15.5 -39t-16 -39t-38 -16z" />
    <glyph glyph-name="copyright" unicode="&#xa9;" 
d="M416 -10q-148 0 -254 105t-106 255t106 255t254 105t254 -105t106 -255t-106 -255t-254 -105zM416 43q126 0 216.5 90.5t90.5 216.5t-90.5 216.5t-216.5 90.5q-125 0 -214.5 -90t-89.5 -217t89.5 -217t214.5 -90zM591 295q-11 -67 -56.5 -102t-113.5 -35q-77 0 -131 52
t-54 139q0 86 53 137.5t126 51.5q66 0 114 -37t58 -105h-74q-9 34 -35 53.5t-63 19.5q-45 0 -75.5 -35t-30.5 -85q0 -51 31 -87t82 -36q39 0 63.5 19t31.5 50h74z" />
    <glyph glyph-name="guillemotleft" unicode="&#xab;" horiz-adv-x="523" 
d="M153 501h100l-133 -202l133 -202h-100l-131 202zM380 501h100l-133 -202l133 -202h-100l-131 202z" />
    <glyph glyph-name="logicalnot" unicode="&#xac;" horiz-adv-x="547" 
d="M492 145h-78v193h-358v72h436v-265z" />
    <glyph glyph-name="uni00AD" unicode="&#xad;" horiz-adv-x="424" 
d="M32 349h360v-76h-360v76z" />
    <glyph glyph-name="registered" unicode="&#xae;" 
d="M416 710q148 0 254 -105t106 -255t-106 -255t-254 -105t-254 105t-106 255t106 255t254 105zM416 43q126 0 216.5 90.5t90.5 216.5t-90.5 216.5t-216.5 90.5q-125 0 -214.5 -90t-89.5 -217t89.5 -217t214.5 -90zM561 412q0 -75 -73 -102l83 -139h-73l-77 129h-55v-129
h-67v360h129q67 0 100 -33t33 -86zM366 471v-112h71q27 0 43 16.5t16 40.5q0 23 -15.5 39t-45.5 16h-69z" />
    <glyph glyph-name="macron" unicode="&#xaf;" horiz-adv-x="448" 
d="M74 645h301v-64h-301v64z" />
    <glyph glyph-name="degree" unicode="&#xb0;" horiz-adv-x="385" 
d="M193 410q-61 0 -105.5 44t-44.5 106t44.5 106t105.5 44t105.5 -44.5t44.5 -105.5t-44.5 -105.5t-105.5 -44.5zM193 483q34 0 55.5 22t21.5 55t-21.5 55t-55.5 22t-55.5 -22t-21.5 -55t21.5 -55t55.5 -22z" />
    <glyph glyph-name="plusminus" unicode="&#xb1;" horiz-adv-x="535" 
d="M308 385h171v-70h-171v-174h-80v174h-172v70h172v173h80v-173zM56 0v74h423v-74h-423z" />
    <glyph glyph-name="uni00B2" unicode="&#xb2;" horiz-adv-x="332" 
d="M197 498q-94 -50 -96 -103h196v-54h-264v24q0 101 103 161q7 4 19.5 11t18.5 10t15.5 9t14 9.5t11 8.5t9.5 9.5t6.5 10t4.5 11t1 12.5q0 25 -17 41.5t-47 16.5q-36 0 -54.5 -22.5t-20.5 -53.5h-63q0 51 36 91.5t105 40.5q53 0 89 -30.5t36 -78.5q0 -24 -8 -43
t-25.5 -34.5t-31.5 -24.5t-38 -22z" />
    <glyph glyph-name="uni00B3" unicode="&#xb3;" horiz-adv-x="342" 
d="M236 543q32 -9 52.5 -35t20.5 -60q0 -50 -37.5 -82t-106.5 -32q-67 0 -102.5 34.5t-39.5 88.5h60q3 -30 24.5 -50.5t59.5 -20.5q35 0 57.5 18t22.5 47q0 30 -23 48t-64 18h-19v52h21q32 0 51.5 15t19.5 39t-18 39t-47 15t-47.5 -15t-21.5 -40h-61q0 47 37.5 77.5
t93.5 30.5q54 0 89.5 -28.5t35.5 -70.5q0 -52 -58 -84v-4z" />
    <glyph glyph-name="acute" unicode="&#xb4;" horiz-adv-x="308" 
d="M133 687h102l-99 -132h-62z" />
    <glyph glyph-name="uni00B5" unicode="&#xb5;" horiz-adv-x="563" 
d="M403 500h92v-500h-69l-14 63h-8q-49 -73 -152 -73q-54 0 -97 26v-216h-86v375q-1 8 -1 26v299h92v-282q0 -72 33.5 -109.5t88.5 -37.5q51 0 86 35.5t35 106.5v287z" />
    <glyph glyph-name="paragraph" unicode="&#xb6;" horiz-adv-x="620" 
d="M42 512q0 83 59 135.5t148 52.5h339v-77h-88v-823h-77v823h-95v-823h-79v523q-87 0 -147 52.5t-60 136.5z" />
    <glyph glyph-name="periodcentered" unicode="&#xb7;" horiz-adv-x="185" 
d="M93 248q-25 0 -43 17.5t-18 42.5t17.5 42.5t43.5 17.5q24 0 41.5 -17.5t17.5 -42.5t-17.5 -42.5t-41.5 -17.5z" />
    <glyph glyph-name="cedilla" unicode="&#xb8;" horiz-adv-x="349" 
d="M147 4h59l-31 -49q37 7 69 -16t32 -65q0 -39 -26.5 -61.5t-73.5 -22.5q-44 0 -69.5 21t-33.5 40l38 24q24 -38 63 -38q22 0 35 11t13 30q0 18 -14 29t-40 11q-20 0 -36 -10l-27 30z" />
    <glyph glyph-name="uni00B9" unicode="&#xb9;" horiz-adv-x="234" 
d="M118 340v260h-90v54h48q45 0 45 45v26h60v-385h-63z" />
    <glyph glyph-name="guillemotright" unicode="&#xbb;" horiz-adv-x="523" 
d="M143 97h-100l133 202l-133 202h100l131 -202zM370 97h-100l133 202l-133 202h100l131 -202z" />
    <glyph glyph-name="onequarter" unicode="&#xbc;" horiz-adv-x="725" 
d="M118 255v260h-90v54h48q45 0 45 45v26h60v-385h-63zM636 640l-498 -640h-73l498 640h73zM702 133v-52h-64v-81h-56v81h-193v35l165 269h84v-252h64zM459 133h123v186h-6z" />
    <glyph glyph-name="onehalf" unicode="&#xbd;" horiz-adv-x="757" 
d="M118 255v260h-90v54h48q45 0 45 45v26h60v-385h-63zM636 640l-498 -640h-73l498 640h73zM622 157q-94 -50 -96 -103h196v-54h-264v24q0 101 103 161q7 4 19.5 11t18.5 10t15.5 9t14 9.5t11 8.5t9.5 9.5t6.5 10t4.5 11t1 12.5q0 25 -17 41.5t-47 16.5q-36 0 -54.5 -22.5
t-20.5 -53.5h-63q0 51 36 91.5t105 40.5q53 0 89 -30.5t36 -78.5q0 -24 -8 -43t-25.5 -34.5t-31.5 -24.5t-38 -22z" />
    <glyph glyph-name="threequarters" unicode="&#xbe;" horiz-adv-x="805" 
d="M236 458q32 -9 52.5 -35t20.5 -60q0 -50 -37.5 -82t-106.5 -32q-67 0 -102.5 34.5t-39.5 88.5h60q3 -30 24.5 -50.5t59.5 -20.5q35 0 57.5 18t22.5 47q0 30 -23 48t-64 18h-19v52h21q32 0 51.5 15t19.5 39t-18 39t-47 15t-47.5 -15t-21.5 -40h-61q0 47 37.5 77.5
t93.5 30.5q54 0 89.5 -28.5t35.5 -70.5q0 -52 -58 -84v-4zM716 640l-498 -640h-73l498 640h73zM782 133v-52h-64v-81h-56v81h-193v35l165 269h84v-252h64zM539 133h123v186h-6z" />
    <glyph glyph-name="questiondown" unicode="&#xbf;" horiz-adv-x="441" 
d="M253 508q25 0 43 -17.5t18 -42.5t-17.5 -42.5t-43.5 -17.5q-24 0 -41.5 17.5t-17.5 42.5t17.5 42.5t41.5 17.5zM295 260q0 -61 -17.5 -102.5t-66.5 -83.5q-35 -31 -47.5 -43t-24.5 -33.5t-12 -45.5q0 -38 25 -61.5t71 -23.5q49 0 74.5 30t29.5 72h82q0 -31 -10.5 -61
t-31 -57.5t-58 -44t-86.5 -16.5q-84 0 -132.5 43t-48.5 114q0 14 1.5 26.5t6.5 25t7.5 20.5t12 20.5t12 17t15.5 17t14.5 14.5t17.5 16l16 14q37 33 52.5 67t15.5 81v40h82v-46z" />
    <glyph glyph-name="Agrave" unicode="&#xc0;" horiz-adv-x="645" 
d="M367 760h-65l-104 138h107zM525 0l-60 180h-285l-59 -180h-99l240 700h122l239 -700h-98zM207 261h231l-111 336h-9z" />
    <glyph glyph-name="Aacute" unicode="&#xc1;" horiz-adv-x="645" 
d="M452 898l-104 -138h-65l62 138h107zM525 0l-60 180h-285l-59 -180h-99l240 700h122l239 -700h-98zM207 261h231l-111 336h-9z" />
    <glyph glyph-name="Acircumflex" unicode="&#xc2;" horiz-adv-x="645" 
d="M317 856l-62 -86h-86l113 145h78l114 -145h-86l-63 86h-8zM525 0l-60 180h-285l-59 -180h-99l240 700h122l239 -700h-98zM207 261h231l-111 336h-9z" />
    <glyph glyph-name="Atilde" unicode="&#xc3;" horiz-adv-x="645" 
d="M256 815q-32 0 -57 -45l-53 26q9 31 36.5 59t71.5 28q36 0 74.5 -24.5t58.5 -24.5q39 0 57 45l55 -27q-10 -32 -37.5 -59.5t-71.5 -27.5q-37 0 -75.5 25t-58.5 25zM525 0l-60 180h-285l-59 -180h-99l240 700h122l239 -700h-98zM207 261h231l-111 336h-9z" />
    <glyph glyph-name="Adieresis" unicode="&#xc4;" horiz-adv-x="645" 
d="M208 765q-25 0 -43 18t-18 43t18 43t43 18t43 -18t18 -43t-18 -43t-43 -18zM438 765q-24 0 -42 18t-18 43t18 43t42 18q25 0 43 -18t18 -43t-18 -43t-43 -18zM525 0l-60 180h-285l-59 -180h-99l240 700h122l239 -700h-98zM207 261h231l-111 336h-9z" />
    <glyph glyph-name="Aring" unicode="&#xc5;" horiz-adv-x="645" 
d="M525 0l-60 180h-285l-59 -180h-99l229 667q-36 33 -36 81q0 44 32.5 76.5t77.5 32.5q44 0 76.5 -32.5t32.5 -76.5q0 -49 -38 -82l227 -666h-98zM326 796q-21 0 -35.5 -14.5t-14.5 -33.5q0 -18 11 -31.5t28 -16.5h20q16 3 27 16.5t11 31.5q0 19 -14 33.5t-33 14.5z
M207 261h231l-111 336h-9z" />
    <glyph glyph-name="AE" unicode="&#xc6;" horiz-adv-x="993" 
d="M598 85h362v-85h-452v185h-268l-112 -185h-106l419 700h509v-85h-352v-219h311v-82h-311v-229zM290 269h218v344h-10z" />
    <glyph glyph-name="Ccedilla" unicode="&#xc7;" horiz-adv-x="735" 
d="M684 213q-20 -96 -95.5 -156.5t-178.5 -65.5l-23 -37q38 7 70.5 -16.5t32.5 -65.5q0 -40 -27 -63t-75 -23q-31 0 -56 13.5t-34 25.5t-14 23l38 25q25 -39 64 -39q23 0 36 11.5t13 30.5q0 18 -14 29.5t-41 11.5q-18 0 -36 -11l-28 31l35 55q-135 13 -215 111t-80 246
q0 156 90.5 258.5t233.5 102.5q111 0 191.5 -58.5t100.5 -168.5h-97q-18 65 -68 102.5t-125 37.5q-102 0 -165 -79.5t-63 -193.5q0 -122 64.5 -197.5t172.5 -75.5q70 0 123 37.5t73 98.5h97z" />
    <glyph glyph-name="Egrave" unicode="&#xc8;" horiz-adv-x="558" 
d="M277 898l62 -138h-65l-104 138h107zM163 85h362v-85h-452v700h442v-85h-352v-219h311v-82h-311v-229z" />
    <glyph glyph-name="Eacute" unicode="&#xc9;" horiz-adv-x="558" 
d="M317 898h107l-104 -138h-65zM163 85h362v-85h-452v700h442v-85h-352v-219h311v-82h-311v-229z" />
    <glyph glyph-name="Ecircumflex" unicode="&#xca;" horiz-adv-x="558" 
d="M227 770h-86l113 145h78l114 -145h-86l-63 86h-8zM163 85h362v-85h-452v700h442v-85h-352v-219h311v-82h-311v-229z" />
    <glyph glyph-name="Edieresis" unicode="&#xcb;" horiz-adv-x="558" 
d="M180 765q-25 0 -43 18t-18 43t18 43t43 18t43 -18t18 -43t-18 -43t-43 -18zM410 765q-24 0 -42 18t-18 43t18 43t42 18q25 0 43 -18t18 -43t-18 -43t-43 -18zM163 85h362v-85h-452v700h442v-85h-352v-219h311v-82h-311v-229z" />
    <glyph glyph-name="Igrave" unicode="&#xcc;" horiz-adv-x="242" 
d="M103 898l62 -138h-65l-104 138h107zM169 700v-700h-96v700h96z" />
    <glyph glyph-name="Iacute" unicode="&#xcd;" horiz-adv-x="242" 
d="M143 898h107l-104 -138h-65zM169 700v-700h-96v700h96z" />
    <glyph glyph-name="Icircumflex" unicode="&#xce;" horiz-adv-x="242" 
d="M53 770h-86l113 145h78l114 -145h-86l-63 86h-8zM169 700v-700h-96v700h96z" />
    <glyph glyph-name="Idieresis" unicode="&#xcf;" horiz-adv-x="242" 
d="M6 765q-25 0 -43 18t-18 43t18 43t43 18t43 -18t18 -43t-18 -43t-43 -18zM236 765q-24 0 -42 18t-18 43t18 43t42 18q25 0 43 -18t18 -43t-18 -43t-43 -18zM169 700v-700h-96v700h96z" />
    <glyph glyph-name="Eth" unicode="&#xd0;" horiz-adv-x="683" 
d="M279 700q168 0 257.5 -93.5t89.5 -252.5q0 -164 -88.5 -259t-258.5 -95h-206v318h-110v70h110v312h206zM277 87q127 0 191.5 72.5t64.5 196.5q0 116 -65 187t-191 71h-111v-226h175v-70h-175v-231h111z" />
    <glyph glyph-name="Ntilde" unicode="&#xd1;" horiz-adv-x="710" 
d="M531 852q-10 -32 -37.5 -59.5t-71.5 -27.5q-37 0 -75.5 25t-58.5 25q-32 0 -57 -45l-53 26q9 31 36.5 59t71.5 28q36 0 74.5 -24.5t58.5 -24.5q39 0 57 45zM547 700h90v-700h-99l-367 543h-8v-543h-90v700h105l360 -541h9v541z" />
    <glyph glyph-name="Ograve" unicode="&#xd2;" horiz-adv-x="805" 
d="M384 898l62 -138h-65l-104 138h107zM403 -10q-149 0 -248 103t-99 257t99 257t247 103t247 -103t99 -257t-98.5 -257t-246.5 -103zM403 80q107 0 178 77.5t71 192.5t-71.5 192.5t-178.5 77.5t-178 -77.5t-71 -192.5t71 -192.5t179 -77.5z" />
    <glyph glyph-name="Oacute" unicode="&#xd3;" horiz-adv-x="805" 
d="M424 898h107l-104 -138h-65zM403 -10q-149 0 -248 103t-99 257t99 257t247 103t247 -103t99 -257t-98.5 -257t-246.5 -103zM403 80q107 0 178 77.5t71 192.5t-71.5 192.5t-178.5 77.5t-178 -77.5t-71 -192.5t71 -192.5t179 -77.5z" />
    <glyph glyph-name="Ocircumflex" unicode="&#xd4;" horiz-adv-x="805" 
d="M334 770h-86l113 145h78l114 -145h-86l-63 86h-8zM403 -10q-149 0 -248 103t-99 257t99 257t247 103t247 -103t99 -257t-98.5 -257t-246.5 -103zM403 80q107 0 178 77.5t71 192.5t-71.5 192.5t-178.5 77.5t-178 -77.5t-71 -192.5t71 -192.5t179 -77.5z" />
    <glyph glyph-name="Otilde" unicode="&#xd5;" horiz-adv-x="805" 
d="M578 852q-10 -32 -37.5 -59.5t-71.5 -27.5q-37 0 -75.5 25t-58.5 25q-32 0 -57 -45l-53 26q9 31 37 59t71 28q36 0 74.5 -24.5t58.5 -24.5q40 0 57 45zM403 -10q-149 0 -248 103t-99 257t99 257t247 103t247 -103t99 -257t-98.5 -257t-246.5 -103zM403 80q107 0 178 77.5
t71 192.5t-71.5 192.5t-178.5 77.5t-178 -77.5t-71 -192.5t71 -192.5t179 -77.5z" />
    <glyph glyph-name="Odieresis" unicode="&#xd6;" horiz-adv-x="805" 
d="M287 765q-25 0 -43 18t-18 43t18 43t43 18t43 -18t18 -43t-18 -43t-43 -18zM517 765q-24 0 -42 18t-18 43t18 43t42 18q25 0 43 -18t18 -43t-18 -43t-43 -18zM403 -10q-149 0 -248 103t-99 257t99 257t247 103t247 -103t99 -257t-98.5 -257t-246.5 -103zM403 80
q107 0 178 77.5t71 192.5t-71.5 192.5t-178.5 77.5t-178 -77.5t-71 -192.5t71 -192.5t179 -77.5z" />
    <glyph glyph-name="multiply" unicode="&#xd7;" horiz-adv-x="573" 
d="M500 436l-159 -156l159 -156l-54 -54l-159 156l-159 -156l-55 54l159 156l-159 156l53 54l161 -157l160 157z" />
    <glyph glyph-name="Oslash" unicode="&#xd8;" horiz-adv-x="805" 
d="M636 620q112 -106 112 -270q0 -154 -98.5 -257t-246.5 -103q-96 0 -176 47l-38 -54l-60 43l38 55q-111 105 -111 269q0 154 99 257t247 103q95 0 173 -45l37 53l62 -44zM153 350q0 -113 69 -190l300 429q-54 31 -120 31q-107 0 -178 -77.5t-71 -192.5zM403 80
q107 0 178 77.5t71 192.5q0 113 -71 192l-301 -429q57 -33 123 -33z" />
    <glyph glyph-name="Ugrave" unicode="&#xd9;" horiz-adv-x="693" 
d="M329 898l62 -138h-65l-104 138h107zM620 700v-425q0 -138 -76.5 -211.5t-195.5 -73.5q-120 0 -197.5 73.5t-77.5 211.5v425h96v-423q0 -95 50 -146.5t129 -51.5t127.5 51.5t48.5 146.5v423h96z" />
    <glyph glyph-name="Uacute" unicode="&#xda;" horiz-adv-x="693" 
d="M369 898h107l-104 -138h-65zM620 700v-425q0 -138 -76.5 -211.5t-195.5 -73.5q-120 0 -197.5 73.5t-77.5 211.5v425h96v-423q0 -95 50 -146.5t129 -51.5t127.5 51.5t48.5 146.5v423h96z" />
    <glyph glyph-name="Ucircumflex" unicode="&#xdb;" horiz-adv-x="693" 
d="M279 770h-86l113 145h78l114 -145h-86l-63 86h-8zM620 700v-425q0 -138 -76.5 -211.5t-195.5 -73.5q-120 0 -197.5 73.5t-77.5 211.5v425h96v-423q0 -95 50 -146.5t129 -51.5t127.5 51.5t48.5 146.5v423h96z" />
    <glyph glyph-name="Udieresis" unicode="&#xdc;" horiz-adv-x="693" 
d="M232 765q-25 0 -43 18t-18 43t18 43t43 18t43 -18t18 -43t-18 -43t-43 -18zM462 765q-24 0 -42 18t-18 43t18 43t42 18q25 0 43 -18t18 -43t-18 -43t-43 -18zM620 700v-425q0 -138 -76.5 -211.5t-195.5 -73.5q-120 0 -197.5 73.5t-77.5 211.5v425h96v-423
q0 -95 50 -146.5t129 -51.5t127.5 51.5t48.5 146.5v423h96z" />
    <glyph glyph-name="Yacute" unicode="&#xdd;" horiz-adv-x="641" 
d="M343 898h107l-104 -138h-65zM508 700h111l-249 -370v-330h-98v330l-250 370h111l183 -269h8z" />
    <glyph glyph-name="Thorn" unicode="&#xde;" horiz-adv-x="607" 
d="M325 568q103 0 164 -59t61 -153q0 -100 -62 -157.5t-170 -57.5h-158v-141h-87v700h87v-132h165zM308 224q70 0 109 34.5t39 97.5q0 60 -38.5 94.5t-102.5 34.5h-155v-261h148z" />
    <glyph glyph-name="germandbls" unicode="&#xdf;" horiz-adv-x="561" 
d="M360 388q161 -44 161 -202q0 -89 -52.5 -142.5t-136.5 -53.5t-134 48l35 59q41 -33 88 -33q49 0 82.5 34.5t33.5 96.5q0 72 -46.5 110.5t-124.5 38.5h-34v78h26q59 0 92 29.5t33 79.5q0 42 -30 71.5t-82 29.5q-49 0 -82 -39.5t-33 -110.5v-482h-88v484q0 105 54.5 165.5
t148.5 60.5q91 0 144.5 -48t53.5 -118q0 -105 -109 -150v-6z" />
    <glyph glyph-name="agrave" unicode="&#xe0;" horiz-adv-x="519" 
d="M294 555h-62l-99 132h102zM449 123q0 -28 11 -39t35 -11v-73h-16q-79 0 -97 68q-29 -36 -74.5 -57t-97.5 -21q-73 0 -120.5 36t-47.5 104q0 75 60 116t167 49l95 8v12q0 57 -27 91t-78 34q-50 0 -77 -29t-33 -69h-84q6 73 58 120.5t135 47.5q86 0 138.5 -52.5
t52.5 -145.5v-189zM220 63q58 0 101 36t43 103v35l-83 -6q-72 -6 -111 -31t-39 -65q0 -36 25.5 -54t63.5 -18z" />
    <glyph glyph-name="aacute" unicode="&#xe1;" horiz-adv-x="519" 
d="M390 687l-99 -132h-62l59 132h102zM449 123q0 -28 11 -39t35 -11v-73h-16q-79 0 -97 68q-29 -36 -74.5 -57t-97.5 -21q-73 0 -120.5 36t-47.5 104q0 75 60 116t167 49l95 8v12q0 57 -27 91t-78 34q-50 0 -77 -29t-33 -69h-84q6 73 58 120.5t135 47.5q86 0 138.5 -52.5
t52.5 -145.5v-189zM220 63q58 0 101 36t43 103v35l-83 -6q-72 -6 -111 -31t-39 -65q0 -36 25.5 -54t63.5 -18z" />
    <glyph glyph-name="acircumflex" unicode="&#xe2;" horiz-adv-x="519" 
d="M257 643l-60 -84h-83l109 141h76l110 -141h-83l-61 84h-8zM449 123q0 -28 11 -39t35 -11v-73h-16q-79 0 -97 68q-29 -36 -74.5 -57t-97.5 -21q-73 0 -120.5 36t-47.5 104q0 75 60 116t167 49l95 8v12q0 57 -27 91t-78 34q-50 0 -77 -29t-33 -69h-84q6 73 58 120.5
t135 47.5q86 0 138.5 -52.5t52.5 -145.5v-189zM220 63q58 0 101 36t43 103v35l-83 -6q-72 -6 -111 -31t-39 -65q0 -36 25.5 -54t63.5 -18z" />
    <glyph glyph-name="atilde" unicode="&#xe3;" horiz-adv-x="519" 
d="M199 605q-31 0 -54 -43l-51 25q9 30 35.5 56.5t67.5 26.5q35 0 71.5 -23.5t55.5 -23.5q36 0 54 43l52 -26q-9 -30 -35.5 -56.5t-67.5 -26.5q-35 0 -72 24t-56 24zM449 123q0 -28 11 -39t35 -11v-73h-16q-79 0 -97 68q-29 -36 -74.5 -57t-97.5 -21q-73 0 -120.5 36
t-47.5 104q0 75 60 116t167 49l95 8v12q0 57 -27 91t-78 34q-50 0 -77 -29t-33 -69h-84q6 73 58 120.5t135 47.5q86 0 138.5 -52.5t52.5 -145.5v-189zM220 63q58 0 101 36t43 103v35l-83 -6q-72 -6 -111 -31t-39 -65q0 -36 25.5 -54t63.5 -18z" />
    <glyph glyph-name="adieresis" unicode="&#xe4;" horiz-adv-x="519" 
d="M171 558q-23 0 -39.5 16.5t-16.5 38.5q0 23 16.5 39t39.5 16t39 -16t16 -39t-16 -39t-39 -16zM354 558q-22 0 -38.5 16t-16.5 39t16 39t39 16t38.5 -16t15.5 -39t-16 -39t-38 -16zM449 123q0 -28 11 -39t35 -11v-73h-16q-79 0 -97 68q-29 -36 -74.5 -57t-97.5 -21
q-73 0 -120.5 36t-47.5 104q0 75 60 116t167 49l95 8v12q0 57 -27 91t-78 34q-50 0 -77 -29t-33 -69h-84q6 73 58 120.5t135 47.5q86 0 138.5 -52.5t52.5 -145.5v-189zM220 63q58 0 101 36t43 103v35l-83 -6q-72 -6 -111 -31t-39 -65q0 -36 25.5 -54t63.5 -18z" />
    <glyph glyph-name="aring" unicode="&#xe5;" horiz-adv-x="519" 
d="M262 541q-40 0 -68 28t-28 67t28 67t68 28q39 0 67.5 -28t28.5 -67t-28.5 -67t-67.5 -28zM263 678q-18 0 -30.5 -12.5t-12.5 -29.5q0 -18 12 -30.5t31 -12.5q17 0 29 12.5t12 30.5q0 17 -12.5 29.5t-28.5 12.5zM449 123q0 -28 11 -39t35 -11v-73h-16q-79 0 -97 68
q-29 -36 -74.5 -57t-97.5 -21q-73 0 -120.5 36t-47.5 104q0 75 60 116t167 49l95 8v12q0 57 -27 91t-78 34q-50 0 -77 -29t-33 -69h-84q6 73 58 120.5t135 47.5q86 0 138.5 -52.5t52.5 -145.5v-189zM220 63q58 0 101 36t43 103v35l-83 -6q-72 -6 -111 -31t-39 -65
q0 -36 25.5 -54t63.5 -18z" />
    <glyph glyph-name="ae" unicode="&#xe6;" horiz-adv-x="874" 
d="M828 231h-379v-4q6 -75 46 -118t114 -43q45 0 80.5 20t52.5 59h85q-19 -75 -79 -115t-139 -40q-142 0 -207 108q-25 -49 -77.5 -78.5t-114.5 -29.5q-73 0 -120.5 36t-47.5 104q0 80 57 123t170 43h95v19q0 57 -27 91t-78 34q-50 0 -77 -29t-33 -69h-84q6 73 58 120.5
t135 47.5q113 0 163 -84q67 84 180 84q106 0 171 -71.5t56 -207.5zM604 437q-61 0 -101 -37.5t-51 -100.5h293q-2 58 -40 98t-101 40zM364 202v23v4h-93q-140 0 -140 -94q0 -36 25.5 -54t63.5 -18q58 0 101 36t43 103z" />
    <glyph glyph-name="ccedilla" unicode="&#xe7;" horiz-adv-x="562" 
d="M520 172q-10 -76 -68 -126t-141 -55l-23 -36q37 7 69 -16t32 -65q0 -39 -26.5 -61.5t-73.5 -22.5q-44 0 -69.5 21t-33.5 40l38 24q24 -38 63 -38q22 0 35 11t13 30q0 18 -14 29t-40 11q-20 0 -36 -10l-27 30l35 54q-100 13 -155.5 84t-55.5 174q0 109 71 184.5t177 75.5
q92 0 155.5 -54t71.5 -137h-88q-8 48 -44.5 80t-96.5 32q-70 0 -113.5 -51.5t-43.5 -130.5q0 -81 41 -131.5t119 -50.5q54 0 90.5 29t48.5 76h90z" />
    <glyph glyph-name="egrave" unicode="&#xe8;" horiz-adv-x="553" 
d="M311 555h-62l-99 132h102zM280 510q106 0 171 -71.5t56 -207.5h-379q5 -76 45 -120.5t115 -44.5q45 0 80.5 20t52.5 59h85q-19 -75 -79 -115t-139 -40q-113 0 -179.5 71.5t-66.5 191.5q0 112 67.5 184.5t170.5 72.5zM131 299h293q-2 58 -40 98t-101 40q-61 0 -101 -37.5
t-51 -100.5z" />
    <glyph glyph-name="eacute" unicode="&#xe9;" horiz-adv-x="553" 
d="M407 687l-99 -132h-62l59 132h102zM280 510q106 0 171 -71.5t56 -207.5h-379q5 -76 45 -120.5t115 -44.5q45 0 80.5 20t52.5 59h85q-19 -75 -79 -115t-139 -40q-113 0 -179.5 71.5t-66.5 191.5q0 112 67.5 184.5t170.5 72.5zM131 299h293q-2 58 -40 98t-101 40
q-61 0 -101 -37.5t-51 -100.5z" />
    <glyph glyph-name="ecircumflex" unicode="&#xea;" horiz-adv-x="553" 
d="M274 643l-60 -84h-83l109 141h76l110 -141h-83l-61 84h-8zM280 510q106 0 171 -71.5t56 -207.5h-379q5 -76 45 -120.5t115 -44.5q45 0 80.5 20t52.5 59h85q-19 -75 -79 -115t-139 -40q-113 0 -179.5 71.5t-66.5 191.5q0 112 67.5 184.5t170.5 72.5zM131 299h293
q-2 58 -40 98t-101 40q-61 0 -101 -37.5t-51 -100.5z" />
    <glyph glyph-name="edieresis" unicode="&#xeb;" horiz-adv-x="553" 
d="M188 558q-23 0 -39.5 16.5t-16.5 38.5q0 23 16.5 39t39.5 16t39 -16t16 -39t-16.5 -39t-38.5 -16zM371 558q-23 0 -39 16t-16 39t16 39t39 16t38.5 -16t15.5 -39t-16 -39t-38 -16zM280 510q106 0 171 -71.5t56 -207.5h-379q5 -76 45 -120.5t115 -44.5q45 0 80.5 20
t52.5 59h85q-19 -75 -79 -115t-139 -40q-113 0 -179.5 71.5t-66.5 191.5q0 112 67.5 184.5t170.5 72.5zM131 299h293q-2 58 -40 98t-101 40q-61 0 -101 -37.5t-51 -100.5z" />
    <glyph glyph-name="igrave" unicode="&#xec;" horiz-adv-x="228" 
d="M88 687l59 -132h-62l-99 132h102zM158 500v-500h-89v500h89z" />
    <glyph glyph-name="iacute" unicode="&#xed;" horiz-adv-x="228" 
d="M141 687h102l-99 -132h-62zM158 500v-500h-89v500h89z" />
    <glyph glyph-name="icircumflex" unicode="&#xee;" horiz-adv-x="228" 
d="M50 559h-83l109 141h76l110 -141h-83l-61 84h-8zM158 500v-500h-89v500h89z" />
    <glyph glyph-name="idieresis" unicode="&#xef;" horiz-adv-x="228" 
d="M24 558q-23 0 -39.5 16.5t-16.5 38.5q0 23 16.5 39t39.5 16t39 -16t16 -39t-16.5 -39t-38.5 -16zM207 558q-23 0 -39 16t-16 39t16 39t39 16t38.5 -16t15.5 -39t-16 -39t-38 -16zM158 500v-500h-89v500h89z" />
    <glyph glyph-name="eth" unicode="&#xf0;" horiz-adv-x="583" 
d="M414 625q113 -98 113 -311q0 -168 -68.5 -246t-182.5 -78q-109 0 -171.5 70.5t-62.5 189.5q0 114 68 187t169 73q108 0 157 -92q-20 118 -99 172l-133 -61l-19 43l98 45q-48 16 -108 16h-20v67h30q111 0 185 -44l116 53l16 -43zM281 70q69 0 113 50.5t44 129.5
q0 80 -44 130.5t-115 50.5q-67 0 -109 -52t-42 -129q0 -81 40 -130.5t113 -49.5z" />
    <glyph glyph-name="ntilde" unicode="&#xf1;" horiz-adv-x="560" 
d="M450 640q-9 -30 -35.5 -56.5t-67.5 -26.5q-35 0 -72 24t-56 24q-31 0 -54 -43l-51 25q9 30 35.5 56.5t67.5 26.5q35 0 71.5 -23.5t55.5 -23.5q36 0 54 43zM312 510q81 0 133 -55t52 -156v-299h-92v282q0 72 -33.5 109.5t-89.5 37.5q-51 0 -86.5 -35.5t-35.5 -106.5v-287
h-92v500h69l14 -63h8q49 73 153 73z" />
    <glyph glyph-name="ograve" unicode="&#xf2;" horiz-adv-x="591" 
d="M268 687l59 -132h-62l-99 132h102zM296 -10q-110 0 -182 74t-72 187q0 111 71.5 185t181.5 74t182 -74t72 -186q0 -113 -71 -186.5t-182 -73.5zM295 69q73 0 119 52.5t46 128.5q0 75 -46.5 128t-118.5 53t-117.5 -53t-45.5 -128q0 -76 45.5 -128.5t117.5 -52.5z" />
    <glyph glyph-name="oacute" unicode="&#xf3;" horiz-adv-x="591" 
d="M321 687h102l-99 -132h-62zM296 -10q-110 0 -182 74t-72 187q0 111 71.5 185t181.5 74t182 -74t72 -186q0 -113 -71 -186.5t-182 -73.5zM295 69q73 0 119 52.5t46 128.5q0 75 -46.5 128t-118.5 53t-117.5 -53t-45.5 -128q0 -76 45.5 -128.5t117.5 -52.5z" />
    <glyph glyph-name="ocircumflex" unicode="&#xf4;" horiz-adv-x="591" 
d="M230 559h-83l109 141h76l110 -141h-83l-61 84h-8zM296 -10q-110 0 -182 74t-72 187q0 111 71.5 185t181.5 74t182 -74t72 -186q0 -113 -71 -186.5t-182 -73.5zM295 69q73 0 119 52.5t46 128.5q0 75 -46.5 128t-118.5 53t-117.5 -53t-45.5 -128q0 -76 45.5 -128.5
t117.5 -52.5z" />
    <glyph glyph-name="otilde" unicode="&#xf5;" horiz-adv-x="591" 
d="M463 640q-9 -30 -35.5 -56.5t-67.5 -26.5q-35 0 -72 24t-56 24q-31 0 -54 -43l-51 25q9 30 35.5 56.5t67.5 26.5q35 0 71.5 -23.5t55.5 -23.5q36 0 54 43zM296 -10q-110 0 -182 74t-72 187q0 111 71.5 185t181.5 74t182 -74t72 -186q0 -113 -71 -186.5t-182 -73.5z
M295 69q73 0 119 52.5t46 128.5q0 75 -46.5 128t-118.5 53t-117.5 -53t-45.5 -128q0 -76 45.5 -128.5t117.5 -52.5z" />
    <glyph glyph-name="odieresis" unicode="&#xf6;" horiz-adv-x="591" 
d="M204 558q-23 0 -39.5 16.5t-16.5 38.5q0 23 16.5 39t39.5 16t39 -16t16 -39t-16.5 -39t-38.5 -16zM387 558q-23 0 -39 16t-16 39t16 39t39 16t38.5 -16t15.5 -39t-16 -39t-38 -16zM296 -10q-110 0 -182 74t-72 187q0 111 71.5 185t181.5 74t182 -74t72 -186
q0 -113 -71 -186.5t-182 -73.5zM295 69q73 0 119 52.5t46 128.5q0 75 -46.5 128t-118.5 53t-117.5 -53t-45.5 -128q0 -76 45.5 -128.5t117.5 -52.5z" />
    <glyph glyph-name="divide" unicode="&#xf7;" horiz-adv-x="542" 
d="M273 394q-25 0 -43 17.5t-18 42.5t17.5 42.5t43.5 17.5q24 0 41.5 -17.5t17.5 -42.5t-17.5 -42.5t-41.5 -17.5zM40 318h462v-76h-462v76zM273 35q-25 0 -43 17.5t-18 42.5t17.5 42.5t43.5 17.5q24 0 41.5 -17.5t17.5 -42.5t-17.5 -42.5t-41.5 -17.5z" />
    <glyph glyph-name="oslash" unicode="&#xf8;" horiz-adv-x="591" 
d="M474 439q75 -73 75 -189q0 -113 -71 -186.5t-182 -73.5q-69 0 -125 31l-27 -37l-55 37l29 40q-76 73 -76 190q0 111 71.5 185t181.5 74q69 0 125 -31l28 39l55 -38zM132 250q0 -69 37 -118l202 280q-35 19 -76 19q-72 0 -117.5 -53t-45.5 -128zM295 69q73 0 119 52.5
t46 128.5q0 67 -38 118l-203 -280q35 -19 76 -19z" />
    <glyph glyph-name="ugrave" unicode="&#xf9;" horiz-adv-x="560" 
d="M251 687l59 -132h-62l-99 132h102zM249 -10q-81 0 -132.5 55t-51.5 156v299h92v-282q0 -72 33.5 -109.5t88.5 -37.5q51 0 86 35.5t35 106.5v287h92v-500h-69l-14 63h-8q-49 -73 -152 -73z" />
    <glyph glyph-name="uacute" unicode="&#xfa;" horiz-adv-x="560" 
d="M304 687h102l-99 -132h-62zM249 -10q-81 0 -132.5 55t-51.5 156v299h92v-282q0 -72 33.5 -109.5t88.5 -37.5q51 0 86 35.5t35 106.5v287h92v-500h-69l-14 63h-8q-49 -73 -152 -73z" />
    <glyph glyph-name="ucircumflex" unicode="&#xfb;" horiz-adv-x="560" 
d="M213 559h-83l109 141h76l110 -141h-83l-61 84h-8zM249 -10q-81 0 -132.5 55t-51.5 156v299h92v-282q0 -72 33.5 -109.5t88.5 -37.5q51 0 86 35.5t35 106.5v287h92v-500h-69l-14 63h-8q-49 -73 -152 -73z" />
    <glyph glyph-name="udieresis" unicode="&#xfc;" horiz-adv-x="560" 
d="M187 558q-23 0 -39.5 16.5t-16.5 38.5q0 23 16.5 39t39.5 16t39 -16t16 -39t-16 -39t-39 -16zM370 558q-22 0 -38.5 16t-16.5 39t16 39t39 16t38.5 -16t15.5 -39t-16 -39t-38 -16zM249 -10q-81 0 -132.5 55t-51.5 156v299h92v-282q0 -72 33.5 -109.5t88.5 -37.5
q51 0 86 35.5t35 106.5v287h92v-500h-69l-14 63h-8q-49 -73 -152 -73z" />
    <glyph glyph-name="yacute" unicode="&#xfd;" horiz-adv-x="554" 
d="M304 687h102l-99 -132h-62zM432 500h92l-193 -565q-23 -70 -63 -107.5t-110 -37.5q-76 0 -114 43l37 63q34 -30 74 -30q31 0 55 24t37 61l16 49h-35l-197 500h96l158 -410h9z" />
    <glyph glyph-name="thorn" unicode="&#xfe;" horiz-adv-x="587" 
d="M316 510q99 0 164 -72.5t65 -187.5t-66 -187.5t-166 -72.5q-113 0 -157 83v-273h-88v910h84v-275h10q56 75 154 75zM304 70q68 0 110.5 50.5t42.5 129.5t-43 129.5t-110 50.5t-108 -50t-41 -130q0 -81 41 -130.5t108 -49.5z" />
    <glyph glyph-name="ydieresis" unicode="&#xff;" horiz-adv-x="554" 
d="M187 558q-23 0 -39.5 16.5t-16.5 38.5q0 23 16.5 39t39.5 16t39 -16t16 -39t-16 -39t-39 -16zM370 558q-22 0 -38.5 16t-16.5 39t16 39t39 16t38.5 -16t15.5 -39t-16 -39t-38 -16zM432 500h92l-193 -565q-23 -70 -63 -107.5t-110 -37.5q-76 0 -114 43l37 63
q34 -30 74 -30q31 0 55 24t37 61l16 49h-35l-197 500h96l158 -410h9z" />
    <glyph glyph-name="Amacron" unicode="&#x100;" horiz-adv-x="645" 
d="M481 836v-67h-316v67h316zM525 0l-60 180h-285l-59 -180h-99l240 700h122l239 -700h-98zM207 261h231l-111 336h-9z" />
    <glyph glyph-name="amacron" unicode="&#x101;" horiz-adv-x="519" 
d="M413 645v-64h-301v64h301zM449 123q0 -28 11 -39t35 -11v-73h-16q-79 0 -97 68q-29 -36 -74.5 -57t-97.5 -21q-73 0 -120.5 36t-47.5 104q0 75 60 116t167 49l95 8v12q0 57 -27 91t-78 34q-50 0 -77 -29t-33 -69h-84q6 73 58 120.5t135 47.5q86 0 138.5 -52.5
t52.5 -145.5v-189zM220 63q58 0 101 36t43 103v35l-83 -6q-72 -6 -111 -31t-39 -65q0 -36 25.5 -54t63.5 -18z" />
    <glyph glyph-name="Abreve" unicode="&#x102;" horiz-adv-x="645" 
d="M325 762q-61 0 -99.5 37.5t-38.5 86.5h71q0 -28 18.5 -47t48.5 -19q29 0 46.5 18.5t17.5 47.5h72q0 -50 -37.5 -87t-98.5 -37zM525 0l-60 180h-285l-59 -180h-99l240 700h122l239 -700h-98zM207 261h231l-111 336h-9z" />
    <glyph glyph-name="abreve" unicode="&#x103;" horiz-adv-x="519" 
d="M262 571q-58 0 -94.5 36t-36.5 83h68q0 -28 17 -45.5t46 -17.5t45 17.5t16 45.5h69q0 -47 -36 -83t-94 -36zM449 123q0 -28 11 -39t35 -11v-73h-16q-79 0 -97 68q-29 -36 -74.5 -57t-97.5 -21q-73 0 -120.5 36t-47.5 104q0 75 60 116t167 49l95 8v12q0 57 -27 91t-78 34
q-50 0 -77 -29t-33 -69h-84q6 73 58 120.5t135 47.5q86 0 138.5 -52.5t52.5 -145.5v-189zM220 63q58 0 101 36t43 103v35l-83 -6q-72 -6 -111 -31t-39 -65q0 -36 25.5 -54t63.5 -18z" />
    <glyph glyph-name="Aogonek" unicode="&#x104;" horiz-adv-x="645" 
d="M549 -77q0 -39 40.5 -49.5t69.5 8.5v-56q-16 -14 -57 -14q-47 0 -79.5 26.5t-32.5 72.5q0 55 61 89h-26l-60 180h-285l-59 -180h-99l240 700h122l239 -700q-32 -10 -53 -31.5t-21 -45.5zM207 261h231l-111 336h-9z" />
    <glyph glyph-name="aogonek" unicode="&#x105;" horiz-adv-x="519" 
d="M424 -75q0 -26 19 -39t43 -12t44 12v-55q-17 -13 -55 -13q-45 0 -77 25.5t-32 70.5q0 56 71 92q-42 14 -55 62q-29 -36 -74.5 -57t-97.5 -21q-73 0 -120.5 36t-47.5 104q0 75 60 116t167 49l95 8v12q0 57 -27 91t-78 34q-50 0 -77 -29t-33 -69h-84q6 73 58 120.5
t135 47.5q86 0 138.5 -52.5t52.5 -145.5v-189q0 -28 11 -39t35 -11v-73q-31 -10 -51 -31t-20 -44zM220 63q58 0 101 36t43 103v35l-83 -6q-72 -6 -111 -31t-39 -65q0 -36 25.5 -54t63.5 -18z" />
    <glyph glyph-name="Cacute" unicode="&#x106;" horiz-adv-x="735" 
d="M409 898h107l-104 -138h-65zM684 213q-21 -101 -102 -162t-191 -61q-152 0 -243.5 99.5t-91.5 259.5q0 156 90.5 258.5t233.5 102.5q111 0 191.5 -58.5t100.5 -168.5h-97q-18 65 -68 102.5t-125 37.5q-102 0 -165 -79.5t-63 -193.5q0 -122 64.5 -197.5t172.5 -75.5
q70 0 123 37.5t73 98.5h97z" />
    <glyph glyph-name="cacute" unicode="&#x107;" horiz-adv-x="562" 
d="M313 687h102l-99 -132h-62zM520 172q-11 -80 -74.5 -131t-153.5 -51q-118 0 -184 73.5t-66 186.5q0 109 71 184.5t177 75.5q92 0 155.5 -54t71.5 -137h-88q-8 48 -44.5 80t-96.5 32q-70 0 -113.5 -51.5t-43.5 -130.5q0 -81 41 -131.5t119 -50.5q54 0 90.5 29t48.5 76h90z
" />
    <glyph glyph-name="Ccircumflex" unicode="&#x108;" horiz-adv-x="735" 
d="M319 770h-86l113 145h78l114 -145h-86l-63 86h-8zM684 213q-21 -101 -102 -162t-191 -61q-152 0 -243.5 99.5t-91.5 259.5q0 156 90.5 258.5t233.5 102.5q111 0 191.5 -58.5t100.5 -168.5h-97q-18 65 -68 102.5t-125 37.5q-102 0 -165 -79.5t-63 -193.5
q0 -122 64.5 -197.5t172.5 -75.5q70 0 123 37.5t73 98.5h97z" />
    <glyph glyph-name="ccircumflex" unicode="&#x109;" horiz-adv-x="562" 
d="M222 559h-83l109 141h76l110 -141h-83l-61 84h-8zM520 172q-11 -80 -74.5 -131t-153.5 -51q-118 0 -184 73.5t-66 186.5q0 109 71 184.5t177 75.5q92 0 155.5 -54t71.5 -137h-88q-8 48 -44.5 80t-96.5 32q-70 0 -113.5 -51.5t-43.5 -130.5q0 -81 41 -131.5t119 -50.5
q54 0 90.5 29t48.5 76h90z" />
    <glyph glyph-name="Cdotaccent" unicode="&#x10a;" horiz-adv-x="735" 
d="M384 778q-28 0 -48 19.5t-20 46.5q0 28 20 47t48 19q27 0 46.5 -19t19.5 -47q0 -27 -19.5 -46.5t-46.5 -19.5zM684 213q-21 -101 -102 -162t-191 -61q-152 0 -243.5 99.5t-91.5 259.5q0 156 90.5 258.5t233.5 102.5q111 0 191.5 -58.5t100.5 -168.5h-97q-18 65 -68 102.5
t-125 37.5q-102 0 -165 -79.5t-63 -193.5q0 -122 64.5 -197.5t172.5 -75.5q70 0 123 37.5t73 98.5h97z" />
    <glyph glyph-name="cdotaccent" unicode="&#x10b;" horiz-adv-x="562" 
d="M287 578q-25 0 -43 17.5t-18 42.5t18 42.5t43 17.5t42.5 -17.5t17.5 -42.5t-17.5 -42.5t-42.5 -17.5zM520 172q-11 -80 -74.5 -131t-153.5 -51q-118 0 -184 73.5t-66 186.5q0 109 71 184.5t177 75.5q92 0 155.5 -54t71.5 -137h-88q-8 48 -44.5 80t-96.5 32
q-70 0 -113.5 -51.5t-43.5 -130.5q0 -81 41 -131.5t119 -50.5q54 0 90.5 29t48.5 76h90z" />
    <glyph glyph-name="Ccaron" unicode="&#x10c;" horiz-adv-x="735" 
d="M454 905h86l-113 -145h-78l-114 145h86l63 -86h8zM684 213q-21 -101 -102 -162t-191 -61q-152 0 -243.5 99.5t-91.5 259.5q0 156 90.5 258.5t233.5 102.5q111 0 191.5 -58.5t100.5 -168.5h-97q-18 65 -68 102.5t-125 37.5q-102 0 -165 -79.5t-63 -193.5
q0 -122 64.5 -197.5t172.5 -75.5q70 0 123 37.5t73 98.5h97z" />
    <glyph glyph-name="ccaron" unicode="&#x10d;" horiz-adv-x="562" 
d="M351 700h83l-109 -141h-76l-110 141h83l61 -84h8zM520 172q-11 -80 -74.5 -131t-153.5 -51q-118 0 -184 73.5t-66 186.5q0 109 71 184.5t177 75.5q92 0 155.5 -54t71.5 -137h-88q-8 48 -44.5 80t-96.5 32q-70 0 -113.5 -51.5t-43.5 -130.5q0 -81 41 -131.5t119 -50.5
q54 0 90.5 29t48.5 76h90z" />
    <glyph glyph-name="Dcaron" unicode="&#x10e;" horiz-adv-x="683" 
d="M392 905h86l-113 -145h-78l-114 145h86l63 -86h8zM279 700q168 0 257.5 -93.5t89.5 -252.5q0 -164 -88.5 -259t-258.5 -95h-206v700h206zM277 87q127 0 191.5 72.5t64.5 196.5q0 116 -65 187t-191 71h-111v-527h111z" />
    <glyph glyph-name="dcaron" unicode="&#x10f;" horiz-adv-x="588" 
d="M432 712h88v-712h-65l-15 71h-10q-56 -81 -158 -81q-99 0 -164 72.5t-65 187.5t66 187.5t166 72.5q113 0 157 -83v285zM596 700h81l-36 -180h-59zM284 70q67 0 108 50t41 130q0 81 -41 130.5t-108 49.5q-68 0 -110.5 -50.5t-42.5 -129.5t43 -129.5t110 -50.5z" />
    <glyph glyph-name="Dcroat" unicode="&#x110;" horiz-adv-x="683" 
d="M279 700q168 0 257.5 -93.5t89.5 -252.5q0 -164 -88.5 -259t-258.5 -95h-206v318h-110v70h110v312h206zM277 87q127 0 191.5 72.5t64.5 196.5q0 116 -65 187t-191 71h-111v-226h175v-70h-175v-231h111z" />
    <glyph glyph-name="dcroat" unicode="&#x111;" horiz-adv-x="588" 
d="M605 637v-65h-85v-572h-65l-15 71h-10q-56 -81 -158 -81q-99 0 -164 72.5t-65 187.5t66 187.5t166 72.5q113 0 157 -83v145h-130v65h130v75h88v-75h85zM284 70q67 0 108 50t41 130q0 81 -41 130.5t-108 49.5q-68 0 -110.5 -50.5t-42.5 -129.5t43 -129.5t110 -50.5z" />
    <glyph glyph-name="Emacron" unicode="&#x112;" horiz-adv-x="558" 
d="M137 836h316v-67h-316v67zM163 85h362v-85h-452v700h442v-85h-352v-219h311v-82h-311v-229z" />
    <glyph glyph-name="emacron" unicode="&#x113;" horiz-adv-x="553" 
d="M430 645v-64h-301v64h301zM280 510q106 0 171 -71.5t56 -207.5h-379q5 -76 45 -120.5t115 -44.5q45 0 80.5 20t52.5 59h85q-19 -75 -79 -115t-139 -40q-113 0 -179.5 71.5t-66.5 191.5q0 112 67.5 184.5t170.5 72.5zM131 299h293q-2 58 -40 98t-101 40q-61 0 -101 -37.5
t-51 -100.5z" />
    <glyph glyph-name="Ebreve" unicode="&#x114;" horiz-adv-x="558" 
d="M433 886q0 -50 -37.5 -87t-98.5 -37t-99.5 37.5t-38.5 86.5h71q0 -28 18.5 -47t48.5 -19q29 0 46.5 18.5t17.5 47.5h72zM163 85h362v-85h-452v700h442v-85h-352v-219h311v-82h-311v-229z" />
    <glyph glyph-name="ebreve" unicode="&#x115;" horiz-adv-x="553" 
d="M279 571q-58 0 -94.5 36t-36.5 83h68q0 -28 17 -45.5t46 -17.5t45 17.5t16 45.5h69q0 -47 -36 -83t-94 -36zM280 510q106 0 171 -71.5t56 -207.5h-379q5 -76 45 -120.5t115 -44.5q45 0 80.5 20t52.5 59h85q-19 -75 -79 -115t-139 -40q-113 0 -179.5 71.5t-66.5 191.5
q0 112 67.5 184.5t170.5 72.5zM131 299h293q-2 58 -40 98t-101 40q-61 0 -101 -37.5t-51 -100.5z" />
    <glyph glyph-name="Edotaccent" unicode="&#x116;" horiz-adv-x="558" 
d="M292 778q-28 0 -48 19.5t-20 46.5q0 28 20 47t48 19q27 0 46.5 -19t19.5 -47q0 -27 -19.5 -46.5t-46.5 -19.5zM163 85h362v-85h-452v700h442v-85h-352v-219h311v-82h-311v-229z" />
    <glyph glyph-name="edotaccent" unicode="&#x117;" horiz-adv-x="553" 
d="M279 578q-25 0 -43 17.5t-18 42.5t18 42.5t43 17.5t42.5 -17.5t17.5 -42.5t-17.5 -42.5t-42.5 -17.5zM280 510q106 0 171 -71.5t56 -207.5h-379q5 -76 45 -120.5t115 -44.5q45 0 80.5 20t52.5 59h85q-19 -75 -79 -115t-139 -40q-113 0 -179.5 71.5t-66.5 191.5
q0 112 67.5 184.5t170.5 72.5zM131 299h293q-2 58 -40 98t-101 40q-61 0 -101 -37.5t-51 -100.5z" />
    <glyph glyph-name="Eogonek" unicode="&#x118;" horiz-adv-x="558" 
d="M451 -78q0 -39 40.5 -49.5t69.5 8.5v-56q-16 -14 -57 -14q-47 0 -79.5 26.5t-32.5 72.5q0 56 63 90h-382v700h442v-85h-352v-219h311v-82h-311v-229h362v-85h-2l2 -1q-32 -10 -53 -31.5t-21 -45.5z" />
    <glyph glyph-name="eogonek" unicode="&#x119;" horiz-adv-x="553" 
d="M280 510q106 0 171 -71.5t56 -207.5h-377q5 -75 44.5 -120t113.5 -45q45 0 80.5 20t52.5 59h85q-13 -54 -50 -90.5t-88 -52.5q-29 -9 -47.5 -31t-18.5 -44q0 -27 19 -40.5t43 -12.5t44 12v-55q-17 -13 -55 -13q-45 0 -77 25t-32 67q0 51 47 81q-4 -1 -13 -1
q-107 0 -171.5 72.5t-64.5 190.5q0 112 67.5 184.5t170.5 72.5zM133 299h291q-2 58 -40 98t-101 40q-60 0 -99.5 -38t-50.5 -100z" />
    <glyph glyph-name="Ecaron" unicode="&#x11a;" horiz-adv-x="558" 
d="M362 905h86l-113 -145h-78l-114 145h86l63 -86h8zM163 85h362v-85h-452v700h442v-85h-352v-219h311v-82h-311v-229z" />
    <glyph glyph-name="ecaron" unicode="&#x11b;" horiz-adv-x="553" 
d="M317 559h-76l-110 141h83l61 -84h8l60 84h83zM280 510q106 0 171 -71.5t56 -207.5h-379q5 -76 45 -120.5t115 -44.5q45 0 80.5 20t52.5 59h85q-19 -75 -79 -115t-139 -40q-113 0 -179.5 71.5t-66.5 191.5q0 112 67.5 184.5t170.5 72.5zM131 299h293q-2 58 -40 98t-101 40
q-61 0 -101 -37.5t-51 -100.5z" />
    <glyph glyph-name="Gcircumflex" unicode="&#x11c;" horiz-adv-x="740" 
d="M304 770h-86l113 145h78l114 -145h-86l-63 86h-8zM359 363h305v-363h-62l-16 76h-8q-83 -86 -213 -86q-145 0 -227 96.5t-82 247.5q0 164 89.5 270t230.5 106q126 0 198 -61t88 -159h-96q-14 57 -61 95t-124 38q-104 0 -167 -80t-63 -204q0 -117 59.5 -190.5t172.5 -73.5
q62 0 111.5 26.5t77.5 59.5v126h-213v76z" />
    <glyph glyph-name="gcircumflex" unicode="&#x11d;" horiz-adv-x="531" 
d="M256 643l-60 -84h-83l109 141h76l110 -141h-83l-61 84h-8zM501 482q-24 -30 -79 -54q27 -41 27 -94q0 -74 -54 -120t-138 -46q-46 0 -82 15q-38 -19 -38 -43q0 -46 82 -46h84q86 0 132 -38t46 -107q0 -73 -58.5 -116t-157.5 -43q-106 0 -165 52.5t-58 127.5l79 63
q-64 24 -64 87q0 60 66 93q-55 47 -55 123t51.5 125t134.5 49q73 0 127 -38q43 26 74 68zM259 234q47 0 75.5 30.5t28.5 75.5t-28.5 75t-74.5 30q-47 0 -77 -30t-30 -76q0 -44 30 -74.5t76 -30.5zM394 -53q0 39 -29 58t-75 19h-81l-80 -63q7 -43 41.5 -70.5t99.5 -27.5
q55 0 89.5 21.5t34.5 62.5z" />
    <glyph glyph-name="Gbreve" unicode="&#x11e;" horiz-adv-x="740" 
d="M510 886q0 -50 -37.5 -87t-98.5 -37t-99.5 37.5t-38.5 86.5h71q0 -28 18.5 -47t48.5 -19q29 0 46.5 18.5t17.5 47.5h72zM359 363h305v-363h-62l-16 76h-8q-83 -86 -213 -86q-145 0 -227 96.5t-82 247.5q0 164 89.5 270t230.5 106q126 0 198 -61t88 -159h-96
q-14 57 -61 95t-124 38q-104 0 -167 -80t-63 -204q0 -117 59.5 -190.5t172.5 -73.5q62 0 111.5 26.5t77.5 59.5v126h-213v76z" />
    <glyph glyph-name="gbreve" unicode="&#x11f;" horiz-adv-x="531" 
d="M261 571q-58 0 -94.5 36t-36.5 83h68q0 -28 17 -45.5t46 -17.5t45 17.5t16 45.5h69q0 -47 -36 -83t-94 -36zM501 482q-24 -30 -79 -54q27 -41 27 -94q0 -74 -54 -120t-138 -46q-46 0 -82 15q-38 -19 -38 -43q0 -46 82 -46h84q86 0 132 -38t46 -107q0 -73 -58.5 -116
t-157.5 -43q-106 0 -165 52.5t-58 127.5l79 63q-64 24 -64 87q0 60 66 93q-55 47 -55 123t51.5 125t134.5 49q73 0 127 -38q43 26 74 68zM259 234q47 0 75.5 30.5t28.5 75.5t-28.5 75t-74.5 30q-47 0 -77 -30t-30 -76q0 -44 30 -74.5t76 -30.5zM394 -53q0 39 -29 58t-75 19
h-81l-80 -63q7 -43 41.5 -70.5t99.5 -27.5q55 0 89.5 21.5t34.5 62.5z" />
    <glyph glyph-name="Gdotaccent" unicode="&#x120;" horiz-adv-x="740" 
d="M369 778q-28 0 -48 19.5t-20 46.5q0 28 20 47t48 19q27 0 46.5 -19t19.5 -47q0 -27 -19.5 -46.5t-46.5 -19.5zM359 363h305v-363h-62l-16 76h-8q-83 -86 -213 -86q-145 0 -227 96.5t-82 247.5q0 164 89.5 270t230.5 106q126 0 198 -61t88 -159h-96q-14 57 -61 95t-124 38
q-104 0 -167 -80t-63 -204q0 -117 59.5 -190.5t172.5 -73.5q62 0 111.5 26.5t77.5 59.5v126h-213v76z" />
    <glyph glyph-name="gdotaccent" unicode="&#x121;" horiz-adv-x="531" 
d="M261 578q-25 0 -43 17.5t-18 42.5t18 42.5t43 17.5t42.5 -17.5t17.5 -42.5t-17.5 -42.5t-42.5 -17.5zM501 482q-24 -30 -79 -54q27 -41 27 -94q0 -74 -54 -120t-138 -46q-46 0 -82 15q-38 -19 -38 -43q0 -46 82 -46h84q86 0 132 -38t46 -107q0 -73 -58.5 -116t-157.5 -43
q-106 0 -165 52.5t-58 127.5l79 63q-64 24 -64 87q0 60 66 93q-55 47 -55 123t51.5 125t134.5 49q73 0 127 -38q43 26 74 68zM259 234q47 0 75.5 30.5t28.5 75.5t-28.5 75t-74.5 30q-47 0 -77 -30t-30 -76q0 -44 30 -74.5t76 -30.5zM394 -53q0 39 -29 58t-75 19h-81l-80 -63
q7 -43 41.5 -70.5t99.5 -27.5q55 0 89.5 21.5t34.5 62.5z" />
    <glyph glyph-name="Gcommaaccent" unicode="&#x122;" horiz-adv-x="740" 
d="M359 363h305v-363h-62l-16 76h-8q-83 -86 -213 -86q-145 0 -227 96.5t-82 247.5q0 164 89.5 270t230.5 106q126 0 198 -61t88 -159h-96q-14 57 -61 95t-124 38q-104 0 -167 -80t-63 -204q0 -117 59.5 -190.5t172.5 -73.5q62 0 111.5 26.5t77.5 59.5v126h-213v76zM372 -58
q31 0 48 -23t17 -59q0 -56 -30.5 -97.5t-71.5 -61.5l-22 27q58 45 59 92q-26 -3 -44.5 13.5t-18.5 45.5q0 28 18 45.5t45 17.5z" />
    <glyph glyph-name="gcommaaccent" unicode="&#x123;" horiz-adv-x="531" 
d="M261 559q-30 0 -46.5 22t-16.5 58q0 54 29.5 94t69.5 60l21 -27q-56 -43 -57 -89q25 3 43 -13t18 -44q0 -27 -17 -44t-44 -17zM501 482q-24 -30 -79 -54q27 -41 27 -94q0 -74 -54 -120t-138 -46q-46 0 -82 15q-38 -19 -38 -43q0 -46 82 -46h84q86 0 132 -38t46 -107
q0 -73 -58.5 -116t-157.5 -43q-106 0 -165 52.5t-58 127.5l79 63q-64 24 -64 87q0 60 66 93q-55 47 -55 123t51.5 125t134.5 49q73 0 127 -38q43 26 74 68zM259 234q47 0 75.5 30.5t28.5 75.5t-28.5 75t-74.5 30q-47 0 -77 -30t-30 -76q0 -44 30 -74.5t76 -30.5zM394 -53
q0 39 -29 58t-75 19h-81l-80 -63q7 -43 41.5 -70.5t99.5 -27.5q55 0 89.5 21.5t34.5 62.5z" />
    <glyph glyph-name="Hcircumflex" unicode="&#x124;" horiz-adv-x="672" 
d="M267 770h-86l113 145h78l114 -145h-86l-63 86h-8zM506 700h92v-700h-92v312h-340v-312h-93v700h93v-304h340v304z" />
    <glyph glyph-name="hcircumflex" unicode="&#x125;" horiz-adv-x="571" 
d="M220 770h-86l113 145h78l114 -145h-86l-63 86h-8zM317 510q90 0 140.5 -55.5t50.5 -154.5v-300h-90v270q0 75 -33.5 116t-96.5 41q-52 0 -89.5 -38t-37.5 -104v-285h-93v710h93v-269h8q22 28 61 48.5t87 20.5z" />
    <glyph glyph-name="Hbar" unicode="&#x126;" horiz-adv-x="672" 
d="M506 700h92v-700h-92v312h-340v-312h-93v700h93v-116h340v116zM166 396h340v113h-340v-113z" />
    <glyph glyph-name="hbar" unicode="&#x127;" horiz-adv-x="571" 
d="M317 510q90 0 140.5 -55.5t50.5 -154.5v-300h-90v270q0 75 -33.5 116t-96.5 41q-52 0 -89.5 -38t-37.5 -104v-285h-93v572h-88v65h88v73h93v-73h122v-65h-122v-131h8q22 28 61 48.5t87 20.5z" />
    <glyph glyph-name="Itilde" unicode="&#x128;" horiz-adv-x="242" 
d="M297 852q-10 -32 -37.5 -59.5t-71.5 -27.5q-37 0 -75.5 25t-58.5 25q-32 0 -57 -45l-53 26q9 31 36.5 59t71.5 28q36 0 74.5 -24.5t58.5 -24.5q39 0 57 45zM169 700v-700h-96v700h96z" />
    <glyph glyph-name="itilde" unicode="&#x129;" horiz-adv-x="228" 
d="M283 640q-9 -30 -35.5 -56.5t-67.5 -26.5q-35 0 -72 24t-56 24q-31 0 -54 -43l-51 25q9 30 35.5 56.5t67.5 26.5q35 0 71.5 -23.5t55.5 -23.5q36 0 54 43zM158 500v-500h-89v500h89z" />
    <glyph glyph-name="Imacron" unicode="&#x12a;" horiz-adv-x="242" 
d="M-37 836h316v-67h-316v67zM169 700v-700h-96v700h96z" />
    <glyph glyph-name="imacron" unicode="&#x12b;" horiz-adv-x="228" 
d="M-35 645h301v-64h-301v64zM158 500v-500h-89v500h89z" />
    <glyph glyph-name="Ibreve" unicode="&#x12c;" horiz-adv-x="242" 
d="M259 886q0 -50 -37.5 -87t-98.5 -37t-99.5 37.5t-38.5 86.5h71q0 -28 18.5 -47t48.5 -19q29 0 46.5 18.5t17.5 47.5h72zM169 700v-700h-96v700h96z" />
    <glyph glyph-name="ibreve" unicode="&#x12d;" horiz-adv-x="228" 
d="M245 690q0 -47 -36 -83t-94 -36t-94.5 36t-36.5 83h68q0 -28 17 -45.5t46 -17.5t45 17.5t16 45.5h69zM158 500v-500h-89v500h89z" />
    <glyph glyph-name="Iogonek" unicode="&#x12e;" horiz-adv-x="242" 
d="M95 -77q0 -39 40.5 -49.5t69.5 8.5v-56q-16 -14 -57 -14q-47 0 -79.5 26.5t-32.5 72.5q0 55 61 89h-24v700h96v-700q-32 -10 -53 -31.5t-21 -45.5z" />
    <glyph glyph-name="iogonek" unicode="&#x12f;" horiz-adv-x="228" 
d="M115 578q-25 0 -43 17.5t-18 42.5t18 42.5t43 17.5t42.5 -17.5t17.5 -42.5t-17.5 -42.5t-42.5 -17.5zM89 -75q0 -38 38.5 -48t67.5 9v-55q-17 -13 -55 -13q-45 0 -77 25.5t-32 70.5q0 53 60 86h-22v500h89v-499l2 -1q-31 -10 -51 -31t-20 -44z" />
    <glyph glyph-name="Idotaccent" unicode="&#x130;" horiz-adv-x="242" 
d="M118 778q-28 0 -48 19.5t-20 46.5q0 28 20 47t48 19q27 0 46.5 -19t19.5 -47q0 -27 -19.5 -46.5t-46.5 -19.5zM169 700v-700h-96v700h96z" />
    <glyph glyph-name="dotlessi" unicode="&#x131;" horiz-adv-x="228" 
d="M158 500v-500h-89v500h89z" />
    <glyph glyph-name="IJ" unicode="&#x132;" horiz-adv-x="778" 
d="M169 700v-700h-96v700h96zM370 201q4 -54 35.5 -89t86.5 -35q52 0 86 36t34 105v482h93v-489q0 -105 -59.5 -163t-151.5 -58q-99 0 -155.5 58.5t-59.5 152.5h91z" />
    <glyph glyph-name="ij" unicode="&#x133;" horiz-adv-x="462" 
d="M115 578q-25 0 -43 17.5t-18 42.5t18 42.5t43 17.5t42.5 -17.5t17.5 -42.5t-17.5 -42.5t-42.5 -17.5zM349 578q-25 0 -43 17.5t-18 42.5t18 42.5t43 17.5t42.5 -17.5t17.5 -42.5t-17.5 -42.5t-42.5 -17.5zM158 500v-500h-89v500h89zM193 -107q25 -25 58 -25q26 0 40 18
t14 51v563h88v-572q0 -65 -36 -101.5t-94 -36.5q-65 0 -101 36z" />
    <glyph glyph-name="Jcircumflex" unicode="&#x134;" horiz-adv-x="531" 
d="M344 770h-86l113 145h78l114 -145h-86l-63 86h-8zM123 201q4 -54 35.5 -89t86.5 -35q52 0 86 36t34 105v482h93v-489q0 -105 -59.5 -163t-151.5 -58q-99 0 -155.5 58.5t-59.5 152.5h91z" />
    <glyph glyph-name="jcircumflex" unicode="&#x135;" horiz-adv-x="258" 
d="M80 559h-83l109 141h76l110 -141h-83l-61 84h-8zM-11 -107q25 -25 58 -25q26 0 40 18t14 51v563h88v-572q0 -65 -36 -101.5t-94 -36.5q-65 0 -101 36z" />
    <glyph glyph-name="Kcommaaccent" unicode="&#x136;" horiz-adv-x="607" 
d="M476 0l-261 315h-49v-315h-93v700h93v-295h49l234 295h109l-264 -337v-6l290 -357h-108zM305 -58q31 0 48 -23t17 -59q0 -56 -30.5 -97.5t-71.5 -61.5l-22 27q58 45 59 92q-26 -3 -44.5 13.5t-18.5 45.5q0 28 18 45.5t45 17.5z" />
    <glyph glyph-name="kcommaaccent" unicode="&#x137;" horiz-adv-x="519" 
d="M489 500l-203 -210l203 -290h-101l-161 229l-71 -73v-156h-88v710h88v-431h9l211 221h113zM270 -59q30 0 46.5 -22t16.5 -58q0 -54 -29.5 -94t-69.5 -60l-21 27q56 43 57 89q-25 -3 -43 13t-18 44q0 27 17 44t44 17z" />
    <glyph glyph-name="Lacute" unicode="&#x139;" horiz-adv-x="563" 
d="M145 898h107l-104 -138h-65zM171 90h359v-90h-456v700h97v-610z" />
    <glyph glyph-name="lacute" unicode="&#x13a;" horiz-adv-x="226" 
d="M241 887l-99 -132h-62l59 132h102zM68 0v710h90v-710h-90z" />
    <glyph glyph-name="Lcommaaccent" unicode="&#x13b;" horiz-adv-x="563" 
d="M171 90h359v-90h-456v700h97v-610zM302 -58q31 0 48 -23t17 -59q0 -56 -30.5 -97.5t-71.5 -61.5l-22 27q58 45 59 92q-26 -3 -44.5 13.5t-18.5 45.5q0 28 18 45.5t45 17.5z" />
    <glyph glyph-name="lcommaaccent" unicode="&#x13c;" horiz-adv-x="226" 
d="M158 710v-710h-90v710h90zM113 -59q30 0 46.5 -22t16.5 -58q0 -54 -29.5 -94t-69.5 -60l-21 27q56 43 57 89q-25 -3 -43 13t-18 44q0 27 17 44t44 17z" />
    <glyph glyph-name="Lcaron" unicode="&#x13d;" horiz-adv-x="563" 
d="M171 90h359v-90h-456v700h97v-610zM273 700h100l-45 -202h-72z" />
    <glyph glyph-name="lcaron" unicode="&#x13e;" horiz-adv-x="226" 
d="M68 0v710h90v-710h-90zM241 700h81l-36 -180h-59z" />
    <glyph glyph-name="Ldot" unicode="&#x13f;" horiz-adv-x="563" 
d="M171 90h359v-90h-456v700h97v-610zM357 354q-28 0 -48 19.5t-20 46.5q0 28 20 47t48 19q27 0 46.5 -19t19.5 -47q0 -27 -19.5 -46.5t-46.5 -19.5z" />
    <glyph glyph-name="ldot" unicode="&#x140;" horiz-adv-x="226" 
d="M113 778q-25 0 -43 17.5t-18 42.5t18 42.5t43 17.5t42.5 -17.5t17.5 -42.5t-17.5 -42.5t-42.5 -17.5zM68 0v710h90v-710h-90z" />
    <glyph glyph-name="Lslash" unicode="&#x141;" horiz-adv-x="563" 
d="M171 90h359v-90h-456v259l-99 -51v86l99 51v355h97v-305l178 92v-86l-178 -92v-219z" />
    <glyph glyph-name="lslash" unicode="&#x142;" horiz-adv-x="226" 
d="M239 495v-82l-81 -49v-364h-90v310l-79 -47v81l79 48v318h90v-264z" />
    <glyph glyph-name="Nacute" unicode="&#x143;" horiz-adv-x="710" 
d="M377 898h107l-104 -138h-65zM547 700h90v-700h-99l-367 543h-8v-543h-90v700h105l360 -541h9v541z" />
    <glyph glyph-name="nacute" unicode="&#x144;" horiz-adv-x="560" 
d="M308 687h102l-99 -132h-62zM312 510q81 0 133 -55t52 -156v-299h-92v282q0 72 -33.5 109.5t-89.5 37.5q-51 0 -86.5 -35.5t-35.5 -106.5v-287h-92v500h69l14 -63h8q49 73 153 73z" />
    <glyph glyph-name="Ncommaaccent" unicode="&#x145;" horiz-adv-x="710" 
d="M547 700h90v-700h-99l-367 543h-8v-543h-90v700h105l360 -541h9v541zM355 -58q31 0 48 -23t17 -59q0 -56 -30.5 -97.5t-71.5 -61.5l-22 27q58 45 59 92q-26 -3 -44.5 13.5t-18.5 45.5q0 28 18 45.5t45 17.5z" />
    <glyph glyph-name="ncommaaccent" unicode="&#x146;" horiz-adv-x="560" 
d="M312 510q81 0 133 -55t52 -156v-299h-92v282q0 72 -33.5 109.5t-89.5 37.5q-51 0 -86.5 -35.5t-35.5 -106.5v-287h-92v500h69l14 -63h8q49 73 153 73zM282 -59q30 0 46.5 -22t16.5 -58q0 -54 -29.5 -94t-69.5 -60l-21 27q56 43 57 89q-25 -3 -43 13t-18 44q0 27 17 44
t44 17z" />
    <glyph glyph-name="Ncaron" unicode="&#x147;" horiz-adv-x="710" 
d="M422 905h86l-113 -145h-78l-114 145h86l63 -86h8zM547 700h90v-700h-99l-367 543h-8v-543h-90v700h105l360 -541h9v541z" />
    <glyph glyph-name="ncaron" unicode="&#x148;" horiz-adv-x="560" 
d="M346 700h83l-109 -141h-76l-110 141h83l61 -84h8zM312 510q81 0 133 -55t52 -156v-299h-92v282q0 72 -33.5 109.5t-89.5 37.5q-51 0 -86.5 -35.5t-35.5 -106.5v-287h-92v500h69l14 -63h8q49 73 153 73z" />
    <glyph glyph-name="Eng" unicode="&#x14a;" horiz-adv-x="710" 
d="M546 700h91v-763q0 -71 -36 -109t-96 -38q-56 0 -89 20v73q34 -17 62 -17q31 0 48.5 20t17.5 57v47l-372 553h-8v-543h-91v700h105l360 -541h8v541z" />
    <glyph glyph-name="eng" unicode="&#x14b;" horiz-adv-x="560" 
d="M312 510q81 0 133 -55t52 -156v-370q0 -67 -34.5 -103t-91.5 -36q-53 0 -85 19v70q36 -16 58 -16q29 0 45 18.5t16 50.5v350q0 72 -33.5 109.5t-89.5 37.5q-51 0 -86.5 -35.5t-35.5 -106.5v-287h-92v500h69l14 -63h8q49 73 153 73z" />
    <glyph glyph-name="Omacron" unicode="&#x14c;" horiz-adv-x="805" 
d="M244 836h316v-67h-316v67zM403 -10q-149 0 -248 103t-99 257t99 257t247 103t247 -103t99 -257t-98.5 -257t-246.5 -103zM403 80q107 0 178 77.5t71 192.5t-71.5 192.5t-178.5 77.5t-178 -77.5t-71 -192.5t71 -192.5t179 -77.5z" />
    <glyph glyph-name="omacron" unicode="&#x14d;" horiz-adv-x="591" 
d="M145 645h301v-64h-301v64zM296 -10q-110 0 -182 74t-72 187q0 111 71.5 185t181.5 74t182 -74t72 -186q0 -113 -71 -186.5t-182 -73.5zM295 69q73 0 119 52.5t46 128.5q0 75 -46.5 128t-118.5 53t-117.5 -53t-45.5 -128q0 -76 45.5 -128.5t117.5 -52.5z" />
    <glyph glyph-name="Obreve" unicode="&#x14e;" horiz-adv-x="805" 
d="M540 886q0 -50 -37.5 -87t-98.5 -37t-99.5 37.5t-38.5 86.5h71q0 -28 18.5 -47t48.5 -19q29 0 46.5 18.5t17.5 47.5h72zM403 -10q-149 0 -248 103t-99 257t99 257t247 103t247 -103t99 -257t-98.5 -257t-246.5 -103zM403 80q107 0 178 77.5t71 192.5t-71.5 192.5
t-178.5 77.5t-178 -77.5t-71 -192.5t71 -192.5t179 -77.5z" />
    <glyph glyph-name="obreve" unicode="&#x14f;" horiz-adv-x="591" 
d="M425 690q0 -47 -36 -83t-94 -36t-94.5 36t-36.5 83h68q0 -28 17 -45.5t46 -17.5t45 17.5t16 45.5h69zM296 -10q-110 0 -182 74t-72 187q0 111 71.5 185t181.5 74t182 -74t72 -186q0 -113 -71 -186.5t-182 -73.5zM295 69q73 0 119 52.5t46 128.5q0 75 -46.5 128t-118.5 53
t-117.5 -53t-45.5 -128q0 -76 45.5 -128.5t117.5 -52.5z" />
    <glyph glyph-name="Ohungarumlaut" unicode="&#x150;" horiz-adv-x="805" 
d="M363 904h93l-100 -138h-69zM524 904h95l-101 -138h-68zM403 -10q-149 0 -248 103t-99 257t99 257t247 103t247 -103t99 -257t-98.5 -257t-246.5 -103zM403 80q107 0 178 77.5t71 192.5t-71.5 192.5t-178.5 77.5t-178 -77.5t-71 -192.5t71 -192.5t179 -77.5z" />
    <glyph glyph-name="ohungarumlaut" unicode="&#x151;" horiz-adv-x="591" 
d="M244 687h89l-95 -132h-66zM398 687h90l-96 -132h-65zM296 -10q-110 0 -182 74t-72 187q0 111 71.5 185t181.5 74t182 -74t72 -186q0 -113 -71 -186.5t-182 -73.5zM295 69q73 0 119 52.5t46 128.5q0 75 -46.5 128t-118.5 53t-117.5 -53t-45.5 -128q0 -76 45.5 -128.5
t117.5 -52.5z" />
    <glyph glyph-name="OE" unicode="&#x152;" horiz-adv-x="1143" 
d="M748 85h362v-85h-452v102q-101 -112 -255 -112q-149 0 -248 103t-99 257t99 257t247 103q156 0 256 -113v103h442v-85h-352v-219h311v-82h-311v-229zM403 80q107 0 178 77.5t71 192.5t-71.5 192.5t-178.5 77.5t-178 -77.5t-71 -192.5t71 -192.5t179 -77.5z" />
    <glyph glyph-name="oe" unicode="&#x153;" horiz-adv-x="972" 
d="M926 231h-378v-11q7 -71 47 -112.5t112 -41.5q45 0 80.5 20t52.5 59h85q-19 -75 -79 -115t-139 -40q-139 0 -204 104q-73 -104 -207 -104q-110 0 -182 74t-72 187q0 111 71.5 185t181.5 74q65 0 119.5 -28t88.5 -77q68 105 196 105q106 0 171 -71.5t56 -207.5zM702 437
q-61 0 -101 -37.5t-51 -100.5h293q-2 58 -40 98t-101 40zM295 69q73 0 119 52.5t46 128.5q0 75 -46.5 128t-118.5 53t-117.5 -53t-45.5 -128q0 -76 45.5 -128.5t117.5 -52.5z" />
    <glyph glyph-name="Racute" unicode="&#x154;" horiz-adv-x="600" 
d="M424 898l-104 -138h-65l62 138h107zM568 0h-102l-167 286h-1h-136v-286h-89v700h237q104 0 166 -56t62 -149q0 -70 -39 -121.5t-107 -73.5zM162 615v-244h136q69 0 108 33.5t39 89.5q0 58 -39 89.5t-108 31.5h-136z" />
    <glyph glyph-name="racute" unicode="&#x155;" horiz-adv-x="371" 
d="M233 687h102l-99 -132h-62zM306 510h32v-90q-14 4 -41 4q-58 0 -98 -41.5t-40 -123.5v-259h-91v500h69l14 -70h8q55 80 147 80z" />
    <glyph glyph-name="Rcommaaccent" unicode="&#x156;" horiz-adv-x="600" 
d="M392 300l176 -300h-102l-167 286h-1h-136v-286h-89v700h237q104 0 166 -56t62 -149q0 -70 -39 -121.5t-107 -73.5zM162 615v-244h136q69 0 108 33.5t39 89.5q0 58 -39 89.5t-108 31.5h-136zM308 -58q31 0 48 -23t17 -59q0 -56 -30.5 -97.5t-71.5 -61.5l-22 27
q58 45 59 92q-26 -3 -44.5 13.5t-18.5 45.5q0 28 18 45.5t45 17.5z" />
    <glyph glyph-name="rcommaaccent" unicode="&#x157;" horiz-adv-x="371" 
d="M306 510h32v-90q-14 4 -41 4q-58 0 -98 -41.5t-40 -123.5v-259h-91v500h69l14 -70h8q55 80 147 80zM113 -59q30 0 46.5 -22t16.5 -58q0 -54 -29.5 -94t-69.5 -60l-21 27q56 43 57 89q-25 -3 -43 13t-18 44q0 27 17 44t44 17z" />
    <glyph glyph-name="Rcaron" unicode="&#x158;" horiz-adv-x="600" 
d="M335 760h-78l-114 145h86l63 -86h8l62 86h86zM568 0h-102l-167 286h-1h-136v-286h-89v700h237q104 0 166 -56t62 -149q0 -70 -39 -121.5t-107 -73.5zM162 615v-244h136q69 0 108 33.5t39 89.5q0 58 -39 89.5t-108 31.5h-136z" />
    <glyph glyph-name="rcaron" unicode="&#x159;" horiz-adv-x="371" 
d="M271 700h83l-109 -141h-76l-110 141h83l61 -84h8zM306 510h32v-90q-14 4 -41 4q-58 0 -98 -41.5t-40 -123.5v-259h-91v500h69l14 -70h8q55 80 147 80z" />
    <glyph glyph-name="Sacute" unicode="&#x15a;" horiz-adv-x="600" 
d="M323 898h107l-104 -138h-65zM544 175q0 -90 -64.5 -137.5t-168.5 -47.5q-120 0 -186 62t-69 160h94q3 -63 42 -102t119 -39q61 0 99.5 26.5t38.5 78.5q0 48 -36 80.5t-128 62.5q-99 33 -153.5 77t-54.5 122q0 87 62 139.5t158 52.5q107 0 169.5 -60.5t64.5 -145.5h-88
q-4 51 -40.5 87.5t-106.5 36.5q-56 0 -90 -29.5t-34 -74.5q0 -46 36 -73.5t120 -55.5q109 -37 162.5 -88t53.5 -132z" />
    <glyph glyph-name="sacute" unicode="&#x15b;" horiz-adv-x="463" 
d="M258 687h102l-99 -132h-62zM421 129q0 -65 -51.5 -102t-130.5 -37q-89 0 -142.5 47.5t-54.5 123.5h86q1 -50 35 -75.5t78 -25.5q39 0 65.5 18.5t26.5 51.5q0 35 -30 55.5t-87 37.5q-32 10 -56 20.5t-49 27.5t-38.5 42t-13.5 56q0 64 49 102.5t125 38.5q79 0 126 -43.5
t49 -105.5h-83q-2 35 -29 57t-68 22q-34 0 -57.5 -17.5t-23.5 -47.5q0 -31 26 -50t81 -37q81 -26 124 -60.5t43 -98.5z" />
    <glyph glyph-name="Scircumflex" unicode="&#x15c;" horiz-adv-x="600" 
d="M233 770h-86l113 145h78l114 -145h-86l-63 86h-8zM544 175q0 -90 -64.5 -137.5t-168.5 -47.5q-120 0 -186 62t-69 160h94q3 -63 42 -102t119 -39q61 0 99.5 26.5t38.5 78.5q0 48 -36 80.5t-128 62.5q-99 33 -153.5 77t-54.5 122q0 87 62 139.5t158 52.5
q107 0 169.5 -60.5t64.5 -145.5h-88q-4 51 -40.5 87.5t-106.5 36.5q-56 0 -90 -29.5t-34 -74.5q0 -46 36 -73.5t120 -55.5q109 -37 162.5 -88t53.5 -132z" />
    <glyph glyph-name="scircumflex" unicode="&#x15d;" horiz-adv-x="463" 
d="M167 559h-83l109 141h76l110 -141h-83l-61 84h-8zM421 129q0 -65 -51.5 -102t-130.5 -37q-89 0 -142.5 47.5t-54.5 123.5h86q1 -50 35 -75.5t78 -25.5q39 0 65.5 18.5t26.5 51.5q0 35 -30 55.5t-87 37.5q-32 10 -56 20.5t-49 27.5t-38.5 42t-13.5 56q0 64 49 102.5
t125 38.5q79 0 126 -43.5t49 -105.5h-83q-2 35 -29 57t-68 22q-34 0 -57.5 -17.5t-23.5 -47.5q0 -31 26 -50t81 -37q81 -26 124 -60.5t43 -98.5z" />
    <glyph glyph-name="Scedilla" unicode="&#x15e;" horiz-adv-x="600" 
d="M544 175q0 -83 -55.5 -130t-147.5 -54l-24 -37q38 7 70.5 -16.5t32.5 -65.5q0 -40 -27 -63t-75 -23q-31 0 -56 13.5t-34 25.5t-14 23l38 25q25 -39 64 -39q23 0 36 11.5t13 30.5q0 18 -14 29.5t-41 11.5q-18 0 -36 -11l-28 31l35 54q-106 8 -164 68.5t-61 152.5h94
q3 -63 42 -102t119 -39q61 0 99.5 26.5t38.5 78.5q0 48 -36 80.5t-128 62.5q-99 33 -153.5 77t-54.5 122q0 87 62 139.5t158 52.5q107 0 169.5 -60.5t64.5 -145.5h-88q-4 51 -40.5 87.5t-106.5 36.5q-56 0 -90 -29.5t-34 -74.5q0 -46 36 -73.5t120 -55.5q109 -37 162.5 -88
t53.5 -132z" />
    <glyph glyph-name="scedilla" unicode="&#x15f;" horiz-adv-x="463" 
d="M421 129q0 -61 -44.5 -97t-115.5 -41l-23 -36q37 7 69 -16t32 -65q0 -39 -26.5 -61.5t-73.5 -22.5q-44 0 -69.5 21t-33.5 40l38 24q24 -38 63 -38q22 0 35 11t13 30q0 18 -14 29t-40 11q-20 0 -36 -10l-27 30l35 54q-74 10 -117 56t-44 113h86q1 -50 35 -75.5t78 -25.5
q39 0 65.5 18.5t26.5 51.5q0 35 -30 55.5t-87 37.5q-32 10 -56 20.5t-49 27.5t-38.5 42t-13.5 56q0 64 49 102.5t125 38.5q79 0 126 -43.5t49 -105.5h-83q-2 35 -29 57t-68 22q-34 0 -57.5 -17.5t-23.5 -47.5q0 -31 26 -50t81 -37q81 -26 124 -60.5t43 -98.5z" />
    <glyph glyph-name="Scaron" unicode="&#x160;" horiz-adv-x="600" 
d="M368 905h86l-113 -145h-78l-114 145h86l63 -86h8zM544 175q0 -90 -64.5 -137.5t-168.5 -47.5q-120 0 -186 62t-69 160h94q3 -63 42 -102t119 -39q61 0 99.5 26.5t38.5 78.5q0 48 -36 80.5t-128 62.5q-99 33 -153.5 77t-54.5 122q0 87 62 139.5t158 52.5
q107 0 169.5 -60.5t64.5 -145.5h-88q-4 51 -40.5 87.5t-106.5 36.5q-56 0 -90 -29.5t-34 -74.5q0 -46 36 -73.5t120 -55.5q109 -37 162.5 -88t53.5 -132z" />
    <glyph glyph-name="scaron" unicode="&#x161;" horiz-adv-x="463" 
d="M296 700h83l-109 -141h-76l-110 141h83l61 -84h8zM421 129q0 -65 -51.5 -102t-130.5 -37q-89 0 -142.5 47.5t-54.5 123.5h86q1 -50 35 -75.5t78 -25.5q39 0 65.5 18.5t26.5 51.5q0 35 -30 55.5t-87 37.5q-32 10 -56 20.5t-49 27.5t-38.5 42t-13.5 56q0 64 49 102.5
t125 38.5q79 0 126 -43.5t49 -105.5h-83q-2 35 -29 57t-68 22q-34 0 -57.5 -17.5t-23.5 -47.5q0 -31 26 -50t81 -37q81 -26 124 -60.5t43 -98.5z" />
    <glyph glyph-name="uni0162" unicode="&#x162;" horiz-adv-x="561" 
d="M326 0h-14l-29 -46q38 7 70.5 -16.5t32.5 -65.5q0 -40 -27 -63t-75 -23q-31 0 -56 13.5t-34 25.5t-14 23l38 25q25 -39 64 -39q23 0 36 11.5t13 30.5q0 18 -14 29.5t-41 11.5q-18 0 -36 -11l-28 31l40 63h-18v616h-202v84h497v-84h-203v-616z" />
    <glyph glyph-name="uni0163" unicode="&#x163;" horiz-adv-x="369" 
d="M236 -48q37 7 69 -16t32 -65q0 -39 -26.5 -61.5t-73.5 -22.5q-44 0 -69.5 21t-33.5 40l38 24q24 -38 63 -38q22 0 35 11t13 30q0 18 -14 29t-40 11q-20 0 -36 -10l-27 30l39 61q-76 24 -76 128v303h-97v65h29q77 0 77 70v64h79v-126h119v-73h-119v-295q0 -63 50 -63
q24 0 44 14l23 -70q-34 -21 -74 -23z" />
    <glyph glyph-name="Tcaron" unicode="&#x164;" horiz-adv-x="561" 
d="M321 760h-78l-114 145h86l63 -86h8l62 86h86zM529 700v-84h-203v-616h-92v616h-202v84h497z" />
    <glyph glyph-name="tcaron" unicode="&#x165;" horiz-adv-x="369" 
d="M301 700h81l-36 -153h-59zM334 13q-36 -23 -82 -23q-123 0 -123 134v303h-97v65h29q77 0 77 70v64h79v-126h119v-73h-119v-295q0 -63 50 -63q24 0 44 14z" />
    <glyph glyph-name="Tbar" unicode="&#x166;" horiz-adv-x="561" 
d="M529 616h-203v-228h144v-70h-144v-318h-92v318h-142v70h142v228h-202v84h497v-84z" />
    <glyph glyph-name="tbar" unicode="&#x167;" horiz-adv-x="369" 
d="M336 427h-119v-98h119v-65h-119v-132q0 -63 50 -63q24 0 44 14l23 -70q-36 -23 -82 -23q-123 0 -123 134v140h-96v65h96v98h-97v65h29q77 0 77 70v64h79v-126h119v-73z" />
    <glyph glyph-name="Utilde" unicode="&#x168;" horiz-adv-x="693" 
d="M523 852q-10 -32 -37.5 -59.5t-71.5 -27.5q-37 0 -75.5 25t-58.5 25q-32 0 -57 -45l-53 26q9 31 36.5 59t71.5 28q36 0 74.5 -24.5t58.5 -24.5q39 0 57 45zM620 700v-425q0 -138 -76.5 -211.5t-195.5 -73.5q-120 0 -197.5 73.5t-77.5 211.5v425h96v-423q0 -95 50 -146.5
t129 -51.5t127.5 51.5t48.5 146.5v423h96z" />
    <glyph glyph-name="utilde" unicode="&#x169;" horiz-adv-x="560" 
d="M446 640q-9 -30 -35.5 -56.5t-67.5 -26.5q-35 0 -72 24t-56 24q-31 0 -54 -43l-51 25q9 30 35.5 56.5t67.5 26.5q35 0 71.5 -23.5t55.5 -23.5q36 0 54 43zM249 -10q-81 0 -132.5 55t-51.5 156v299h92v-282q0 -72 33.5 -109.5t88.5 -37.5q51 0 86 35.5t35 106.5v287h92
v-500h-69l-14 63h-8q-49 -73 -152 -73z" />
    <glyph glyph-name="Umacron" unicode="&#x16a;" horiz-adv-x="693" 
d="M189 836h316v-67h-316v67zM620 700v-425q0 -138 -76.5 -211.5t-195.5 -73.5q-120 0 -197.5 73.5t-77.5 211.5v425h96v-423q0 -95 50 -146.5t129 -51.5t127.5 51.5t48.5 146.5v423h96z" />
    <glyph glyph-name="umacron" unicode="&#x16b;" horiz-adv-x="560" 
d="M128 645h301v-64h-301v64zM249 -10q-81 0 -132.5 55t-51.5 156v299h92v-282q0 -72 33.5 -109.5t88.5 -37.5q51 0 86 35.5t35 106.5v287h92v-500h-69l-14 63h-8q-49 -73 -152 -73z" />
    <glyph glyph-name="Ubreve" unicode="&#x16c;" horiz-adv-x="693" 
d="M485 886q0 -50 -37.5 -87t-98.5 -37t-99.5 37.5t-38.5 86.5h71q0 -28 18.5 -47t48.5 -19q29 0 46.5 18.5t17.5 47.5h72zM620 700v-425q0 -138 -76.5 -211.5t-195.5 -73.5q-120 0 -197.5 73.5t-77.5 211.5v425h96v-423q0 -95 50 -146.5t129 -51.5t127.5 51.5t48.5 146.5
v423h96z" />
    <glyph glyph-name="ubreve" unicode="&#x16d;" horiz-adv-x="560" 
d="M408 690q0 -47 -36 -83t-94 -36t-94.5 36t-36.5 83h68q0 -28 17 -45.5t46 -17.5t45 17.5t16 45.5h69zM249 -10q-81 0 -132.5 55t-51.5 156v299h92v-282q0 -72 33.5 -109.5t88.5 -37.5q51 0 86 35.5t35 106.5v287h92v-500h-69l-14 63h-8q-49 -73 -152 -73z" />
    <glyph glyph-name="Uring" unicode="&#x16e;" horiz-adv-x="693" 
d="M348 757q-43 0 -74.5 31t-31.5 74t31.5 74t74.5 31t74.5 -31t31.5 -74t-31.5 -74t-74.5 -31zM349 815q19 0 32.5 14t13.5 33q0 18 -13.5 32t-32.5 14q-20 0 -33.5 -14t-13.5 -32q0 -20 13.5 -33.5t33.5 -13.5zM620 700v-425q0 -138 -76.5 -211.5t-195.5 -73.5
q-120 0 -197.5 73.5t-77.5 211.5v425h96v-423q0 -95 50 -146.5t129 -51.5t127.5 51.5t48.5 146.5v423h96z" />
    <glyph glyph-name="uring" unicode="&#x16f;" horiz-adv-x="560" 
d="M278 541q-40 0 -68 28t-28 67t28 67t68 28q39 0 67.5 -28t28.5 -67t-28.5 -67t-67.5 -28zM279 593q17 0 29 12.5t12 30.5q0 17 -12.5 29.5t-28.5 12.5q-18 0 -30.5 -12.5t-12.5 -29.5q0 -18 12 -30.5t31 -12.5zM249 -10q-81 0 -132.5 55t-51.5 156v299h92v-282
q0 -72 33.5 -109.5t88.5 -37.5q51 0 86 35.5t35 106.5v287h92v-500h-69l-14 63h-8q-49 -73 -152 -73z" />
    <glyph glyph-name="Uhungarumlaut" unicode="&#x170;" horiz-adv-x="693" 
d="M308 904h93l-100 -138h-69zM469 904h95l-101 -138h-68zM620 700v-425q0 -138 -76.5 -211.5t-195.5 -73.5q-120 0 -197.5 73.5t-77.5 211.5v425h96v-423q0 -95 50 -146.5t129 -51.5t127.5 51.5t48.5 146.5v423h96z" />
    <glyph glyph-name="uhungarumlaut" unicode="&#x171;" horiz-adv-x="560" 
d="M227 687h89l-95 -132h-66zM381 687h90l-96 -132h-65zM249 -10q-81 0 -132.5 55t-51.5 156v299h92v-282q0 -72 33.5 -109.5t88.5 -37.5q51 0 86 35.5t35 106.5v287h92v-500h-69l-14 63h-8q-49 -73 -152 -73z" />
    <glyph glyph-name="Uogonek" unicode="&#x172;" horiz-adv-x="693" 
d="M524 700h96v-425q0 -108 -48 -177t-130 -95q-31 -10 -51.5 -32.5t-20.5 -46.5q0 -27 20 -41t45 -13t46 12v-57q-19 -13 -57 -13q-47 0 -80 26t-33 71q0 53 49 82q-7 -1 -20 -1q-117 2 -192 76t-75 209v425h96v-423q0 -95 50 -146.5t129 -51.5t127.5 51.5t48.5 146.5v423z
" />
    <glyph glyph-name="uogonek" unicode="&#x173;" horiz-adv-x="560" 
d="M421 -75q0 -38 38.5 -48t67.5 9v-55q-17 -13 -55 -13q-45 0 -77 25.5t-32 70.5q0 53 60 86l-14 63h-8q-49 -73 -152 -73q-81 0 -132.5 55t-51.5 156v299h92v-282q0 -72 33.5 -109.5t88.5 -37.5q51 0 86 35.5t35 106.5v287h92v-500q-31 -10 -51 -31t-20 -44z" />
    <glyph glyph-name="Wcircumflex" unicode="&#x174;" horiz-adv-x="888" 
d="M376 770h-86l113 145h78l114 -145h-86l-63 86h-8zM776 700h89l-142 -700h-135l-140 526h-8l-141 -526h-134l-143 700h91l119 -589h8l143 539h121l143 -539h9z" />
    <glyph glyph-name="wcircumflex" unicode="&#x175;" horiz-adv-x="728" 
d="M299 559h-83l109 141h76l110 -141h-83l-61 84h-8zM614 500h84l-118 -500h-113l-99 372h-8l-100 -372h-112l-118 500h84l90 -408h8l100 372h104l101 -372h8z" />
    <glyph glyph-name="Ycircumflex" unicode="&#x176;" horiz-adv-x="641" 
d="M253 770h-86l113 145h78l114 -145h-86l-63 86h-8zM508 700h111l-249 -370v-330h-98v330l-250 370h111l183 -269h8z" />
    <glyph glyph-name="ycircumflex" unicode="&#x177;" horiz-adv-x="554" 
d="M213 559h-83l109 141h76l110 -141h-83l-61 84h-8zM432 500h92l-193 -565q-23 -70 -63 -107.5t-110 -37.5q-76 0 -114 43l37 63q34 -30 74 -30q31 0 55 24t37 61l16 49h-35l-197 500h96l158 -410h9z" />
    <glyph glyph-name="Ydieresis" unicode="&#x178;" horiz-adv-x="641" 
d="M206 765q-25 0 -43 18t-18 43t18 43t43 18t43 -18t18 -43t-18 -43t-43 -18zM436 765q-24 0 -42 18t-18 43t18 43t42 18q25 0 43 -18t18 -43t-18 -43t-43 -18zM508 700h111l-249 -370v-330h-98v330l-250 370h111l183 -269h8z" />
    <glyph glyph-name="Zacute" unicode="&#x179;" horiz-adv-x="603" 
d="M329 898h107l-104 -138h-65zM189 86h350v-86h-483v63l358 545v7h-333v85h459v-62l-351 -545v-7z" />
    <glyph glyph-name="zacute" unicode="&#x17a;" horiz-adv-x="462" 
d="M263 687h102l-99 -132h-62zM161 75h257v-75h-376v55l254 364v6h-239v75h358v-55l-254 -364v-6z" />
    <glyph glyph-name="Zdotaccent" unicode="&#x17b;" horiz-adv-x="603" 
d="M304 778q-28 0 -48 19.5t-20 46.5q0 28 20 47t48 19q27 0 46.5 -19t19.5 -47q0 -27 -19.5 -46.5t-46.5 -19.5zM189 86h350v-86h-483v63l358 545v7h-333v85h459v-62l-351 -545v-7z" />
    <glyph glyph-name="zdotaccent" unicode="&#x17c;" horiz-adv-x="462" 
d="M237 578q-25 0 -43 17.5t-18 42.5t18 42.5t43 17.5t42.5 -17.5t17.5 -42.5t-17.5 -42.5t-42.5 -17.5zM161 75h257v-75h-376v55l254 364v6h-239v75h358v-55l-254 -364v-6z" />
    <glyph glyph-name="Zcaron" unicode="&#x17d;" horiz-adv-x="603" 
d="M374 905h86l-113 -145h-78l-114 145h86l63 -86h8zM189 86h350v-86h-483v63l358 545v7h-333v85h459v-62l-351 -545v-7z" />
    <glyph glyph-name="zcaron" unicode="&#x17e;" horiz-adv-x="462" 
d="M301 700h83l-109 -141h-76l-110 141h83l61 -84h8zM161 75h257v-75h-376v55l254 364v6h-239v75h358v-55l-254 -364v-6z" />
    <glyph glyph-name="florin" unicode="&#x192;" horiz-adv-x="511" 
d="M395 582q-57 0 -67 -66l-21 -123h122l-11 -63h-121l-37 -216q-10 -62 -47 -93t-92 -31q-61 0 -99 38l35 56q26 -26 58 -26q58 0 68 66l34 206h-120l11 63h120l22 133q22 124 140 124q60 0 98 -38l-34 -56q-26 26 -59 26z" />
    <glyph glyph-name="uni01CD" unicode="&#x1cd;" horiz-adv-x="645" 
d="M363 760h-78l-114 145h86l63 -86h8l62 86h86zM525 0l-60 180h-285l-59 -180h-99l240 700h122l239 -700h-98zM207 261h231l-111 336h-9z" />
    <glyph glyph-name="uni01CE" unicode="&#x1ce;" horiz-adv-x="519" 
d="M300 559h-76l-110 141h83l61 -84h8l60 84h83zM449 123q0 -28 11 -39t35 -11v-73h-16q-79 0 -97 68q-29 -36 -74.5 -57t-97.5 -21q-73 0 -120.5 36t-47.5 104q0 75 60 116t167 49l95 8v12q0 57 -27 91t-78 34q-50 0 -77 -29t-33 -69h-84q6 73 58 120.5t135 47.5
q86 0 138.5 -52.5t52.5 -145.5v-189zM220 63q58 0 101 36t43 103v35l-83 -6q-72 -6 -111 -31t-39 -65q0 -36 25.5 -54t63.5 -18z" />
    <glyph glyph-name="uni01CF" unicode="&#x1cf;" horiz-adv-x="242" 
d="M188 905h86l-113 -145h-78l-114 145h86l63 -86h8zM169 700v-700h-96v700h96z" />
    <glyph glyph-name="uni01D0" unicode="&#x1d0;" horiz-adv-x="228" 
d="M179 700h83l-109 -141h-76l-110 141h83l61 -84h8zM158 500v-500h-89v500h89z" />
    <glyph glyph-name="uni01D1" unicode="&#x1d1;" horiz-adv-x="805" 
d="M469 905h86l-113 -145h-78l-114 145h86l63 -86h8zM403 -10q-149 0 -248 103t-99 257t99 257t247 103t247 -103t99 -257t-98.5 -257t-246.5 -103zM403 80q107 0 178 77.5t71 192.5t-71.5 192.5t-178.5 77.5t-178 -77.5t-71 -192.5t71 -192.5t179 -77.5z" />
    <glyph glyph-name="uni01D2" unicode="&#x1d2;" horiz-adv-x="591" 
d="M359 700h83l-109 -141h-76l-110 141h83l61 -84h8zM296 -10q-110 0 -182 74t-72 187q0 111 71.5 185t181.5 74t182 -74t72 -186q0 -113 -71 -186.5t-182 -73.5zM295 69q73 0 119 52.5t46 128.5q0 75 -46.5 128t-118.5 53t-117.5 -53t-45.5 -128q0 -76 45.5 -128.5
t117.5 -52.5z" />
    <glyph glyph-name="uni01D3" unicode="&#x1d3;" horiz-adv-x="693" 
d="M414 905h86l-113 -145h-78l-114 145h86l63 -86h8zM620 700v-425q0 -138 -76.5 -211.5t-195.5 -73.5q-120 0 -197.5 73.5t-77.5 211.5v425h96v-423q0 -95 50 -146.5t129 -51.5t127.5 51.5t48.5 146.5v423h96z" />
    <glyph glyph-name="uni01D4" unicode="&#x1d4;" horiz-adv-x="560" 
d="M342 700h83l-109 -141h-76l-110 141h83l61 -84h8zM249 -10q-81 0 -132.5 55t-51.5 156v299h92v-282q0 -72 33.5 -109.5t88.5 -37.5q51 0 86 35.5t35 106.5v287h92v-500h-69l-14 63h-8q-49 -73 -152 -73z" />
    <glyph glyph-name="uni01E2" unicode="&#x1e2;" horiz-adv-x="993" 
d="M855 836v-67h-316v67h316zM598 85h362v-85h-452v185h-268l-112 -185h-106l419 700h509v-85h-352v-219h311v-82h-311v-229zM290 269h218v344h-10z" />
    <glyph glyph-name="uni01E3" unicode="&#x1e3;" horiz-adv-x="874" 
d="M597 645v-64h-301v64h301zM828 231h-379v-4q6 -75 46 -118t114 -43q45 0 80.5 20t52.5 59h85q-19 -75 -79 -115t-139 -40q-142 0 -207 108q-25 -49 -77.5 -78.5t-114.5 -29.5q-73 0 -120.5 36t-47.5 104q0 80 57 123t170 43h95v19q0 57 -27 91t-78 34q-50 0 -77 -29
t-33 -69h-84q6 73 58 120.5t135 47.5q113 0 163 -84q67 84 180 84q106 0 171 -71.5t56 -207.5zM604 437q-61 0 -101 -37.5t-51 -100.5h293q-2 58 -40 98t-101 40zM364 202v23v4h-93q-140 0 -140 -94q0 -36 25.5 -54t63.5 -18q58 0 101 36t43 103z" />
    <glyph glyph-name="Gcaron" unicode="&#x1e6;" horiz-adv-x="740" 
d="M439 905h86l-113 -145h-78l-114 145h86l63 -86h8zM359 363h305v-363h-62l-16 76h-8q-83 -86 -213 -86q-145 0 -227 96.5t-82 247.5q0 164 89.5 270t230.5 106q126 0 198 -61t88 -159h-96q-14 57 -61 95t-124 38q-104 0 -167 -80t-63 -204q0 -117 59.5 -190.5t172.5 -73.5
q62 0 111.5 26.5t77.5 59.5v126h-213v76z" />
    <glyph glyph-name="gcaron" unicode="&#x1e7;" horiz-adv-x="531" 
d="M299 559h-76l-110 141h83l61 -84h8l60 84h83zM501 482q-24 -30 -79 -54q27 -41 27 -94q0 -74 -54 -120t-138 -46q-46 0 -82 15q-38 -19 -38 -43q0 -46 82 -46h84q86 0 132 -38t46 -107q0 -73 -58.5 -116t-157.5 -43q-106 0 -165 52.5t-58 127.5l79 63q-64 24 -64 87
q0 60 66 93q-55 47 -55 123t51.5 125t134.5 49q73 0 127 -38q43 26 74 68zM259 234q47 0 75.5 30.5t28.5 75.5t-28.5 75t-74.5 30q-47 0 -77 -30t-30 -76q0 -44 30 -74.5t76 -30.5zM394 -53q0 39 -29 58t-75 19h-81l-80 -63q7 -43 41.5 -70.5t99.5 -27.5q55 0 89.5 21.5
t34.5 62.5z" />
    <glyph glyph-name="uni01EA" unicode="&#x1ea;" horiz-adv-x="805" 
d="M530 13q-33 -13 -52.5 -37t-19.5 -51q0 -28 19.5 -42t44.5 -13t46 12v-57q-19 -13 -57 -13q-47 0 -80 26.5t-33 72.5q0 50 47 83q-17 -4 -42 -4q-149 0 -248 103t-99 257t99 257t247 103t247 -103t99 -257q0 -117 -59.5 -207.5t-158.5 -129.5zM403 80q107 0 178 77.5
t71 192.5t-71.5 192.5t-178.5 77.5t-178 -77.5t-71 -192.5t71 -192.5t179 -77.5z" />
    <glyph glyph-name="uni01EB" unicode="&#x1eb;" horiz-adv-x="591" 
d="M368 -1q-30 -10 -49.5 -31t-19.5 -43q0 -38 38.5 -48t67.5 9v-55q-17 -13 -55 -13q-45 0 -77 25.5t-32 70.5q0 47 44 76q-106 5 -174.5 78t-68.5 183q0 111 71.5 185t181.5 74t182 -74t72 -186q0 -92 -49.5 -160t-131.5 -91zM132 250q0 -76 45.5 -128.5t117.5 -52.5
q73 0 119 52.5t46 128.5q0 75 -46.5 128t-118.5 53t-117.5 -53t-45.5 -128z" />
    <glyph glyph-name="uni01F4" unicode="&#x1f4;" horiz-adv-x="740" 
d="M394 898h107l-104 -138h-65zM359 363h305v-363h-62l-16 76h-8q-83 -86 -213 -86q-145 0 -227 96.5t-82 247.5q0 164 89.5 270t230.5 106q126 0 198 -61t88 -159h-96q-14 57 -61 95t-124 38q-104 0 -167 -80t-63 -204q0 -117 59.5 -190.5t172.5 -73.5q62 0 111.5 26.5
t77.5 59.5v126h-213v76z" />
    <glyph glyph-name="uni01F5" unicode="&#x1f5;" horiz-adv-x="531" 
d="M389 687l-99 -132h-62l59 132h102zM501 482q-24 -30 -79 -54q27 -41 27 -94q0 -74 -54 -120t-138 -46q-46 0 -82 15q-38 -19 -38 -43q0 -46 82 -46h84q86 0 132 -38t46 -107q0 -73 -58.5 -116t-157.5 -43q-106 0 -165 52.5t-58 127.5l79 63q-64 24 -64 87q0 60 66 93
q-55 47 -55 123t51.5 125t134.5 49q73 0 127 -38q43 26 74 68zM259 234q47 0 75.5 30.5t28.5 75.5t-28.5 75t-74.5 30q-47 0 -77 -30t-30 -76q0 -44 30 -74.5t76 -30.5zM394 -53q0 39 -29 58t-75 19h-81l-80 -63q7 -43 41.5 -70.5t99.5 -27.5q55 0 89.5 21.5t34.5 62.5z" />
    <glyph glyph-name="uni01F8" unicode="&#x1f8;" horiz-adv-x="710" 
d="M337 898l62 -138h-65l-104 138h107zM547 700h90v-700h-99l-367 543h-8v-543h-90v700h105l360 -541h9v541z" />
    <glyph glyph-name="uni01F9" unicode="&#x1f9;" horiz-adv-x="560" 
d="M255 687l59 -132h-62l-99 132h102zM312 510q81 0 133 -55t52 -156v-299h-92v282q0 72 -33.5 109.5t-89.5 37.5q-51 0 -86.5 -35.5t-35.5 -106.5v-287h-92v500h69l14 -63h8q49 73 153 73z" />
    <glyph glyph-name="AEacute" unicode="&#x1fc;" horiz-adv-x="993" 
d="M826 898l-104 -138h-65l62 138h107zM598 85h362v-85h-452v185h-268l-112 -185h-106l419 700h509v-85h-352v-219h311v-82h-311v-229zM290 269h218v344h-10z" />
    <glyph glyph-name="aeacute" unicode="&#x1fd;" horiz-adv-x="874" 
d="M574 687l-99 -132h-62l59 132h102zM828 231h-379v-4q6 -75 46 -118t114 -43q45 0 80.5 20t52.5 59h85q-19 -75 -79 -115t-139 -40q-142 0 -207 108q-25 -49 -77.5 -78.5t-114.5 -29.5q-73 0 -120.5 36t-47.5 104q0 80 57 123t170 43h95v19q0 57 -27 91t-78 34
q-50 0 -77 -29t-33 -69h-84q6 73 58 120.5t135 47.5q113 0 163 -84q67 84 180 84q106 0 171 -71.5t56 -207.5zM604 437q-61 0 -101 -37.5t-51 -100.5h293q-2 58 -40 98t-101 40zM364 202v23v4h-93q-140 0 -140 -94q0 -36 25.5 -54t63.5 -18q58 0 101 36t43 103z" />
    <glyph glyph-name="Oslashacute" unicode="&#x1fe;" horiz-adv-x="805" 
d="M531 898l-104 -138h-65l62 138h107zM636 620q112 -106 112 -270q0 -154 -98.5 -257t-246.5 -103q-96 0 -176 47l-38 -54l-60 43l38 55q-111 105 -111 269q0 154 99 257t247 103q95 0 173 -45l37 53l62 -44zM153 350q0 -113 69 -190l300 429q-54 31 -120 31
q-107 0 -178 -77.5t-71 -192.5zM403 80q107 0 178 77.5t71 192.5q0 113 -71 192l-301 -429q57 -33 123 -33z" />
    <glyph glyph-name="oslashacute" unicode="&#x1ff;" horiz-adv-x="591" 
d="M423 687l-99 -132h-62l59 132h102zM474 439q75 -73 75 -189q0 -113 -71 -186.5t-182 -73.5q-69 0 -125 31l-27 -37l-55 37l29 40q-76 73 -76 190q0 111 71.5 185t181.5 74q69 0 125 -31l28 39l55 -38zM132 250q0 -69 37 -118l202 280q-35 19 -76 19q-72 0 -117.5 -53
t-45.5 -128zM295 69q73 0 119 52.5t46 128.5q0 67 -38 118l-203 -280q35 -19 76 -19z" />
    <glyph glyph-name="Scommaaccent" unicode="&#x218;" horiz-adv-x="600" 
d="M544 175q0 -90 -64.5 -137.5t-168.5 -47.5q-120 0 -186 62t-69 160h94q3 -63 42 -102t119 -39q61 0 99.5 26.5t38.5 78.5q0 48 -36 80.5t-128 62.5q-99 33 -153.5 77t-54.5 122q0 87 62 139.5t158 52.5q107 0 169.5 -60.5t64.5 -145.5h-88q-4 51 -40.5 87.5t-106.5 36.5
q-56 0 -90 -29.5t-34 -74.5q0 -46 36 -73.5t120 -55.5q109 -37 162.5 -88t53.5 -132zM315 -58q31 0 48 -23t17 -59q0 -56 -30.5 -97.5t-71.5 -61.5l-22 27q58 45 59 92q-26 -3 -44.5 13.5t-18.5 45.5q0 28 18 45.5t45 17.5z" />
    <glyph glyph-name="scommaaccent" unicode="&#x219;" horiz-adv-x="463" 
d="M421 129q0 -65 -51.5 -102t-130.5 -37q-89 0 -142.5 47.5t-54.5 123.5h86q1 -50 35 -75.5t78 -25.5q39 0 65.5 18.5t26.5 51.5q0 35 -30 55.5t-87 37.5q-32 10 -56 20.5t-49 27.5t-38.5 42t-13.5 56q0 64 49 102.5t125 38.5q79 0 126 -43.5t49 -105.5h-83q-2 35 -29 57
t-68 22q-34 0 -57.5 -17.5t-23.5 -47.5q0 -31 26 -50t81 -37q81 -26 124 -60.5t43 -98.5zM236 -59q30 0 46.5 -22t16.5 -58q0 -54 -29.5 -94t-69.5 -60l-21 27q56 43 57 89q-25 -3 -43 13t-18 44q0 27 17 44t44 17z" />
    <glyph glyph-name="uni021A" unicode="&#x21a;" horiz-adv-x="561" 
d="M32 700h497v-84h-203v-616h-92v616h-202v84zM281 -58q31 0 48 -23t17 -59q0 -56 -30.5 -97.5t-71.5 -61.5l-22 27q58 45 59 92q-26 -3 -44.5 13.5t-18.5 45.5q0 28 18 45.5t45 17.5z" />
    <glyph glyph-name="uni021B" unicode="&#x21b;" horiz-adv-x="369" 
d="M334 13q-36 -23 -82 -23q-123 0 -123 134v303h-97v65h29q77 0 77 70v64h79v-126h119v-73h-119v-295q0 -63 50 -63q24 0 44 14zM234 -62q30 0 46.5 -22t16.5 -58q0 -54 -29.5 -94t-69.5 -60l-21 27q56 43 57 89q-25 -3 -43 13t-18 44q0 27 17 44t44 17z" />
    <glyph glyph-name="uni021E" unicode="&#x21e;" horiz-adv-x="672" 
d="M402 905h86l-113 -145h-78l-114 145h86l63 -86h8zM506 700h92v-700h-92v312h-340v-312h-93v700h93v-304h340v304z" />
    <glyph glyph-name="uni0226" unicode="&#x226;" horiz-adv-x="645" 
d="M320 778q-28 0 -48 19.5t-20 46.5q0 28 20 47t48 19q27 0 46.5 -19t19.5 -47q0 -27 -19.5 -46.5t-46.5 -19.5zM525 0l-60 180h-285l-59 -180h-99l240 700h122l239 -700h-98zM207 261h231l-111 336h-9z" />
    <glyph glyph-name="uni0227" unicode="&#x227;" horiz-adv-x="519" 
d="M262 578q-25 0 -43 17.5t-18 42.5t18 42.5t43 17.5t42.5 -17.5t17.5 -42.5t-17.5 -42.5t-42.5 -17.5zM449 123q0 -28 11 -39t35 -11v-73h-16q-79 0 -97 68q-29 -36 -74.5 -57t-97.5 -21q-73 0 -120.5 36t-47.5 104q0 75 60 116t167 49l95 8v12q0 57 -27 91t-78 34
q-50 0 -77 -29t-33 -69h-84q6 73 58 120.5t135 47.5q86 0 138.5 -52.5t52.5 -145.5v-189zM220 63q58 0 101 36t43 103v35l-83 -6q-72 -6 -111 -31t-39 -65q0 -36 25.5 -54t63.5 -18z" />
    <glyph glyph-name="uni0228" unicode="&#x228;" horiz-adv-x="558" 
d="M525 0h-187l-29 -46q38 7 70.5 -16.5t32.5 -65.5q0 -40 -27 -63t-75 -23q-31 0 -56 13.5t-34 25.5t-14 23l38 25q25 -39 64 -39q23 0 36 11.5t13 30.5q0 18 -14 29.5t-41 11.5q-18 0 -36 -11l-28 31l40 63h-205v700h442v-85h-352v-219h311v-82h-311v-229h362v-85z" />
    <glyph glyph-name="uni0229" unicode="&#x229;" horiz-adv-x="553" 
d="M280 510q106 0 171 -71.5t56 -207.5h-379q5 -76 45 -120.5t115 -44.5q45 0 80.5 20t52.5 59h85q-18 -71 -73.5 -111t-129.5 -44l-22 -35q37 7 69 -16t32 -65q0 -39 -26.5 -61.5t-73.5 -22.5q-44 0 -69.5 21t-33.5 40l38 24q24 -38 63 -38q22 0 35 11t13 30q0 18 -14 29
t-40 11q-20 0 -36 -10l-27 30l35 55q-95 13 -149.5 82.5t-54.5 177.5q0 112 67.5 184.5t170.5 72.5zM131 299h293q-2 58 -40 98t-101 40q-61 0 -101 -37.5t-51 -100.5z" />
    <glyph glyph-name="uni022E" unicode="&#x22e;" horiz-adv-x="805" 
d="M399 778q-28 0 -48 19.5t-20 46.5q0 28 20 47t48 19q27 0 46.5 -19t19.5 -47q0 -27 -19.5 -46.5t-46.5 -19.5zM403 -10q-149 0 -248 103t-99 257t99 257t247 103t247 -103t99 -257t-98.5 -257t-246.5 -103zM403 80q107 0 178 77.5t71 192.5t-71.5 192.5t-178.5 77.5
t-178 -77.5t-71 -192.5t71 -192.5t179 -77.5z" />
    <glyph glyph-name="uni022F" unicode="&#x22f;" horiz-adv-x="591" 
d="M295 578q-25 0 -43 17.5t-18 42.5t18 42.5t43 17.5t42.5 -17.5t17.5 -42.5t-17.5 -42.5t-42.5 -17.5zM296 -10q-110 0 -182 74t-72 187q0 111 71.5 185t181.5 74t182 -74t72 -186q0 -113 -71 -186.5t-182 -73.5zM295 69q73 0 119 52.5t46 128.5q0 75 -46.5 128t-118.5 53
t-117.5 -53t-45.5 -128q0 -76 45.5 -128.5t117.5 -52.5z" />
    <glyph glyph-name="uni0232" unicode="&#x232;" horiz-adv-x="641" 
d="M163 836h316v-67h-316v67zM508 700h111l-249 -370v-330h-98v330l-250 370h111l183 -269h8z" />
    <glyph glyph-name="uni0233" unicode="&#x233;" horiz-adv-x="554" 
d="M128 645h301v-64h-301v64zM432 500h92l-193 -565q-23 -70 -63 -107.5t-110 -37.5q-76 0 -114 43l37 63q34 -30 74 -30q31 0 55 24t37 61l16 49h-35l-197 500h96l158 -410h9z" />
    <glyph glyph-name="uni0237" unicode="&#x237;" horiz-adv-x="258" 
d="M-11 -107q25 -25 58 -25q26 0 40 18t14 51v563h88v-572q0 -65 -36 -101.5t-94 -36.5q-65 0 -101 36z" />
    <glyph glyph-name="circumflex" unicode="&#x2c6;" horiz-adv-x="441" 
d="M156 559h-83l109 141h76l110 -141h-83l-61 84h-8z" />
    <glyph glyph-name="caron" unicode="&#x2c7;" horiz-adv-x="441" 
d="M285 700h83l-109 -141h-76l-110 141h83l61 -84h8z" />
    <glyph glyph-name="breve" unicode="&#x2d8;" horiz-adv-x="407" 
d="M335 690q0 -47 -36 -83t-94 -36t-94.5 36t-36.5 83h68q0 -28 17 -45.5t46 -17.5t45 17.5t16 45.5h69z" />
    <glyph glyph-name="dotaccent" unicode="&#x2d9;" horiz-adv-x="268" 
d="M134 578q-25 0 -43 17.5t-18 42.5t18 42.5t43 17.5t42.5 -17.5t17.5 -42.5t-17.5 -42.5t-42.5 -17.5z" />
    <glyph glyph-name="ring" unicode="&#x2da;" horiz-adv-x="339" 
d="M170 541q-40 0 -68 28t-28 67t28 67t68 28q39 0 67.5 -28t28.5 -67t-28.5 -67t-67.5 -28zM171 593q17 0 29 12.5t12 30.5q0 17 -12.5 29.5t-28.5 12.5q-18 0 -30.5 -12.5t-12.5 -29.5q0 -18 12 -30.5t31 -12.5z" />
    <glyph glyph-name="ogonek" unicode="&#x2db;" horiz-adv-x="311" 
d="M174 18l29 -18q-31 -10 -51 -31t-20 -44q0 -26 19 -39t43 -12t44 12v-55q-17 -13 -55 -13q-45 0 -77 25.5t-32 70.5q0 40 27 63t73 41z" />
    <glyph glyph-name="tilde" unicode="&#x2dc;" horiz-adv-x="482" 
d="M409 640q-9 -30 -35.5 -56.5t-67.5 -26.5q-35 0 -72 24t-56 24q-31 0 -54 -43l-51 25q9 30 35.5 56.5t67.5 26.5q35 0 71.5 -23.5t55.5 -23.5q36 0 54 43z" />
    <glyph glyph-name="hungarumlaut" unicode="&#x2dd;" horiz-adv-x="462" 
d="M145 687h89l-95 -132h-66zM299 687h90l-96 -132h-65z" />
    <glyph glyph-name="uni1E02" unicode="&#x1e02;" horiz-adv-x="587" 
d="M286 778q-28 0 -48 19.5t-20 46.5q0 28 20 47t48 19q27 0 46.5 -19t19.5 -47q0 -27 -19.5 -46.5t-46.5 -19.5zM410 367q136 -43 136 -176q0 -94 -63.5 -142.5t-161.5 -48.5h-248v700h222q99 0 158.5 -45.5t59.5 -129.5q0 -112 -103 -152v-6zM161 621v-220h131q64 0 98 30
t34 83q0 52 -35.5 79.5t-92.5 27.5h-135zM307 79q66 0 106 31t40 88t-39 92t-105 35h-148v-246h146z" />
    <glyph glyph-name="uni1E03" unicode="&#x1e03;" horiz-adv-x="588" 
d="M308 778q-25 0 -43 17.5t-18 42.5t18 42.5t43 17.5t42.5 -17.5t17.5 -42.5t-17.5 -42.5t-42.5 -17.5zM313 510q100 0 166 -72.5t66 -187.5t-65 -187.5t-164 -72.5q-102 0 -158 81h-10l-15 -71h-65v712h88v-285q44 83 157 83zM304 70q67 0 110 50.5t43 129.5t-42.5 129.5
t-110.5 50.5q-67 0 -108 -49.5t-41 -130.5q0 -80 41 -130t108 -50z" />
    <glyph glyph-name="uni1E0A" unicode="&#x1e0a;" horiz-adv-x="683" 
d="M322 778q-28 0 -48 19.5t-20 46.5q0 28 20 47t48 19q27 0 46.5 -19t19.5 -47q0 -27 -19.5 -46.5t-46.5 -19.5zM279 700q168 0 257.5 -93.5t89.5 -252.5q0 -164 -88.5 -259t-258.5 -95h-206v700h206zM277 87q127 0 191.5 72.5t64.5 196.5q0 116 -65 187t-191 71h-111v-527
h111z" />
    <glyph glyph-name="uni1E0B" unicode="&#x1e0b;" horiz-adv-x="588" 
d="M284 778q-25 0 -43 17.5t-18 42.5t18 42.5t43 17.5t42.5 -17.5t17.5 -42.5t-17.5 -42.5t-42.5 -17.5zM432 712h88v-712h-65l-15 71h-10q-56 -81 -158 -81q-99 0 -164 72.5t-65 187.5t66 187.5t166 72.5q113 0 157 -83v285zM284 70q67 0 108 50t41 130q0 81 -41 130.5
t-108 49.5q-68 0 -110.5 -50.5t-42.5 -129.5t43 -129.5t110 -50.5z" />
    <glyph glyph-name="uni1E10" unicode="&#x1e10;" horiz-adv-x="683" 
d="M279 700q168 0 257.5 -93.5t89.5 -252.5q0 -164 -88.5 -259t-258.5 -95h-206v700h206zM277 87q127 0 191.5 72.5t64.5 196.5q0 116 -65 187t-191 71h-111v-527h111zM322 -58q31 0 48 -23t17 -59q0 -56 -30.5 -97.5t-71.5 -61.5l-22 27q58 45 59 92q-26 -3 -44.5 13.5
t-18.5 45.5q0 28 18 45.5t45 17.5z" />
    <glyph glyph-name="uni1E11" unicode="&#x1e11;" horiz-adv-x="588" 
d="M432 712h88v-712h-65l-15 71h-10q-56 -81 -158 -81q-99 0 -164 72.5t-65 187.5t66 187.5t166 72.5q113 0 157 -83v285zM284 70q67 0 108 50t41 130q0 81 -41 130.5t-108 49.5q-68 0 -110.5 -50.5t-42.5 -129.5t43 -129.5t110 -50.5zM298 -59q30 0 46.5 -22t16.5 -58
q0 -54 -29.5 -94t-69.5 -60l-21 27q56 43 57 89q-25 -3 -43 13t-18 44q0 27 17 44t44 17z" />
    <glyph glyph-name="uni1E1E" unicode="&#x1e1e;" horiz-adv-x="535" 
d="M285 778q-28 0 -48 19.5t-20 46.5q0 28 20 47t48 19q27 0 46.5 -19t19.5 -47q0 -27 -19.5 -46.5t-46.5 -19.5zM503 613h-338v-226h295v-83h-295v-304h-92v700h430v-87z" />
    <glyph glyph-name="uni1E1F" unicode="&#x1e1f;" horiz-adv-x="384" 
d="M230 778q-25 0 -43 17.5t-18 42.5t18 42.5t43 17.5t42.5 -17.5t17.5 -42.5t-17.5 -42.5t-42.5 -17.5zM209 563v-63h126v-73h-126v-427h-88v427h-89v73h89v72q0 65 36 101.5t94 36.5q65 0 101 -36l-31 -67q-25 25 -58 25q-26 0 -40 -18t-14 -51z" />
    <glyph glyph-name="uni1E20" unicode="&#x1e20;" horiz-adv-x="740" 
d="M214 836h316v-67h-316v67zM359 363h305v-363h-62l-16 76h-8q-83 -86 -213 -86q-145 0 -227 96.5t-82 247.5q0 164 89.5 270t230.5 106q126 0 198 -61t88 -159h-96q-14 57 -61 95t-124 38q-104 0 -167 -80t-63 -204q0 -117 59.5 -190.5t172.5 -73.5q62 0 111.5 26.5
t77.5 59.5v126h-213v76z" />
    <glyph glyph-name="uni1E22" unicode="&#x1e22;" horiz-adv-x="672" 
d="M332 778q-28 0 -48 19.5t-20 46.5q0 28 20 47t48 19q27 0 46.5 -19t19.5 -47q0 -27 -19.5 -46.5t-46.5 -19.5zM506 700h92v-700h-92v312h-340v-312h-93v700h93v-304h340v304z" />
    <glyph glyph-name="uni1E23" unicode="&#x1e23;" horiz-adv-x="571" 
d="M288 778q-25 0 -43 17.5t-18 42.5t18 42.5t43 17.5t42.5 -17.5t17.5 -42.5t-17.5 -42.5t-42.5 -17.5zM317 510q90 0 140.5 -55.5t50.5 -154.5v-300h-90v270q0 75 -33.5 116t-96.5 41q-52 0 -89.5 -38t-37.5 -104v-285h-93v710h93v-269h8q22 28 61 48.5t87 20.5z" />
    <glyph glyph-name="uni1E26" unicode="&#x1e26;" horiz-adv-x="672" 
d="M220 765q-25 0 -43 18t-18 43t18 43t43 18t43 -18t18 -43t-18 -43t-43 -18zM450 765q-24 0 -42 18t-18 43t18 43t42 18q25 0 43 -18t18 -43t-18 -43t-43 -18zM506 700h92v-700h-92v312h-340v-312h-93v700h93v-304h340v304z" />
    <glyph glyph-name="uni1E27" unicode="&#x1e27;" horiz-adv-x="571" 
d="M197 758q-23 0 -39.5 16.5t-16.5 38.5q0 23 16.5 39t39.5 16t39 -16t16 -39t-16 -39t-39 -16zM380 758q-22 0 -38.5 16t-16.5 39t16 39t39 16t38.5 -16t15.5 -39t-16 -39t-38 -16zM317 510q90 0 140.5 -55.5t50.5 -154.5v-300h-90v270q0 75 -33.5 116t-96.5 41
q-52 0 -89.5 -38t-37.5 -104v-285h-93v710h93v-269h8q22 28 61 48.5t87 20.5z" />
    <glyph glyph-name="uni1E28" unicode="&#x1e28;" horiz-adv-x="672" 
d="M506 700h92v-700h-92v312h-340v-312h-15l-29 -46q38 7 70.5 -16.5t32.5 -65.5q0 -40 -27 -63t-75 -23q-31 0 -56 13.5t-34 25.5t-14 23l38 25q25 -39 64 -39q23 0 36 11.5t13 30.5q0 18 -14 29.5t-41 11.5q-18 0 -36 -11l-28 31l40 63h-18v700h93v-304h340v304z" />
    <glyph glyph-name="uni1E29" unicode="&#x1e29;" horiz-adv-x="571" 
d="M317 510q90 0 140.5 -55.5t50.5 -154.5v-300h-90v270q0 75 -33.5 116t-96.5 41q-52 0 -89.5 -38t-37.5 -104v-285h-17l-28 -45q37 7 69 -16t32 -65q0 -39 -26.5 -61.5t-73.5 -22.5q-44 0 -69.5 21t-33.5 40l38 24q24 -38 63 -38q22 0 35 11t13 30q0 18 -14 29t-40 11
q-20 0 -36 -10l-27 30l39 62h-17v710h93v-269h8q22 28 61 48.5t87 20.5z" />
    <glyph glyph-name="uni1E40" unicode="&#x1e40;" horiz-adv-x="851" 
d="M422 778q-28 0 -48 19.5t-20 46.5q0 28 20 47t48 19q27 0 46.5 -19t19.5 -47q0 -27 -19.5 -46.5t-46.5 -19.5zM778 700v-700h-91v562h-8l-204 -502h-99l-204 502h-9v-562h-90v700h131l218 -527h8l216 527h132z" />
    <glyph glyph-name="uni1E41" unicode="&#x1e41;" horiz-adv-x="836" 
d="M423 578q-25 0 -43 17.5t-18 42.5t18 42.5t43 17.5t42.5 -17.5t17.5 -42.5t-17.5 -42.5t-42.5 -17.5zM601 509q79 0 125.5 -51.5t46.5 -152.5v-305h-91v300q0 63 -29 95.5t-76 32.5q-45 0 -78 -35t-33 -97v-296h-91v293q0 65 -29.5 100t-74.5 35q-44 0 -78 -33.5
t-34 -95.5v-299h-91v500h69l14 -63h8q19 31 55 52t84 21q54 0 91 -28.5t52 -65.5h8q19 39 57.5 66t94.5 27z" />
    <glyph glyph-name="uni1E44" unicode="&#x1e44;" horiz-adv-x="710" 
d="M352 778q-28 0 -48 19.5t-20 46.5q0 28 20 47t48 19q27 0 46.5 -19t19.5 -47q0 -27 -19.5 -46.5t-46.5 -19.5zM547 700h90v-700h-99l-367 543h-8v-543h-90v700h105l360 -541h9v541z" />
    <glyph glyph-name="uni1E45" unicode="&#x1e45;" horiz-adv-x="560" 
d="M282 578q-25 0 -43 17.5t-18 42.5t18 42.5t43 17.5t42.5 -17.5t17.5 -42.5t-17.5 -42.5t-42.5 -17.5zM312 510q81 0 133 -55t52 -156v-299h-92v282q0 72 -33.5 109.5t-89.5 37.5q-51 0 -86.5 -35.5t-35.5 -106.5v-287h-92v500h69l14 -63h8q49 73 153 73z" />
    <glyph glyph-name="uni1E56" unicode="&#x1e56;" horiz-adv-x="607" 
d="M291 778q-28 0 -48 19.5t-20 46.5q0 28 20 47t48 19q27 0 46.5 -19t19.5 -47q0 -27 -19.5 -46.5t-46.5 -19.5zM326 700q103 0 164 -59t61 -153q0 -100 -62 -157.5t-170 -57.5h-157v-273h-89v700h253zM309 356q70 0 109 34.5t39 97.5q0 60 -38.5 94.5t-102.5 34.5h-154
v-261h147z" />
    <glyph glyph-name="uni1E57" unicode="&#x1e57;" horiz-adv-x="587" 
d="M294 578q-25 0 -43 17.5t-18 42.5t18 42.5t43 17.5t42.5 -17.5t17.5 -42.5t-17.5 -42.5t-42.5 -17.5zM316 510q99 0 164 -72.5t65 -187.5t-66 -187.5t-166 -72.5q-113 0 -157 83v-273h-88v700h65l15 -71h10q56 81 158 81zM304 70q68 0 110.5 50.5t42.5 129.5t-43 129.5
t-110 50.5t-108 -50t-41 -130q0 -81 41 -130.5t108 -49.5z" />
    <glyph glyph-name="uni1E58" unicode="&#x1e58;" horiz-adv-x="600" 
d="M292 778q-28 0 -48 19.5t-20 46.5q0 28 20 47t48 19q27 0 46.5 -19t19.5 -47q0 -27 -19.5 -46.5t-46.5 -19.5zM568 0h-102l-167 286h-1h-136v-286h-89v700h237q104 0 166 -56t62 -149q0 -70 -39 -121.5t-107 -73.5zM162 615v-244h136q69 0 108 33.5t39 89.5
q0 58 -39 89.5t-108 31.5h-136z" />
    <glyph glyph-name="uni1E59" unicode="&#x1e59;" horiz-adv-x="371" 
d="M207 578q-25 0 -43 17.5t-18 42.5t18 42.5t43 17.5t42.5 -17.5t17.5 -42.5t-17.5 -42.5t-42.5 -17.5zM306 510h32v-90q-14 4 -41 4q-58 0 -98 -41.5t-40 -123.5v-259h-91v500h69l14 -70h8q55 80 147 80z" />
    <glyph glyph-name="uni1E60" unicode="&#x1e60;" horiz-adv-x="600" 
d="M298 778q-28 0 -48 19.5t-20 46.5q0 28 20 47t48 19q27 0 46.5 -19t19.5 -47q0 -27 -19.5 -46.5t-46.5 -19.5zM544 175q0 -90 -64.5 -137.5t-168.5 -47.5q-120 0 -186 62t-69 160h94q3 -63 42 -102t119 -39q61 0 99.5 26.5t38.5 78.5q0 48 -36 80.5t-128 62.5
q-99 33 -153.5 77t-54.5 122q0 87 62 139.5t158 52.5q107 0 169.5 -60.5t64.5 -145.5h-88q-4 51 -40.5 87.5t-106.5 36.5q-56 0 -90 -29.5t-34 -74.5q0 -46 36 -73.5t120 -55.5q109 -37 162.5 -88t53.5 -132z" />
    <glyph glyph-name="uni1E61" unicode="&#x1e61;" horiz-adv-x="463" 
d="M232 578q-25 0 -43 17.5t-18 42.5t18 42.5t43 17.5t42.5 -17.5t17.5 -42.5t-17.5 -42.5t-42.5 -17.5zM421 129q0 -65 -51.5 -102t-130.5 -37q-89 0 -142.5 47.5t-54.5 123.5h86q1 -50 35 -75.5t78 -25.5q39 0 65.5 18.5t26.5 51.5q0 35 -30 55.5t-87 37.5
q-32 10 -56 20.5t-49 27.5t-38.5 42t-13.5 56q0 64 49 102.5t125 38.5q79 0 126 -43.5t49 -105.5h-83q-2 35 -29 57t-68 22q-34 0 -57.5 -17.5t-23.5 -47.5q0 -31 26 -50t81 -37q81 -26 124 -60.5t43 -98.5z" />
    <glyph glyph-name="uni1E7C" unicode="&#x1e7c;" horiz-adv-x="651" 
d="M502 852q-10 -32 -37.5 -59.5t-71.5 -27.5q-37 0 -75.5 25t-58.5 25q-32 0 -57 -45l-53 26q9 31 37 59t71 28q36 0 74.5 -24.5t58.5 -24.5q40 0 57 45zM530 700h99l-239 -700h-130l-238 700h99l201 -598h8z" />
    <glyph glyph-name="uni1E7D" unicode="&#x1e7d;" horiz-adv-x="550" 
d="M443 640q-9 -30 -35.5 -56.5t-67.5 -26.5q-35 0 -72 24t-56 24q-31 0 -54 -43l-51 25q9 30 35.5 56.5t67.5 26.5q35 0 71.5 -23.5t55.5 -23.5q36 0 54 43zM427 500h93l-181 -500h-128l-181 500h94l147 -420h9z" />
    <glyph glyph-name="Wgrave" unicode="&#x1e80;" horiz-adv-x="888" 
d="M426 898l62 -138h-65l-104 138h107zM776 700h89l-142 -700h-135l-140 526h-8l-141 -526h-134l-143 700h91l119 -589h8l143 539h121l143 -539h9z" />
    <glyph glyph-name="wgrave" unicode="&#x1e81;" horiz-adv-x="728" 
d="M337 687l59 -132h-62l-99 132h102zM614 500h84l-118 -500h-113l-99 372h-8l-100 -372h-112l-118 500h84l90 -408h8l100 372h104l101 -372h8z" />
    <glyph glyph-name="Wacute" unicode="&#x1e82;" horiz-adv-x="888" 
d="M466 898h107l-104 -138h-65zM776 700h89l-142 -700h-135l-140 526h-8l-141 -526h-134l-143 700h91l119 -589h8l143 539h121l143 -539h9z" />
    <glyph glyph-name="wacute" unicode="&#x1e83;" horiz-adv-x="728" 
d="M390 687h102l-99 -132h-62zM614 500h84l-118 -500h-113l-99 372h-8l-100 -372h-112l-118 500h84l90 -408h8l100 372h104l101 -372h8z" />
    <glyph glyph-name="Wdieresis" unicode="&#x1e84;" horiz-adv-x="888" 
d="M329 765q-25 0 -43 18t-18 43t18 43t43 18t43 -18t18 -43t-18 -43t-43 -18zM559 765q-24 0 -42 18t-18 43t18 43t42 18q25 0 43 -18t18 -43t-18 -43t-43 -18zM776 700h89l-142 -700h-135l-140 526h-8l-141 -526h-134l-143 700h91l119 -589h8l143 539h121l143 -539h9z" />
    <glyph glyph-name="wdieresis" unicode="&#x1e85;" horiz-adv-x="728" 
d="M273 558q-23 0 -39.5 16.5t-16.5 38.5q0 23 16.5 39t39.5 16t39 -16t16 -39t-16 -39t-39 -16zM456 558q-22 0 -38.5 16t-16.5 39t16 39t39 16t38.5 -16t15.5 -39t-16 -39t-38 -16zM614 500h84l-118 -500h-113l-99 372h-8l-100 -372h-112l-118 500h84l90 -408h8l100 372
h104l101 -372h8z" />
    <glyph glyph-name="uni1E8C" unicode="&#x1e8c;" horiz-adv-x="613" 
d="M192 765q-25 0 -43 18t-18 43t18 43t43 18t43 -18t18 -43t-18 -43t-43 -18zM422 765q-24 0 -42 18t-18 43t18 43t42 18q25 0 43 -18t18 -43t-18 -43t-43 -18zM483 0l-171 281h-8l-171 -281h-111l222 361l-211 339h109l161 -261h9l162 261h105l-211 -339l222 -361h-107z
" />
    <glyph glyph-name="uni1E8D" unicode="&#x1e8d;" horiz-adv-x="519" 
d="M168 558q-23 0 -39.5 16.5t-16.5 38.5q0 23 16.5 39t39.5 16t39 -16t16 -39t-16.5 -39t-38.5 -16zM351 558q-23 0 -39 16t-16 39t16 39t39 16t38.5 -16t15.5 -39t-16 -39t-38 -16zM387 0l-123 191h-8l-124 -191h-102l167 260l-152 240h100l111 -173h8l108 173h101
l-150 -240l166 -260h-102z" />
    <glyph glyph-name="uni1E90" unicode="&#x1e90;" horiz-adv-x="603" 
d="M239 770h-86l113 145h78l114 -145h-86l-63 86h-8zM189 86h350v-86h-483v63l358 545v7h-333v85h459v-62l-351 -545v-7z" />
    <glyph glyph-name="uni1E97" unicode="&#x1e97;" horiz-adv-x="369" 
d="M86 684q-23 0 -39.5 16.5t-16.5 38.5q0 23 16.5 39t39.5 16t39 -16t16 -39t-16.5 -39t-38.5 -16zM269 684q-23 0 -39 16t-16 39t16 39t39 16t38.5 -16t15.5 -39t-16 -39t-38 -16zM334 13q-36 -23 -82 -23q-123 0 -123 134v303h-97v65h29q77 0 77 70v64h79v-126h119v-73
h-119v-295q0 -63 50 -63q24 0 44 14z" />
    <glyph glyph-name="uni1E98" unicode="&#x1e98;" horiz-adv-x="728" 
d="M364 541q-40 0 -68 28t-28 67t28 67t68 28q39 0 67.5 -28t28.5 -67t-28.5 -67t-67.5 -28zM365 593q17 0 29 12.5t12 30.5q0 17 -12.5 29.5t-28.5 12.5q-18 0 -30.5 -12.5t-12.5 -29.5q0 -18 12 -30.5t31 -12.5zM614 500h84l-118 -500h-113l-99 372h-8l-100 -372h-112
l-118 500h84l90 -408h8l100 372h104l101 -372h8z" />
    <glyph glyph-name="uni1E99" unicode="&#x1e99;" horiz-adv-x="554" 
d="M278 541q-40 0 -68 28t-28 67t28 67t68 28q39 0 67.5 -28t28.5 -67t-28.5 -67t-67.5 -28zM279 593q17 0 29 12.5t12 30.5q0 17 -12.5 29.5t-28.5 12.5q-18 0 -30.5 -12.5t-12.5 -29.5q0 -18 12 -30.5t31 -12.5zM432 500h92l-193 -565q-23 -70 -63 -107.5t-110 -37.5
q-76 0 -114 43l37 63q34 -30 74 -30q31 0 55 24t37 61l16 49h-35l-197 500h96l158 -410h9z" />
    <glyph glyph-name="uni1E9E" unicode="&#x1e9e;" horiz-adv-x="1197" 
d="M544 175q0 -90 -64.5 -137.5t-168.5 -47.5q-120 0 -186 62t-69 160h94q3 -63 42 -102t119 -39q61 0 99.5 26.5t38.5 78.5q0 48 -36 80.5t-128 62.5q-99 33 -153.5 77t-54.5 122q0 87 62 139.5t158 52.5q107 0 169.5 -60.5t64.5 -145.5h-88q-4 51 -40.5 87.5t-106.5 36.5
q-56 0 -90 -29.5t-34 -74.5q0 -46 36 -73.5t120 -55.5q109 -37 162.5 -88t53.5 -132zM1141 175q0 -90 -64.5 -137.5t-168.5 -47.5q-120 0 -186 62t-69 160h94q3 -63 42 -102t119 -39q61 0 99.5 26.5t38.5 78.5q0 48 -36 80.5t-128 62.5q-99 33 -153.5 77t-54.5 122
q0 87 62 139.5t158 52.5q107 0 169.5 -60.5t64.5 -145.5h-88q-4 51 -40.5 87.5t-106.5 36.5q-56 0 -90 -29.5t-34 -74.5q0 -46 36 -73.5t120 -55.5q109 -37 162.5 -88t53.5 -132z" />
    <glyph glyph-name="uni1EA0" unicode="&#x1ea0;" horiz-adv-x="645" 
d="M623 0h-98l-60 180h-285l-59 -180h-99l240 700h122zM207 261h231l-111 336h-9zM323 -73q27 0 46.5 -19t19.5 -47q0 -27 -19.5 -46.5t-46.5 -19.5q-28 0 -48 19.5t-20 46.5q0 28 20 47t48 19z" />
    <glyph glyph-name="uni1EA1" unicode="&#x1ea1;" horiz-adv-x="519" 
d="M449 123q0 -28 11 -39t35 -11v-73h-16q-79 0 -97 68q-29 -36 -74.5 -57t-97.5 -21q-73 0 -120.5 36t-47.5 104q0 75 60 116t167 49l95 8v12q0 57 -27 91t-78 34q-50 0 -77 -29t-33 -69h-84q6 73 58 120.5t135 47.5q86 0 138.5 -52.5t52.5 -145.5v-189zM220 63
q58 0 101 36t43 103v35l-83 -6q-72 -6 -111 -31t-39 -65q0 -36 25.5 -54t63.5 -18zM268 -77q25 0 42.5 -17.5t17.5 -42.5t-17.5 -42.5t-42.5 -17.5t-43 17.5t-18 42.5t18 42.5t43 17.5z" />
    <glyph glyph-name="uni1EB8" unicode="&#x1eb8;" horiz-adv-x="558" 
d="M163 85h362v-85h-452v700h442v-85h-352v-219h311v-82h-311v-229zM307 -205q-28 0 -48 19.5t-20 46.5q0 28 20 47t48 19q27 0 46.5 -19t19.5 -47q0 -27 -19.5 -46.5t-46.5 -19.5z" />
    <glyph glyph-name="uni1EB9" unicode="&#x1eb9;" horiz-adv-x="553" 
d="M280 510q106 0 171 -71.5t56 -207.5h-379q5 -76 45 -120.5t115 -44.5q45 0 80.5 20t52.5 59h85q-19 -75 -79 -115t-139 -40q-113 0 -179.5 71.5t-66.5 191.5q0 112 67.5 184.5t170.5 72.5zM131 299h293q-2 58 -40 98t-101 40q-61 0 -101 -37.5t-51 -100.5zM281 -77
q25 0 42.5 -17.5t17.5 -42.5t-17.5 -42.5t-42.5 -17.5t-43 17.5t-18 42.5t18 42.5t43 17.5z" />
    <glyph glyph-name="uni1EBC" unicode="&#x1ebc;" horiz-adv-x="558" 
d="M471 852q-10 -32 -37.5 -59.5t-71.5 -27.5q-37 0 -75.5 25t-58.5 25q-32 0 -57 -45l-53 26q9 31 36.5 59t71.5 28q36 0 74.5 -24.5t58.5 -24.5q39 0 57 45zM163 85h362v-85h-452v700h442v-85h-352v-219h311v-82h-311v-229z" />
    <glyph glyph-name="uni1EBD" unicode="&#x1ebd;" horiz-adv-x="553" 
d="M216 605q-31 0 -54 -43l-51 25q9 30 35.5 56.5t67.5 26.5q35 0 71.5 -23.5t55.5 -23.5q36 0 54 43l52 -26q-9 -30 -35.5 -56.5t-67.5 -26.5q-35 0 -72 24t-56 24zM280 510q106 0 171 -71.5t56 -207.5h-379q5 -76 45 -120.5t115 -44.5q45 0 80.5 20t52.5 59h85
q-19 -75 -79 -115t-139 -40q-113 0 -179.5 71.5t-66.5 191.5q0 112 67.5 184.5t170.5 72.5zM131 299h293q-2 58 -40 98t-101 40q-61 0 -101 -37.5t-51 -100.5z" />
    <glyph glyph-name="uni1ECA" unicode="&#x1eca;" horiz-adv-x="242" 
d="M169 700v-700h-96v700h96zM121 -205q-28 0 -48 19.5t-20 46.5q0 28 20 47t48 19q27 0 46.5 -19t19.5 -47q0 -27 -19.5 -46.5t-46.5 -19.5z" />
    <glyph glyph-name="uni1ECB" unicode="&#x1ecb;" horiz-adv-x="228" 
d="M115 578q-25 0 -43 17.5t-18 42.5t18 42.5t43 17.5t42.5 -17.5t17.5 -42.5t-17.5 -42.5t-42.5 -17.5zM158 500v-500h-89v500h89zM116 -197q-25 0 -43 17.5t-18 42.5t18 42.5t43 17.5t42.5 -17.5t17.5 -42.5t-17.5 -42.5t-42.5 -17.5z" />
    <glyph glyph-name="uni1ECC" unicode="&#x1ecc;" horiz-adv-x="805" 
d="M403 -10q-149 0 -248 103t-99 257t99 257t247 103t247 -103t99 -257t-98.5 -257t-246.5 -103zM403 80q107 0 178 77.5t71 192.5t-71.5 192.5t-178.5 77.5t-178 -77.5t-71 -192.5t71 -192.5t179 -77.5zM402 -205q-28 0 -48 19.5t-20 46.5q0 28 20 47t48 19q27 0 46.5 -19
t19.5 -47q0 -27 -19.5 -46.5t-46.5 -19.5z" />
    <glyph glyph-name="uni1ECD" unicode="&#x1ecd;" horiz-adv-x="591" 
d="M296 -10q-110 0 -182 74t-72 187q0 111 71.5 185t181.5 74t182 -74t72 -186q0 -113 -71 -186.5t-182 -73.5zM295 69q73 0 119 52.5t46 128.5q0 75 -46.5 128t-118.5 53t-117.5 -53t-45.5 -128q0 -76 45.5 -128.5t117.5 -52.5zM296 -197q-25 0 -43 17.5t-18 42.5t18 42.5
t43 17.5t42.5 -17.5t17.5 -42.5t-17.5 -42.5t-42.5 -17.5z" />
    <glyph glyph-name="uni1EE4" unicode="&#x1ee4;" horiz-adv-x="693" 
d="M620 700v-425q0 -138 -76.5 -211.5t-195.5 -73.5q-120 0 -197.5 73.5t-77.5 211.5v425h96v-423q0 -95 50 -146.5t129 -51.5t127.5 51.5t48.5 146.5v423h96zM347 -205q-28 0 -48 19.5t-20 46.5q0 28 20 47t48 19q27 0 46.5 -19t19.5 -47q0 -27 -19.5 -46.5t-46.5 -19.5z
" />
    <glyph glyph-name="uni1EE5" unicode="&#x1ee5;" horiz-adv-x="560" 
d="M249 -10q-81 0 -132.5 55t-51.5 156v299h92v-282q0 -72 33.5 -109.5t88.5 -37.5q51 0 86 35.5t35 106.5v287h92v-500h-69l-14 63h-8q-49 -73 -152 -73zM279 -197q-25 0 -43 17.5t-18 42.5t18 42.5t43 17.5t42.5 -17.5t17.5 -42.5t-17.5 -42.5t-42.5 -17.5z" />
    <glyph glyph-name="Ygrave" unicode="&#x1ef2;" horiz-adv-x="641" 
d="M303 898l62 -138h-65l-104 138h107zM508 700h111l-249 -370v-330h-98v330l-250 370h111l183 -269h8z" />
    <glyph glyph-name="ygrave" unicode="&#x1ef3;" horiz-adv-x="554" 
d="M251 687l59 -132h-62l-99 132h102zM432 500h92l-193 -565q-23 -70 -63 -107.5t-110 -37.5q-76 0 -114 43l37 63q34 -30 74 -30q31 0 55 24t37 61l16 49h-35l-197 500h96l158 -410h9z" />
    <glyph glyph-name="uni1EF8" unicode="&#x1ef8;" horiz-adv-x="641" 
d="M497 852q-10 -32 -37.5 -59.5t-71.5 -27.5q-37 0 -75.5 25t-58.5 25q-32 0 -57 -45l-53 26q9 31 36.5 59t71.5 28q36 0 74.5 -24.5t58.5 -24.5q39 0 57 45zM508 700h111l-249 -370v-330h-98v330l-250 370h111l183 -269h8z" />
    <glyph glyph-name="uni1EF9" unicode="&#x1ef9;" horiz-adv-x="554" 
d="M446 640q-9 -30 -35.5 -56.5t-67.5 -26.5q-35 0 -72 24t-56 24q-31 0 -54 -43l-51 25q9 30 35.5 56.5t67.5 26.5q35 0 71.5 -23.5t55.5 -23.5q36 0 54 43zM432 500h92l-193 -565q-23 -70 -63 -107.5t-110 -37.5q-76 0 -114 43l37 63q34 -30 74 -30q31 0 55 24t37 61
l16 49h-35l-197 500h96l158 -410h9z" />
    <glyph glyph-name="uni200B" unicode="&#x200b;" horiz-adv-x="0" 
 />
    <glyph glyph-name="endash" unicode="&#x2013;" horiz-adv-x="499" 
d="M32 349h435v-76h-435v76z" />
    <glyph glyph-name="emdash" unicode="&#x2014;" horiz-adv-x="824" 
d="M792 349v-76h-760v76h760z" />
    <glyph glyph-name="quoteleft" unicode="&#x2018;" horiz-adv-x="201" 
d="M101 518q-28 0 -43 21t-15 55q0 51 27 88.5t64 57.5l19 -26q-51 -41 -52 -84q23 3 39.5 -12.5t16.5 -41.5t-15.5 -42t-40.5 -16z" />
    <glyph glyph-name="quoteright" unicode="&#x2019;" horiz-adv-x="201" 
d="M100 732q28 0 43 -21t15 -55q0 -51 -27 -88.5t-64 -57.5l-19 26q51 41 52 84q-23 -3 -39.5 12.5t-16.5 41.5t16 42t40 16z" />
    <glyph glyph-name="quotesinglbase" unicode="&#x201a;" horiz-adv-x="237" 
d="M118 106q28 0 43 -21t15 -55q0 -51 -27 -88.5t-64 -57.5l-19 26q51 41 52 84q-23 -3 -39.5 12.5t-16.5 41.5t16 42t40 16z" />
    <glyph glyph-name="quotedblleft" unicode="&#x201c;" horiz-adv-x="348" 
d="M101 518q-28 0 -43 21t-15 55q0 51 27 88.5t64 57.5l19 -26q-51 -41 -52 -84q23 3 39.5 -12.5t16.5 -41.5t-15.5 -42t-40.5 -16zM248 518q-28 0 -43 21t-15 55q0 51 27 88.5t64 57.5l19 -26q-51 -41 -52 -84q23 3 39.5 -12.5t16.5 -41.5t-16 -42t-40 -16z" />
    <glyph glyph-name="quotedblright" unicode="&#x201d;" horiz-adv-x="348" 
d="M100 732q28 0 43 -21t15 -55q0 -51 -27 -88.5t-64 -57.5l-19 26q51 41 52 84q-23 -3 -39.5 12.5t-16.5 41.5t16 42t40 16zM248 732q28 0 43 -21t15 -55q0 -51 -27 -88.5t-64 -57.5l-19 26q51 41 52 84q-23 -3 -39.5 12.5t-16.5 41.5t16 42t40 16z" />
    <glyph glyph-name="quotedblbase" unicode="&#x201e;" horiz-adv-x="384" 
d="M118 106q28 0 43 -21t15 -55q0 -51 -27 -88.5t-64 -57.5l-19 26q51 41 52 84q-23 -3 -39.5 12.5t-16.5 41.5t16 42t40 16zM265 106q28 0 43 -21t15 -55q0 -51 -27 -88.5t-64 -57.5l-19 26q51 41 52 84q-23 -3 -39.5 12.5t-16.5 41.5t15.5 42t40.5 16z" />
    <glyph glyph-name="dagger" unicode="&#x2020;" horiz-adv-x="485" 
d="M453 500v-76h-169v-564h-83v564h-169v76h169v200h83v-200h169z" />
    <glyph glyph-name="daggerdbl" unicode="&#x2021;" horiz-adv-x="485" 
d="M453 424h-169v-288h169v-76h-169v-200h-83v200h-169v76h169v288h-169v76h169v200h83v-200h169v-76z" />
    <glyph glyph-name="bullet" unicode="&#x2022;" horiz-adv-x="185" 
d="M93 248q-25 0 -43 17.5t-18 42.5t17.5 42.5t43.5 17.5q24 0 41.5 -17.5t17.5 -42.5t-17.5 -42.5t-41.5 -17.5z" />
    <glyph glyph-name="ellipsis" unicode="&#x2026;" horiz-adv-x="696" 
d="M122 -8q-25 0 -43 17.5t-18 42.5t17.5 42.5t43.5 17.5q24 0 41.5 -17.5t17.5 -42.5t-17.5 -42.5t-41.5 -17.5zM349 -8q-25 0 -43 17.5t-18 42.5t17.5 42.5t43.5 17.5q24 0 41.5 -17.5t17.5 -42.5t-17.5 -42.5t-41.5 -17.5zM577 -8q-25 0 -43 17.5t-18 42.5t17.5 42.5
t43.5 17.5q24 0 41.5 -17.5t17.5 -42.5t-17.5 -42.5t-41.5 -17.5z" />
    <glyph glyph-name="perthousand" unicode="&#x2030;" horiz-adv-x="1114" 
d="M207 350q-61 0 -105.5 44t-44.5 106t44.5 106t105.5 44t105.5 -44.5t44.5 -105.5t-44.5 -105.5t-105.5 -44.5zM654 640l-446 -640h-94l446 640h94zM207 423q34 0 55.5 22t21.5 55t-21.5 55t-55.5 22t-55.5 -22t-21.5 -55t21.5 -55t55.5 -22zM568 -10q-62 0 -106 44
t-44 106t44 106t106 44q61 0 105.5 -44.5t44.5 -105.5t-44.5 -105.5t-105.5 -44.5zM922 -10q-62 0 -106 44t-44 106t44 106t106 44q61 0 105.5 -44.5t44.5 -105.5t-44.5 -105.5t-105.5 -44.5zM568 63q34 0 55.5 22t21.5 55t-21.5 55t-55.5 22t-55.5 -22t-21.5 -55t21.5 -55
t55.5 -22zM922 63q34 0 55.5 22t21.5 55t-21.5 55t-55.5 22t-55.5 -22t-21.5 -55t21.5 -55t55.5 -22z" />
    <glyph glyph-name="guilsinglleft" unicode="&#x2039;" horiz-adv-x="296" 
d="M153 97l-131 202l131 202h100l-133 -202l133 -202h-100z" />
    <glyph glyph-name="guilsinglright" unicode="&#x203a;" horiz-adv-x="296" 
d="M143 97h-100l133 202l-133 202h100l131 -202z" />
    <glyph glyph-name="uni2042" unicode="&#x2042;" horiz-adv-x="813" 
d="M530 433l-97 61l5 -114h-63l5 114l-97 -61l-31 54l102 53l-102 53l31 54l97 -62l-5 115h63l-5 -115l97 62l31 -54l-102 -53l102 -53zM320 267l31 -54l-102 -53l102 -53l-31 -54l-97 61l5 -114h-63l5 114l-97 -61l-31 54l102 53l-102 53l31 54l97 -62l-5 115h63l-5 -115z
M771 213l-102 -53l102 -53l-31 -54l-97 61l5 -114h-63l5 114l-97 -61l-31 54l102 53l-102 53l31 54l97 -62l-5 115h63l-5 -115l97 62z" />
    <glyph glyph-name="fraction" unicode="&#x2044;" horiz-adv-x="289" 
d="M430 640l-498 -640h-73l498 640h73z" />
    <glyph glyph-name="uni2051" unicode="&#x2051;" horiz-adv-x="393" 
d="M351 593l-102 -53l102 -53l-31 -54l-97 61l5 -114h-63l5 114l-97 -61l-31 54l102 53l-102 53l31 54l97 -62l-5 115h63l-5 -115l97 62zM320 267l31 -54l-102 -53l102 -53l-31 -54l-97 61l5 -114h-63l5 114l-97 -61l-31 54l102 53l-102 53l31 54l97 -62l-5 115h63l-5 -115z
" />
    <glyph glyph-name="uni2070" unicode="&#x2070;" horiz-adv-x="369" 
d="M185 336q-67 0 -109.5 52t-42.5 144t42.5 144.5t108.5 52.5t109 -53t43 -145q0 -91 -42.5 -143t-108.5 -52zM185 399q40 0 63.5 34.5t23.5 97.5t-23.5 98t-64.5 35t-64 -35t-23 -98t23.5 -97.5t64.5 -34.5z" />
    <glyph glyph-name="uni2074" unicode="&#x2074;" horiz-adv-x="364" 
d="M341 473v-52h-64v-81h-56v81h-193v35l165 269h84v-252h64zM98 473h123v186h-6z" />
    <glyph glyph-name="uni2075" unicode="&#x2075;" horiz-adv-x="349" 
d="M182 594q61 0 97.5 -37t36.5 -95q0 -57 -39.5 -92t-102.5 -35q-68 0 -104.5 36.5t-36.5 85.5h59q2 -32 25 -51.5t57 -19.5q36 0 59 22t23 55q0 35 -22 59t-60 24q-50 0 -78 -41l-56 15l22 205h234v-54h-184l-12 -103q32 26 82 26z" />
    <glyph glyph-name="uni2076" unicode="&#x2076;" horiz-adv-x="356" 
d="M192 586q58 0 94.5 -35t36.5 -89q0 -56 -40.5 -91.5t-105.5 -35.5q-64 0 -104 36t-40 99q0 49 54 126l90 129h73l-116 -152q26 13 58 13zM179 385q40 0 63.5 22t23.5 54t-23.5 53.5t-63.5 21.5q-41 0 -64.5 -21.5t-23.5 -53.5t23.5 -54t64.5 -22z" />
    <glyph glyph-name="uni2077" unicode="&#x2077;" horiz-adv-x="325" 
d="M28 725h274v-42q-152 -128 -159 -343h-61q5 114 43 199.5t91 132.5h-188v53z" />
    <glyph glyph-name="uni2078" unicode="&#x2078;" horiz-adv-x="373" 
d="M259 547q35 -9 58.5 -36t23.5 -62q0 -55 -43 -84.5t-112 -29.5t-111 29.5t-42 83.5q0 37 23.5 63t58.5 36v4q-28 10 -44.5 30.5t-16.5 46.5q0 45 37 73.5t96 28.5t96.5 -28.5t37.5 -71.5q0 -27 -17.5 -48t-44.5 -31v-4zM186 683q-32 0 -53 -14.5t-21 -40.5
q0 -28 22.5 -43.5t51.5 -15.5q30 0 53 16t23 43q0 26 -21.5 40.5t-54.5 14.5zM185 383q43 0 67.5 17t24.5 48q0 29 -23.5 50.5t-67.5 21.5t-66.5 -21.5t-22.5 -50.5q0 -31 23 -48t65 -17z" />
    <glyph glyph-name="uni2079" unicode="&#x2079;" horiz-adv-x="356" 
d="M164 479q-58 0 -94.5 35t-36.5 89q0 56 40.5 91.5t105.5 35.5q64 0 104 -36t40 -99q0 -49 -54 -126l-90 -129h-73l116 152q-26 -13 -58 -13zM177 680q-40 0 -63.5 -22t-23.5 -54t23.5 -53.5t63.5 -21.5q41 0 64.5 21.5t23.5 53.5t-23.5 54t-64.5 22z" />
    <glyph glyph-name="uni2080" unicode="&#x2080;" horiz-adv-x="369" 
d="M185 -104q-67 0 -109.5 52t-42.5 144t42.5 144.5t108.5 52.5t109 -53t43 -145q0 -91 -42.5 -143t-108.5 -52zM185 -41q40 0 63.5 34.5t23.5 97.5t-23.5 98t-64.5 35t-64 -35t-23 -98t23.5 -97.5t64.5 -34.5z" />
    <glyph glyph-name="uni2081" unicode="&#x2081;" horiz-adv-x="234" 
d="M118 -100v260h-90v54h48q45 0 45 45v26h60v-385h-63z" />
    <glyph glyph-name="uni2082" unicode="&#x2082;" horiz-adv-x="332" 
d="M197 57q-94 -50 -96 -103h196v-54h-264v24q0 101 103 161q7 4 19.5 11t18.5 10t15.5 9t14 9.5t11 8.5t9.5 9.5t6.5 10t4.5 11t1 12.5q0 25 -17 41.5t-47 16.5q-36 0 -54.5 -22.5t-20.5 -53.5h-63q0 51 36 91.5t105 40.5q53 0 89 -30.5t36 -78.5q0 -24 -8 -43t-25.5 -34.5
t-31.5 -24.5t-38 -22z" />
    <glyph glyph-name="uni2083" unicode="&#x2083;" horiz-adv-x="342" 
d="M236 103q32 -9 52.5 -35t20.5 -60q0 -50 -37.5 -82t-106.5 -32q-67 0 -102.5 34.5t-39.5 88.5h60q3 -30 24.5 -50.5t59.5 -20.5q35 0 57.5 18t22.5 47q0 30 -23 48t-64 18h-19v52h21q32 0 51.5 15t19.5 39t-18 39t-47 15t-47.5 -15t-21.5 -40h-61q0 47 37.5 77.5
t93.5 30.5q54 0 89.5 -28.5t35.5 -70.5q0 -52 -58 -84v-4z" />
    <glyph glyph-name="uni2084" unicode="&#x2084;" horiz-adv-x="364" 
d="M341 33v-52h-64v-81h-56v81h-193v35l165 269h84v-252h64zM98 33h123v186h-6z" />
    <glyph glyph-name="uni2085" unicode="&#x2085;" horiz-adv-x="349" 
d="M182 154q61 0 97.5 -37t36.5 -95q0 -57 -39.5 -92t-102.5 -35q-68 0 -104.5 36.5t-36.5 85.5h59q2 -32 25 -51.5t57 -19.5q36 0 59 22t23 55q0 35 -22 59t-60 24q-50 0 -78 -41l-56 15l22 205h234v-54h-184l-12 -103q32 26 82 26z" />
    <glyph glyph-name="uni2086" unicode="&#x2086;" horiz-adv-x="356" 
d="M192 146q58 0 94.5 -35t36.5 -89q0 -56 -40.5 -91.5t-105.5 -35.5q-64 0 -104 36t-40 99q0 49 54 126l90 129h73l-116 -152q26 13 58 13zM179 -55q40 0 63.5 22t23.5 54t-23.5 53.5t-63.5 21.5q-41 0 -64.5 -21.5t-23.5 -53.5t23.5 -54t64.5 -22z" />
    <glyph glyph-name="uni2087" unicode="&#x2087;" horiz-adv-x="325" 
d="M28 285h274v-42q-152 -128 -159 -343h-61q5 114 43 199.5t91 132.5h-188v53z" />
    <glyph glyph-name="uni2088" unicode="&#x2088;" horiz-adv-x="373" 
d="M259 107q35 -9 58.5 -36t23.5 -62q0 -55 -43 -84.5t-112 -29.5t-111 29.5t-42 83.5q0 37 23.5 63t58.5 36v4q-28 10 -44.5 30.5t-16.5 46.5q0 45 37 73.5t96 28.5t96.5 -28.5t37.5 -71.5q0 -27 -17.5 -48t-44.5 -31v-4zM186 243q-32 0 -53 -14.5t-21 -40.5
q0 -28 22.5 -43.5t51.5 -15.5q30 0 53 16t23 43q0 26 -21.5 40.5t-54.5 14.5zM185 -57q43 0 67.5 17t24.5 48q0 29 -23.5 50.5t-67.5 21.5t-66.5 -21.5t-22.5 -50.5q0 -31 23 -48t65 -17z" />
    <glyph glyph-name="uni2089" unicode="&#x2089;" horiz-adv-x="356" 
d="M164 39q-58 0 -94.5 35t-36.5 89q0 56 40.5 91.5t105.5 35.5q64 0 104 -36t40 -99q0 -49 -54 -126l-90 -129h-73l116 152q-26 -13 -58 -13zM177 240q-40 0 -63.5 -22t-23.5 -54t23.5 -53.5t63.5 -21.5q41 0 64.5 21.5t23.5 53.5t-23.5 54t-64.5 22z" />
    <glyph glyph-name="Euro" unicode="&#x20ac;" horiz-adv-x="666" 
d="M412 69q108 0 167 61l35 -64q-74 -76 -205 -76q-107 0 -180.5 61t-96.5 167h-81v64h71q-1 12 -1 36q0 15 2 45h-72v65h84q27 102 100 162t179 60q127 0 200 -86l-44 -60q-58 68 -159 68q-69 0 -117 -38.5t-70 -105.5h306l-19 -65h-301q-2 -28 -2 -43q0 -14 2 -38h269
l-18 -64h-240q21 -70 70 -109.5t121 -39.5z" />
    <glyph glyph-name="uni2113" unicode="&#x2113;" horiz-adv-x="431" 
d="M192 180q0 -115 98 -115q25 0 49 7.5t34 15.5v-77q-31 -21 -96 -21q-71 0 -116 44t-45 127v82q-36 -9 -84 -16v69q60 13 84 20v174q0 72 35.5 116t101.5 44q64 0 99.5 -42t35.5 -107q0 -161 -196 -235v-86zM192 480v-136q124 55 124 150q0 39 -16.5 63t-46.5 24
q-61 0 -61 -101z" />
    <glyph glyph-name="trademark" unicode="&#x2122;" horiz-adv-x="792" 
d="M32 640v60h268v-60h-101v-290h-66v290h-101zM626 700h93v-350h-62v256h-5l-80 -216h-73l-81 216h-5v-256h-63v350h94l88 -239h5z" />
    <glyph glyph-name="uni2153" unicode="&#x2153;" horiz-adv-x="775" 
d="M118 255v260h-90v54h48q45 0 45 45v26h60v-385h-63zM636 640l-498 -640h-73l498 640h73zM669 203q32 -9 52.5 -35t20.5 -60q0 -50 -37.5 -82t-106.5 -32q-67 0 -102.5 34.5t-39.5 88.5h60q3 -30 24.5 -50.5t59.5 -20.5q35 0 57.5 18t22.5 47q0 30 -23 48t-64 18h-19v52
h21q32 0 51.5 15t19.5 39t-18 39t-47 15t-47.5 -15t-21.5 -40h-61q0 47 37.5 77.5t93.5 30.5q54 0 89.5 -28.5t35.5 -70.5q0 -52 -58 -84v-4z" />
    <glyph glyph-name="uni2154" unicode="&#x2154;" horiz-adv-x="879" 
d="M197 412q-94 -50 -96 -103h196v-54h-264v24q0 101 103 161q7 4 19.5 11t18.5 10t15.5 9t14 9.5t11 8.5t9.5 9.5t6.5 10t4.5 11t1 12.5q0 25 -17 41.5t-47 16.5q-36 0 -54.5 -22.5t-20.5 -53.5h-63q0 51 36 91.5t105 40.5q53 0 89 -30.5t36 -78.5q0 -24 -8 -43
t-25.5 -34.5t-31.5 -24.5t-38 -22zM740 640l-498 -640h-73l498 640h73zM773 203q32 -9 52.5 -35t20.5 -60q0 -50 -37.5 -82t-106.5 -32q-67 0 -102.5 34.5t-39.5 88.5h60q3 -30 24.5 -50.5t59.5 -20.5q35 0 57.5 18t22.5 47q0 30 -23 48t-64 18h-19v52h21q32 0 51.5 15
t19.5 39t-18 39t-47 15t-47.5 -15t-21.5 -40h-61q0 47 37.5 77.5t93.5 30.5q54 0 89.5 -28.5t35.5 -70.5q0 -52 -58 -84v-4z" />
    <glyph glyph-name="arrowup" unicode="&#x2191;" horiz-adv-x="695" 
d="M653 442l-58 -58l-208 211v-601h-79v601l-208 -211l-58 58l301 292h9z" />
    <glyph glyph-name="arrowdown" unicode="&#x2193;" horiz-adv-x="695" 
d="M595 310l58 -58l-301 -292h-9l-301 292l58 58l208 -211v601h79v-601z" />
    <glyph glyph-name="arrowboth" unicode="&#x2194;" horiz-adv-x="999" 
d="M684 617l292 -301v-9l-292 -301l-58 58l211 208h-676l211 -208l-58 -58l-292 301v9l292 301l58 -58l-211 -208h676l-211 208z" />
    <glyph glyph-name="arrowupdn" unicode="&#x2195;" horiz-adv-x="695" 
d="M387 3l208 211l58 -58l-301 -292h-9l-301 292l58 58l208 -211v675l-208 -211l-58 58l301 292h9l301 -292l-58 -58l-208 211v-675z" />
    <glyph glyph-name="uni2196" unicode="&#x2196;" horiz-adv-x="623" 
d="M601 69l-59 -58l-421 420v-300h-79v431l9 7h431v-78h-305z" />
    <glyph glyph-name="uni2197" unicode="&#x2197;" horiz-adv-x="623" 
d="M572 569l9 -7v-431h-79v300l-421 -420l-59 58l424 422h-305v78h431z" />
    <glyph glyph-name="uni2198" unicode="&#x2198;" horiz-adv-x="623" 
d="M502 516h78v-431l-7 -9h-431v79h300l-420 421l58 59l422 -424v305z" />
    <glyph glyph-name="uni2199" unicode="&#x2199;" horiz-adv-x="623" 
d="M600 576l-420 -421h300v-79h-431l-7 9v431h78v-305l422 424z" />
    <glyph glyph-name="partialdiff" unicode="&#x2202;" horiz-adv-x="595" 
d="M538 318q0 -328 -245 -328q-98 0 -167.5 64.5t-69.5 168.5q0 103 64 166.5t163 63.5q64 0 114.5 -31t67.5 -72q-18 283 -178 283q-56 0 -88 -30.5t-43 -68.5h-81q9 70 66 123t146 53q127 0 189 -101.5t62 -290.5zM294 65q68 0 111 47t43 115q0 67 -45 109t-113 42
t-110 -43.5t-42 -112.5q0 -68 44.5 -112.5t111.5 -44.5z" />
    <glyph glyph-name="emptyset" unicode="&#x2205;" horiz-adv-x="784" 
d="M648 529q74 -90 74 -209q0 -137 -96.5 -233.5t-233.5 -96.5q-115 0 -206 73l-72 -73l-48 50l71 72q-74 92 -74 208q0 137 96 233.5t233 96.5q117 0 207 -72l72 72l48 -50zM142 320q0 -84 50 -153l352 355q-69 51 -153 51q-102 0 -175.5 -74.5t-73.5 -178.5zM391 67
q103 0 177 74.5t74 178.5q0 85 -49 152l-352 -354q65 -51 150 -51z" />
    <glyph glyph-name="product" unicode="&#x220f;" horiz-adv-x="647" 
d="M73 700h500v-700h-77v629h-344v-629h-79v700z" />
    <glyph glyph-name="summation" unicode="&#x2211;" horiz-adv-x="515" 
d="M32 633v67h450v-70h-346l262 -258v-44l-262 -257h346v-71h-450v67l284 280v6z" />
    <glyph glyph-name="minus" unicode="&#x2212;" horiz-adv-x="542" 
d="M64 318h414v-76h-414v76z" />
    <glyph glyph-name="radical" unicode="&#x221a;" horiz-adv-x="665" 
d="M450 700h182v-77h-118l-214 -623h-112l-158 399h89l121 -313h9z" />
    <glyph glyph-name="infinity" unicode="&#x221e;" horiz-adv-x="798" 
d="M583 510q68 0 120 -49t52 -125t-52 -125t-120 -49q-106 0 -181 113h-6q-75 -113 -181 -113q-69 0 -121 49t-52 125t52 125t121 49q106 0 181 -113h6q75 113 181 113zM223 235q78 0 138 101q-60 101 -138 101q-41 0 -71.5 -28t-30.5 -73t30.5 -73t71.5 -28zM575 235
q41 0 71.5 28t30.5 73t-30.5 73t-71.5 28q-79 0 -138 -101q59 -101 138 -101z" />
    <glyph glyph-name="integral" unicode="&#x222b;" horiz-adv-x="563" 
d="M437 710q65 0 103 -42l-35 -60q-28 28 -62 28q-59 0 -71 -73l-102 -637q-22 -136 -145 -136q-63 0 -103 42l36 60q28 -28 61 -28q61 0 71 73l102 637q11 68 49 102t96 34z" />
    <glyph glyph-name="approxequal" unicode="&#x2248;" horiz-adv-x="605" 
d="M549 433q-5 -17 -14.5 -35.5t-26 -40t-44.5 -35.5t-61 -14q-34 0 -63.5 13t-46.5 28.5t-41.5 28.5t-49.5 13q-56 0 -90 -73l-56 19q5 18 14.5 36.5t26.5 40t44.5 35.5t60.5 14q34 0 63 -13t46.5 -28.5t41.5 -28.5t49 -13q58 0 92 73zM549 221q-5 -17 -14.5 -35.5t-26 -40
t-44.5 -35.5t-61 -14q-34 0 -63.5 13t-46.5 28.5t-41.5 28.5t-49.5 13q-56 0 -90 -73l-56 19q5 18 14.5 36.5t26.5 40t44.5 35.5t60.5 14q34 0 63 -13t46.5 -28.5t41.5 -28.5t49 -13q58 0 92 73z" />
    <glyph glyph-name="notequal" unicode="&#x2260;" horiz-adv-x="541" 
d="M489 346h-141l-83 -132h224v-76h-272l-69 -110l-52 32l49 78h-94v76h142l83 132h-225v76h273l69 110l52 -32l-49 -78h93v-76z" />
    <glyph glyph-name="lessequal" unicode="&#x2264;" horiz-adv-x="535" 
d="M479 583v-83l-337 -143v-7l337 -144v-83l-423 179v101zM479 0h-423v74h423v-74z" />
    <glyph glyph-name="greaterequal" unicode="&#x2265;" horiz-adv-x="535" 
d="M56 583l423 -180v-101l-423 -179v83l337 144v7l-337 143v83zM56 0v74h423v-74h-423z" />
    <glyph glyph-name="lozenge" unicode="&#x25ca;" horiz-adv-x="624" 
d="M312 570l290 -290l-290 -290l-290 290zM312 460l-179 -180l179 -180l180 180z" />
    <glyph glyph-name="smileface" unicode="&#x263a;" 
d="M776 350q0 -150 -105 -255t-255 -105t-255 106t-105 254q0 149 105.5 254.5t254.5 105.5q151 0 255.5 -105.5t104.5 -254.5zM228 533v-45h44v-128h46v128h44v45h-134zM470 533v-45h45v-128h45v128h45v45h-135zM416 81q109 0 187 76t81 183l-46 8q0 -92 -65 -156.5
t-157 -64.5t-156.5 64.5t-64.5 156.5l-46 -8q3 -107 81 -183t186 -76z" />
    <glyph glyph-name="uni2731" unicode="&#x2731;" horiz-adv-x="541" 
d="M479 359l-144 -79l144 -79l-36 -62l-140 84l3 -163h-71l3 164l-141 -85l-35 62l143 79l-143 79l35 62l141 -85l-3 164h71l-3 -163l140 84z" />
    <glyph glyph-name="uni2780" unicode="&#x2780;" 
d="M416 -10q-148 0 -254 105t-106 255t106 255t254 105t254 -105t106 -255t-106 -255t-254 -105zM416 43q126 0 216.5 90.5t90.5 216.5t-90.5 216.5t-216.5 90.5q-125 0 -214.5 -90t-89.5 -217t89.5 -217t214.5 -90zM398 155v260h-90v54h48q45 0 45 45v26h60v-385h-63z" />
    <glyph glyph-name="uni2781" unicode="&#x2781;" 
d="M416 -10q-148 0 -254 105t-106 255t106 255t254 105t254 -105t106 -255t-106 -255t-254 -105zM416 43q126 0 216.5 90.5t90.5 216.5t-90.5 216.5t-216.5 90.5q-125 0 -214.5 -90t-89.5 -217t89.5 -217t214.5 -90zM447 325q-94 -50 -96 -103h196v-54h-264v24
q0 101 103 161q7 4 19.5 11t18.5 10t15.5 9t14 9.5t11 8.5t9.5 9.5t6.5 10t4.5 11t1 12.5q0 25 -17 41.5t-47 16.5q-36 0 -54.5 -22.5t-20.5 -53.5h-63q0 51 36 91.5t105 40.5q53 0 89 -30.5t36 -78.5q0 -24 -8 -43t-25.5 -34.5t-31.5 -24.5t-38 -22z" />
    <glyph glyph-name="uni2782" unicode="&#x2782;" 
d="M416 -10q-148 0 -254 105t-106 255t106 255t254 105t254 -105t106 -255t-106 -255t-254 -105zM416 43q126 0 216.5 90.5t90.5 216.5t-90.5 216.5t-216.5 90.5q-125 0 -214.5 -90t-89.5 -217t89.5 -217t214.5 -90zM485 361q32 -9 52.5 -35t20.5 -60q0 -50 -37.5 -82
t-106.5 -32q-67 0 -102.5 34.5t-39.5 88.5h60q3 -30 24.5 -50.5t59.5 -20.5q35 0 57.5 18t22.5 47q0 30 -23 48t-64 18h-19v52h21q32 0 51.5 15t19.5 39t-18 39t-47 15t-47.5 -15t-21.5 -40h-61q0 47 37.5 77.5t93.5 30.5q54 0 89.5 -28.5t35.5 -70.5q0 -52 -58 -84v-4z" />
    <glyph glyph-name="uni2783" unicode="&#x2783;" 
d="M416 -10q-148 0 -254 105t-106 255t106 255t254 105t254 -105t106 -255t-106 -255t-254 -105zM416 43q126 0 216.5 90.5t90.5 216.5t-90.5 216.5t-216.5 90.5q-125 0 -214.5 -90t-89.5 -217t89.5 -217t214.5 -90zM557 290v-52h-64v-81h-56v81h-193v35l165 269h84v-252h64
zM314 290h123v186h-6z" />
    <glyph glyph-name="uni2784" unicode="&#x2784;" 
d="M416 -10q-148 0 -254 105t-106 255t106 255t254 105t254 -105t106 -255t-106 -255t-254 -105zM416 43q126 0 216.5 90.5t90.5 216.5t-90.5 216.5t-216.5 90.5q-125 0 -214.5 -90t-89.5 -217t89.5 -217t214.5 -90zM426 410q61 0 97.5 -37t36.5 -95q0 -57 -39.5 -92
t-102.5 -35q-68 0 -104.5 36.5t-36.5 85.5h59q2 -32 25 -51.5t57 -19.5q36 0 59 22t23 55q0 35 -22 59t-60 24q-50 0 -78 -41l-56 15l22 205h234v-54h-184l-12 -103q32 26 82 26z" />
    <glyph glyph-name="uni2785" unicode="&#x2785;" 
d="M416 -10q-148 0 -254 105t-106 255t106 255t254 105t254 -105t106 -255t-106 -255t-254 -105zM416 43q126 0 216.5 90.5t90.5 216.5t-90.5 216.5t-216.5 90.5q-125 0 -214.5 -90t-89.5 -217t89.5 -217t214.5 -90zM427 411q58 0 94.5 -35t36.5 -89q0 -56 -40.5 -91.5
t-105.5 -35.5q-64 0 -104 36t-40 99q0 49 54 126l90 129h73l-116 -152q26 13 58 13zM414 210q40 0 63.5 22t23.5 54t-23.5 53.5t-63.5 21.5q-41 0 -64.5 -21.5t-23.5 -53.5t23.5 -54t64.5 -22z" />
    <glyph glyph-name="uni2786" unicode="&#x2786;" 
d="M416 -10q-148 0 -254 105t-106 255t106 255t254 105t254 -105t106 -255t-106 -255t-254 -105zM416 43q126 0 216.5 90.5t90.5 216.5t-90.5 216.5t-216.5 90.5q-125 0 -214.5 -90t-89.5 -217t89.5 -217t214.5 -90zM292 529h274v-42q-152 -128 -159 -343h-61
q5 114 43 199.5t91 132.5h-188v53z" />
    <glyph glyph-name="uni2787" unicode="&#x2787;" 
d="M416 -10q-148 0 -254 105t-106 255t106 255t254 105t254 -105t106 -255t-106 -255t-254 -105zM416 43q126 0 216.5 90.5t90.5 216.5t-90.5 216.5t-216.5 90.5q-125 0 -214.5 -90t-89.5 -217t89.5 -217t214.5 -90zM489 367q35 -9 58.5 -36t23.5 -62q0 -55 -43 -84.5
t-112 -29.5t-111 29.5t-42 83.5q0 37 23.5 63t58.5 36v4q-28 10 -44.5 30.5t-16.5 46.5q0 45 37 73.5t96 28.5t96.5 -28.5t37.5 -71.5q0 -27 -17.5 -48t-44.5 -31v-4zM416 503q-32 0 -53 -14.5t-21 -40.5q0 -28 22.5 -43.5t51.5 -15.5q30 0 53 16t23 43q0 26 -21.5 40.5
t-54.5 14.5zM415 203q43 0 67.5 17t24.5 48q0 29 -23.5 50.5t-67.5 21.5t-66.5 -21.5t-22.5 -50.5q0 -31 23 -48t65 -17z" />
    <glyph glyph-name="uni2788" unicode="&#x2788;" 
d="M416 -10q-148 0 -254 105t-106 255t106 255t254 105t254 -105t106 -255t-106 -255t-254 -105zM416 43q126 0 216.5 90.5t90.5 216.5t-90.5 216.5t-216.5 90.5q-125 0 -214.5 -90t-89.5 -217t89.5 -217t214.5 -90zM399 291q-58 0 -94.5 35t-36.5 89q0 56 40.5 91.5
t105.5 35.5q64 0 104 -36t40 -99q0 -49 -54 -126l-90 -129h-73l116 152q-26 -13 -58 -13zM412 492q-40 0 -63.5 -22t-23.5 -54t23.5 -53.5t63.5 -21.5q41 0 64.5 21.5t23.5 53.5t-23.5 54t-64.5 22z" />
    <glyph glyph-name="uni2789" unicode="&#x2789;" 
d="M416 -10q-148 0 -254 105t-106 255t106 255t254 105t254 -105t106 -255t-106 -255t-254 -105zM416 43q126 0 216.5 90.5t90.5 216.5t-90.5 216.5t-216.5 90.5q-125 0 -214.5 -90t-89.5 -217t89.5 -217t214.5 -90zM503 190q-53 0 -87.5 41.5t-34.5 115.5q0 73 34.5 115
t87.5 42t87.5 -42t34.5 -116q0 -73 -34.5 -114.5t-87.5 -41.5zM280 193v205h-71v46h39q36 0 36 36v21h52v-308h-56zM503 241q31 0 48.5 28t17.5 77q0 48 -17.5 76t-48.5 28t-49 -28t-18 -76t18 -76.5t49 -28.5z" />
    <glyph glyph-name="uni278A" unicode="&#x278a;" 
d="M416 -10q149 0 254.5 105.5t105.5 254.5t-105.5 254.5t-254.5 105.5t-254.5 -105.5t-105.5 -254.5t105.5 -254.5t254.5 -105.5zM398 155v260h-90v54h48q45 0 45 45v26h60v-385h-63z" />
    <glyph glyph-name="uni278B" unicode="&#x278b;" 
d="M416 -10q149 0 254.5 105.5t105.5 254.5t-105.5 254.5t-254.5 105.5t-254.5 -105.5t-105.5 -254.5t105.5 -254.5t254.5 -105.5zM447 325q-94 -50 -96 -103h196v-54h-264v24q0 101 103 161q7 4 19.5 11t18.5 10t15.5 9t14 9.5t11 8.5t9.5 9.5t6.5 10t4.5 11t1 12.5
q0 25 -17 41.5t-47 16.5q-36 0 -54.5 -22.5t-20.5 -53.5h-63q0 51 36 91.5t105 40.5q53 0 89 -30.5t36 -78.5q0 -24 -8 -43t-25.5 -34.5t-31.5 -24.5t-38 -22z" />
    <glyph glyph-name="uni278C" unicode="&#x278c;" 
d="M416 -10q149 0 254.5 105.5t105.5 254.5t-105.5 254.5t-254.5 105.5t-254.5 -105.5t-105.5 -254.5t105.5 -254.5t254.5 -105.5zM485 361q32 -9 52.5 -35t20.5 -60q0 -50 -37.5 -82t-106.5 -32q-67 0 -102.5 34.5t-39.5 88.5h60q3 -30 24.5 -50.5t59.5 -20.5q35 0 57.5 18
t22.5 47q0 30 -23 48t-64 18h-19v52h21q32 0 51.5 15t19.5 39t-18 39t-47 15t-47.5 -15t-21.5 -40h-61q0 47 37.5 77.5t93.5 30.5q54 0 89.5 -28.5t35.5 -70.5q0 -52 -58 -84v-4z" />
    <glyph glyph-name="uni278D" unicode="&#x278d;" 
d="M416 -10q149 0 254.5 105.5t105.5 254.5t-105.5 254.5t-254.5 105.5t-254.5 -105.5t-105.5 -254.5t105.5 -254.5t254.5 -105.5zM557 290v-52h-64v-81h-56v81h-193v35l165 269h84v-252h64zM314 290h123v186h-6z" />
    <glyph glyph-name="uni278E" unicode="&#x278e;" 
d="M416 -10q149 0 254.5 105.5t105.5 254.5t-105.5 254.5t-254.5 105.5t-254.5 -105.5t-105.5 -254.5t105.5 -254.5t254.5 -105.5zM426 410q61 0 97.5 -37t36.5 -95q0 -57 -39.5 -92t-102.5 -35q-68 0 -104.5 36.5t-36.5 85.5h59q2 -32 25 -51.5t57 -19.5q36 0 59 22t23 55
q0 35 -22 59t-60 24q-50 0 -78 -41l-56 15l22 205h234v-54h-184l-12 -103q32 26 82 26z" />
    <glyph glyph-name="uni278F" unicode="&#x278f;" 
d="M416 -10q149 0 254.5 105.5t105.5 254.5t-105.5 254.5t-254.5 105.5t-254.5 -105.5t-105.5 -254.5t105.5 -254.5t254.5 -105.5zM427 411q58 0 94.5 -35t36.5 -89q0 -56 -40.5 -91.5t-105.5 -35.5q-64 0 -104 36t-40 99q0 49 54 126l90 129h73l-116 -152q26 13 58 13z
M414 210q40 0 63.5 22t23.5 54t-23.5 53.5t-63.5 21.5q-41 0 -64.5 -21.5t-23.5 -53.5t23.5 -54t64.5 -22z" />
    <glyph glyph-name="uni2790" unicode="&#x2790;" 
d="M416 -10q149 0 254.5 105.5t105.5 254.5t-105.5 254.5t-254.5 105.5t-254.5 -105.5t-105.5 -254.5t105.5 -254.5t254.5 -105.5zM292 529h274v-42q-152 -128 -159 -343h-61q5 114 43 199.5t91 132.5h-188v53z" />
    <glyph glyph-name="uni2791" unicode="&#x2791;" 
d="M416 -10q149 0 254.5 105.5t105.5 254.5t-105.5 254.5t-254.5 105.5t-254.5 -105.5t-105.5 -254.5t105.5 -254.5t254.5 -105.5zM489 367q35 -9 58.5 -36t23.5 -62q0 -55 -43 -84.5t-112 -29.5t-111 29.5t-42 83.5q0 37 23.5 63t58.5 36v4q-28 10 -44.5 30.5t-16.5 46.5
q0 45 37 73.5t96 28.5t96.5 -28.5t37.5 -71.5q0 -27 -17.5 -48t-44.5 -31v-4zM416 503q-32 0 -53 -14.5t-21 -40.5q0 -28 22.5 -43.5t51.5 -15.5q30 0 53 16t23 43q0 26 -21.5 40.5t-54.5 14.5zM415 203q43 0 67.5 17t24.5 48q0 29 -23.5 50.5t-67.5 21.5t-66.5 -21.5
t-22.5 -50.5q0 -31 23 -48t65 -17z" />
    <glyph glyph-name="uni2792" unicode="&#x2792;" 
d="M416 -10q149 0 254.5 105.5t105.5 254.5t-105.5 254.5t-254.5 105.5t-254.5 -105.5t-105.5 -254.5t105.5 -254.5t254.5 -105.5zM399 291q-58 0 -94.5 35t-36.5 89q0 56 40.5 91.5t105.5 35.5q64 0 104 -36t40 -99q0 -49 -54 -126l-90 -129h-73l116 152q-26 -13 -58 -13z
M412 492q-40 0 -63.5 -22t-23.5 -54t23.5 -53.5t63.5 -21.5q41 0 64.5 21.5t23.5 53.5t-23.5 54t-64.5 22z" />
    <glyph glyph-name="uni2793" unicode="&#x2793;" 
d="M416 -10q149 0 254.5 105.5t105.5 254.5t-105.5 254.5t-254.5 105.5t-254.5 -105.5t-105.5 -254.5t105.5 -254.5t254.5 -105.5zM503 190q-53 0 -87.5 41.5t-34.5 115.5q0 73 34.5 115t87.5 42t87.5 -42t34.5 -116q0 -73 -34.5 -114.5t-87.5 -41.5zM280 193v205h-71v46h39
q36 0 36 36v21h52v-308h-56zM503 241q31 0 48.5 28t17.5 77q0 48 -17.5 76t-48.5 28t-49 -28t-18 -76t18 -76.5t49 -28.5z" />
    <glyph glyph-name="fl" unicode="&#xfb02;" horiz-adv-x="546" 
d="M388 710h90v-710h-90v427h-182v-427h-85v427h-89v73h89v81q0 59 34 94t95 35q37 0 69 -17l-22 -70q-18 11 -38 11q-53 0 -53 -61v-73h182v210z" />
    <glyph glyph-name="i.loclTRK" horiz-adv-x="228" 
d="M115 578q-25 0 -43 17.5t-18 42.5t18 42.5t43 17.5t42.5 -17.5t17.5 -42.5t-17.5 -42.5t-42.5 -17.5zM158 500v-500h-89v500h89z" />
    <glyph glyph-name="a.fina" horiz-adv-x="519" 
d="M512 86l32 -55q-8 -14 -27.5 -27.5t-45.5 -13.5q-39 0 -62.5 20t-28.5 55q-64 -75 -170 -75q-73 0 -120.5 36t-47.5 104q0 75 60 116t167 49l95 8v12q0 57 -27 91t-78 34q-50 0 -77 -29t-33 -69h-84q6 73 58 120.5t135 47.5q86 0 138.5 -52.5t52.5 -145.5v-194
q0 -54 32 -54q16 0 31 22zM220 63q58 0 101 36t43 103v35l-83 -6q-72 -6 -111 -31t-39 -65q0 -36 25.5 -54t63.5 -18z" />
    <glyph glyph-name="aacute.fina" horiz-adv-x="519" 
d="M390 687l-99 -132h-62l59 132h102zM512 86l32 -55q-8 -14 -27.5 -27.5t-45.5 -13.5q-39 0 -62.5 20t-28.5 55q-64 -75 -170 -75q-73 0 -120.5 36t-47.5 104q0 75 60 116t167 49l95 8v12q0 57 -27 91t-78 34q-50 0 -77 -29t-33 -69h-84q6 73 58 120.5t135 47.5
q86 0 138.5 -52.5t52.5 -145.5v-194q0 -54 32 -54q16 0 31 22zM220 63q58 0 101 36t43 103v35l-83 -6q-72 -6 -111 -31t-39 -65q0 -36 25.5 -54t63.5 -18z" />
    <glyph glyph-name="abreve.fina" horiz-adv-x="519" 
d="M262 571q-58 0 -94.5 36t-36.5 83h68q0 -28 17 -45.5t46 -17.5t45 17.5t16 45.5h69q0 -47 -36 -83t-94 -36zM512 86l32 -55q-8 -14 -27.5 -27.5t-45.5 -13.5q-39 0 -62.5 20t-28.5 55q-64 -75 -170 -75q-73 0 -120.5 36t-47.5 104q0 75 60 116t167 49l95 8v12
q0 57 -27 91t-78 34q-50 0 -77 -29t-33 -69h-84q6 73 58 120.5t135 47.5q86 0 138.5 -52.5t52.5 -145.5v-194q0 -54 32 -54q16 0 31 22zM220 63q58 0 101 36t43 103v35l-83 -6q-72 -6 -111 -31t-39 -65q0 -36 25.5 -54t63.5 -18z" />
    <glyph glyph-name="uni01CE.fina" horiz-adv-x="519" 
d="M300 559h-76l-110 141h83l61 -84h8l60 84h83zM512 86l32 -55q-8 -14 -27.5 -27.5t-45.5 -13.5q-39 0 -62.5 20t-28.5 55q-64 -75 -170 -75q-73 0 -120.5 36t-47.5 104q0 75 60 116t167 49l95 8v12q0 57 -27 91t-78 34q-50 0 -77 -29t-33 -69h-84q6 73 58 120.5t135 47.5
q86 0 138.5 -52.5t52.5 -145.5v-194q0 -54 32 -54q16 0 31 22zM220 63q58 0 101 36t43 103v35l-83 -6q-72 -6 -111 -31t-39 -65q0 -36 25.5 -54t63.5 -18z" />
    <glyph glyph-name="acircumflex.fina" horiz-adv-x="519" 
d="M257 643l-60 -84h-83l109 141h76l110 -141h-83l-61 84h-8zM512 86l32 -55q-8 -14 -27.5 -27.5t-45.5 -13.5q-39 0 -62.5 20t-28.5 55q-64 -75 -170 -75q-73 0 -120.5 36t-47.5 104q0 75 60 116t167 49l95 8v12q0 57 -27 91t-78 34q-50 0 -77 -29t-33 -69h-84
q6 73 58 120.5t135 47.5q86 0 138.5 -52.5t52.5 -145.5v-194q0 -54 32 -54q16 0 31 22zM220 63q58 0 101 36t43 103v35l-83 -6q-72 -6 -111 -31t-39 -65q0 -36 25.5 -54t63.5 -18z" />
    <glyph glyph-name="adieresis.fina" horiz-adv-x="519" 
d="M171 558q-23 0 -39.5 16.5t-16.5 38.5q0 23 16.5 39t39.5 16t39 -16t16 -39t-16 -39t-39 -16zM354 558q-22 0 -38.5 16t-16.5 39t16 39t39 16t38.5 -16t15.5 -39t-16 -39t-38 -16zM512 86l32 -55q-8 -14 -27.5 -27.5t-45.5 -13.5q-39 0 -62.5 20t-28.5 55
q-64 -75 -170 -75q-73 0 -120.5 36t-47.5 104q0 75 60 116t167 49l95 8v12q0 57 -27 91t-78 34q-50 0 -77 -29t-33 -69h-84q6 73 58 120.5t135 47.5q86 0 138.5 -52.5t52.5 -145.5v-194q0 -54 32 -54q16 0 31 22zM220 63q58 0 101 36t43 103v35l-83 -6q-72 -6 -111 -31
t-39 -65q0 -36 25.5 -54t63.5 -18z" />
    <glyph glyph-name="uni0227.fina" horiz-adv-x="519" 
d="M262 578q-25 0 -43 17.5t-18 42.5t18 42.5t43 17.5t42.5 -17.5t17.5 -42.5t-17.5 -42.5t-42.5 -17.5zM512 86l32 -55q-8 -14 -27.5 -27.5t-45.5 -13.5q-39 0 -62.5 20t-28.5 55q-64 -75 -170 -75q-73 0 -120.5 36t-47.5 104q0 75 60 116t167 49l95 8v12q0 57 -27 91
t-78 34q-50 0 -77 -29t-33 -69h-84q6 73 58 120.5t135 47.5q86 0 138.5 -52.5t52.5 -145.5v-194q0 -54 32 -54q16 0 31 22zM220 63q58 0 101 36t43 103v35l-83 -6q-72 -6 -111 -31t-39 -65q0 -36 25.5 -54t63.5 -18z" />
    <glyph glyph-name="uni1EA1.fina" horiz-adv-x="519" 
d="M512 86l32 -55q-8 -14 -27.5 -27.5t-45.5 -13.5q-39 0 -62.5 20t-28.5 55q-64 -75 -170 -75q-73 0 -120.5 36t-47.5 104q0 75 60 116t167 49l95 8v12q0 57 -27 91t-78 34q-50 0 -77 -29t-33 -69h-84q6 73 58 120.5t135 47.5q86 0 138.5 -52.5t52.5 -145.5v-194
q0 -54 32 -54q16 0 31 22zM220 63q58 0 101 36t43 103v35l-83 -6q-72 -6 -111 -31t-39 -65q0 -36 25.5 -54t63.5 -18zM268 -77q25 0 42.5 -17.5t17.5 -42.5t-17.5 -42.5t-42.5 -17.5t-43 17.5t-18 42.5t18 42.5t43 17.5z" />
    <glyph glyph-name="agrave.fina" horiz-adv-x="519" 
d="M294 555h-62l-99 132h102zM512 86l32 -55q-8 -14 -27.5 -27.5t-45.5 -13.5q-39 0 -62.5 20t-28.5 55q-64 -75 -170 -75q-73 0 -120.5 36t-47.5 104q0 75 60 116t167 49l95 8v12q0 57 -27 91t-78 34q-50 0 -77 -29t-33 -69h-84q6 73 58 120.5t135 47.5q86 0 138.5 -52.5
t52.5 -145.5v-194q0 -54 32 -54q16 0 31 22zM220 63q58 0 101 36t43 103v35l-83 -6q-72 -6 -111 -31t-39 -65q0 -36 25.5 -54t63.5 -18z" />
    <glyph glyph-name="amacron.fina" horiz-adv-x="519" 
d="M413 645v-64h-301v64h301zM512 86l32 -55q-8 -14 -27.5 -27.5t-45.5 -13.5q-39 0 -62.5 20t-28.5 55q-64 -75 -170 -75q-73 0 -120.5 36t-47.5 104q0 75 60 116t167 49l95 8v12q0 57 -27 91t-78 34q-50 0 -77 -29t-33 -69h-84q6 73 58 120.5t135 47.5q86 0 138.5 -52.5
t52.5 -145.5v-194q0 -54 32 -54q16 0 31 22zM220 63q58 0 101 36t43 103v35l-83 -6q-72 -6 -111 -31t-39 -65q0 -36 25.5 -54t63.5 -18z" />
    <glyph glyph-name="aogonek.fina" horiz-adv-x="525" 
d="M442 -75q0 -26 19 -39t43 -12t44 12v-55q-17 -13 -55 -13q-45 0 -77 25.5t-32 70.5q0 51 53 81q-49 15 -57 70q-29 -35 -74 -55t-96 -20q-73 0 -120.5 36t-47.5 104q0 75 60 116t167 49l95 8v12q0 57 -27 91t-78 34q-50 0 -77 -29t-33 -69h-84q6 73 58 120.5t135 47.5
q86 0 138.5 -52.5t52.5 -145.5v-194q0 -54 32 -54q16 0 31 22l33 -55q-11 -21 -52 -38q-51 -22 -51 -68zM220 63q58 0 101 36t43 103v35l-83 -6q-72 -6 -111 -31t-39 -65q0 -36 25.5 -54t63.5 -18z" />
    <glyph glyph-name="aring.fina" horiz-adv-x="519" 
d="M262 541q-40 0 -68 28t-28 67t28 67t68 28q39 0 67.5 -28t28.5 -67t-28.5 -67t-67.5 -28zM263 678q-18 0 -30.5 -12.5t-12.5 -29.5q0 -18 12 -30.5t31 -12.5q17 0 29 12.5t12 30.5q0 17 -12.5 29.5t-28.5 12.5zM512 86l32 -55q-8 -14 -27.5 -27.5t-45.5 -13.5
q-39 0 -62.5 20t-28.5 55q-64 -75 -170 -75q-73 0 -120.5 36t-47.5 104q0 75 60 116t167 49l95 8v12q0 57 -27 91t-78 34q-50 0 -77 -29t-33 -69h-84q6 73 58 120.5t135 47.5q86 0 138.5 -52.5t52.5 -145.5v-194q0 -54 32 -54q16 0 31 22zM220 63q58 0 101 36t43 103v35
l-83 -6q-72 -6 -111 -31t-39 -65q0 -36 25.5 -54t63.5 -18z" />
    <glyph glyph-name="atilde.fina" horiz-adv-x="519" 
d="M199 605q-31 0 -54 -43l-51 25q9 30 35.5 56.5t67.5 26.5q35 0 71.5 -23.5t55.5 -23.5q36 0 54 43l52 -26q-9 -30 -35.5 -56.5t-67.5 -26.5q-35 0 -72 24t-56 24zM512 86l32 -55q-8 -14 -27.5 -27.5t-45.5 -13.5q-39 0 -62.5 20t-28.5 55q-64 -75 -170 -75
q-73 0 -120.5 36t-47.5 104q0 75 60 116t167 49l95 8v12q0 57 -27 91t-78 34q-50 0 -77 -29t-33 -69h-84q6 73 58 120.5t135 47.5q86 0 138.5 -52.5t52.5 -145.5v-194q0 -54 32 -54q16 0 31 22zM220 63q58 0 101 36t43 103v35l-83 -6q-72 -6 -111 -31t-39 -65
q0 -36 25.5 -54t63.5 -18z" />
    <glyph glyph-name="a.ss02" horiz-adv-x="587" 
d="M432 500h87v-500h-65l-15 71h-10q-56 -81 -158 -81q-99 0 -164 72.5t-65 187.5t66 187.5t166 72.5q114 0 158 -85v75zM130 250q0 -79 43 -129.5t110 -50.5t108 50t41 130q0 81 -41 130.5t-108 49.5q-68 0 -110.5 -50.5t-42.5 -129.5z" />
    <glyph glyph-name="aacute.ss02" horiz-adv-x="587" 
d="M312 687h102l-99 -132h-62zM432 500h87v-500h-65l-15 71h-10q-56 -81 -158 -81q-99 0 -164 72.5t-65 187.5t66 187.5t166 72.5q114 0 158 -85v75zM130 250q0 -79 43 -129.5t110 -50.5t108 50t41 130q0 81 -41 130.5t-108 49.5q-68 0 -110.5 -50.5t-42.5 -129.5z" />
    <glyph glyph-name="abreve.ss02" horiz-adv-x="587" 
d="M416 690q0 -47 -36 -83t-94 -36t-94.5 36t-36.5 83h68q0 -28 17 -45.5t46 -17.5t45 17.5t16 45.5h69zM432 500h87v-500h-65l-15 71h-10q-56 -81 -158 -81q-99 0 -164 72.5t-65 187.5t66 187.5t166 72.5q114 0 158 -85v75zM130 250q0 -79 43 -129.5t110 -50.5t108 50
t41 130q0 81 -41 130.5t-108 49.5q-68 0 -110.5 -50.5t-42.5 -129.5z" />
    <glyph glyph-name="uni01CE.ss02" horiz-adv-x="587" 
d="M350 700h83l-109 -141h-76l-110 141h83l61 -84h8zM432 500h87v-500h-65l-15 71h-10q-56 -81 -158 -81q-99 0 -164 72.5t-65 187.5t66 187.5t166 72.5q114 0 158 -85v75zM130 250q0 -79 43 -129.5t110 -50.5t108 50t41 130q0 81 -41 130.5t-108 49.5q-68 0 -110.5 -50.5
t-42.5 -129.5z" />
    <glyph glyph-name="acircumflex.ss02" horiz-adv-x="587" 
d="M221 559h-83l109 141h76l110 -141h-83l-61 84h-8zM432 500h87v-500h-65l-15 71h-10q-56 -81 -158 -81q-99 0 -164 72.5t-65 187.5t66 187.5t166 72.5q114 0 158 -85v75zM130 250q0 -79 43 -129.5t110 -50.5t108 50t41 130q0 81 -41 130.5t-108 49.5q-68 0 -110.5 -50.5
t-42.5 -129.5z" />
    <glyph glyph-name="adieresis.ss02" horiz-adv-x="587" 
d="M195 558q-23 0 -39.5 16.5t-16.5 38.5q0 23 16.5 39t39.5 16t39 -16t16 -39t-16 -39t-39 -16zM378 558q-22 0 -38.5 16t-16.5 39t16 39t39 16t38.5 -16t15.5 -39t-16 -39t-38 -16zM432 500h87v-500h-65l-15 71h-10q-56 -81 -158 -81q-99 0 -164 72.5t-65 187.5t66 187.5
t166 72.5q114 0 158 -85v75zM130 250q0 -79 43 -129.5t110 -50.5t108 50t41 130q0 81 -41 130.5t-108 49.5q-68 0 -110.5 -50.5t-42.5 -129.5z" />
    <glyph glyph-name="uni0227.ss02" horiz-adv-x="587" 
d="M286 578q-25 0 -43 17.5t-18 42.5t18 42.5t43 17.5t42.5 -17.5t17.5 -42.5t-17.5 -42.5t-42.5 -17.5zM432 500h87v-500h-65l-15 71h-10q-56 -81 -158 -81q-99 0 -164 72.5t-65 187.5t66 187.5t166 72.5q114 0 158 -85v75zM130 250q0 -79 43 -129.5t110 -50.5t108 50
t41 130q0 81 -41 130.5t-108 49.5q-68 0 -110.5 -50.5t-42.5 -129.5z" />
    <glyph glyph-name="uni1EA1.ss02" horiz-adv-x="587" 
d="M432 500h87v-500h-65l-15 71h-10q-56 -81 -158 -81q-99 0 -164 72.5t-65 187.5t66 187.5t166 72.5q114 0 158 -85v75zM130 250q0 -79 43 -129.5t110 -50.5t108 50t41 130q0 81 -41 130.5t-108 49.5q-68 0 -110.5 -50.5t-42.5 -129.5zM285 -197q-25 0 -43 17.5t-18 42.5
t18 42.5t43 17.5t42.5 -17.5t17.5 -42.5t-17.5 -42.5t-42.5 -17.5z" />
    <glyph glyph-name="agrave.ss02" horiz-adv-x="587" 
d="M259 687l59 -132h-62l-99 132h102zM432 500h87v-500h-65l-15 71h-10q-56 -81 -158 -81q-99 0 -164 72.5t-65 187.5t66 187.5t166 72.5q114 0 158 -85v75zM130 250q0 -79 43 -129.5t110 -50.5t108 50t41 130q0 81 -41 130.5t-108 49.5q-68 0 -110.5 -50.5t-42.5 -129.5z
" />
    <glyph glyph-name="amacron.ss02" horiz-adv-x="587" 
d="M136 645h301v-64h-301v64zM432 500h87v-500h-65l-15 71h-10q-56 -81 -158 -81q-99 0 -164 72.5t-65 187.5t66 187.5t166 72.5q114 0 158 -85v75zM130 250q0 -79 43 -129.5t110 -50.5t108 50t41 130q0 81 -41 130.5t-108 49.5q-68 0 -110.5 -50.5t-42.5 -129.5z" />
    <glyph glyph-name="aogonek.ss02" horiz-adv-x="587" 
d="M448 -75q0 -26 19 -39t43 -12t44 12v-55q-17 -13 -55 -13q-45 0 -77 25.5t-32 70.5q0 55 64 88l-15 69h-10q-56 -81 -158 -81q-99 0 -164 72.5t-65 187.5t66 187.5t166 72.5q114 0 158 -85v75h87v-500q-31 -10 -51 -31t-20 -44zM283 70q67 0 108 50t41 130
q0 81 -41 130.5t-108 49.5q-68 0 -110.5 -50.5t-42.5 -129.5t43 -129.5t110 -50.5z" />
    <glyph glyph-name="aring.ss02" horiz-adv-x="587" 
d="M286 541q-40 0 -68 28t-28 67t28 67t68 28q39 0 67.5 -28t28.5 -67t-28.5 -67t-67.5 -28zM287 593q17 0 29 12.5t12 30.5q0 17 -12.5 29.5t-28.5 12.5q-18 0 -30.5 -12.5t-12.5 -29.5q0 -18 12 -30.5t31 -12.5zM432 500h87v-500h-65l-15 71h-10q-56 -81 -158 -81
q-99 0 -164 72.5t-65 187.5t66 187.5t166 72.5q114 0 158 -85v75zM130 250q0 -79 43 -129.5t110 -50.5t108 50t41 130q0 81 -41 130.5t-108 49.5q-68 0 -110.5 -50.5t-42.5 -129.5z" />
    <glyph glyph-name="atilde.ss02" horiz-adv-x="587" 
d="M454 640q-9 -30 -35.5 -56.5t-67.5 -26.5q-35 0 -72 24t-56 24q-31 0 -54 -43l-51 25q9 30 35.5 56.5t67.5 26.5q35 0 71.5 -23.5t55.5 -23.5q36 0 54 43zM432 500h87v-500h-65l-15 71h-10q-56 -81 -158 -81q-99 0 -164 72.5t-65 187.5t66 187.5t166 72.5q114 0 158 -85
v75zM130 250q0 -79 43 -129.5t110 -50.5t108 50t41 130q0 81 -41 130.5t-108 49.5q-68 0 -110.5 -50.5t-42.5 -129.5z" />
    <glyph glyph-name="a.fina.ss02" horiz-adv-x="598" 
d="M585 93l39 -47q-8 -24 -30 -40t-53 -16q-44 0 -69 23t-28 66h-8q-60 -89 -166 -89q-98 0 -163 72.5t-65 187.5t66 187.5t166 72.5q112 0 158 -81v71h87v-307h1v-75q0 -54 33 -54q21 0 32 29zM283 70q67 0 108 50t41 130q0 81 -41 130.5t-108 49.5q-68 0 -110.5 -50.5
t-42.5 -129.5t42.5 -129.5t110.5 -50.5z" />
    <glyph glyph-name="aacute.fina.ss02" horiz-adv-x="598" 
d="M414 687l-99 -132h-62l59 132h102zM585 93l39 -47q-8 -24 -30 -40t-53 -16q-44 0 -69 23t-28 66h-8q-60 -89 -166 -89q-98 0 -163 72.5t-65 187.5t66 187.5t166 72.5q112 0 158 -81v71h87v-307h1v-75q0 -54 33 -54q21 0 32 29zM283 70q67 0 108 50t41 130q0 81 -41 130.5
t-108 49.5q-68 0 -110.5 -50.5t-42.5 -129.5t42.5 -129.5t110.5 -50.5z" />
    <glyph glyph-name="abreve.fina.ss02" horiz-adv-x="598" 
d="M286 571q-58 0 -94.5 36t-36.5 83h68q0 -28 17 -45.5t46 -17.5t45 17.5t16 45.5h69q0 -47 -36 -83t-94 -36zM585 93l39 -47q-8 -24 -30 -40t-53 -16q-44 0 -69 23t-28 66h-8q-60 -89 -166 -89q-98 0 -163 72.5t-65 187.5t66 187.5t166 72.5q112 0 158 -81v71h87v-307h1
v-75q0 -54 33 -54q21 0 32 29zM283 70q67 0 108 50t41 130q0 81 -41 130.5t-108 49.5q-68 0 -110.5 -50.5t-42.5 -129.5t42.5 -129.5t110.5 -50.5z" />
    <glyph glyph-name="uni01CE.fina.ss02" horiz-adv-x="598" 
d="M324 559h-76l-110 141h83l61 -84h8l60 84h83zM585 93l39 -47q-8 -24 -30 -40t-53 -16q-44 0 -69 23t-28 66h-8q-60 -89 -166 -89q-98 0 -163 72.5t-65 187.5t66 187.5t166 72.5q112 0 158 -81v71h87v-307h1v-75q0 -54 33 -54q21 0 32 29zM283 70q67 0 108 50t41 130
q0 81 -41 130.5t-108 49.5q-68 0 -110.5 -50.5t-42.5 -129.5t42.5 -129.5t110.5 -50.5z" />
    <glyph glyph-name="acircumflex.fina.ss02" horiz-adv-x="598" 
d="M281 643l-60 -84h-83l109 141h76l110 -141h-83l-61 84h-8zM585 93l39 -47q-8 -24 -30 -40t-53 -16q-44 0 -69 23t-28 66h-8q-60 -89 -166 -89q-98 0 -163 72.5t-65 187.5t66 187.5t166 72.5q112 0 158 -81v71h87v-307h1v-75q0 -54 33 -54q21 0 32 29zM283 70q67 0 108 50
t41 130q0 81 -41 130.5t-108 49.5q-68 0 -110.5 -50.5t-42.5 -129.5t42.5 -129.5t110.5 -50.5z" />
    <glyph glyph-name="adieresis.fina.ss02" horiz-adv-x="598" 
d="M195 558q-23 0 -39.5 16.5t-16.5 38.5q0 23 16.5 39t39.5 16t39 -16t16 -39t-16 -39t-39 -16zM378 558q-22 0 -38.5 16t-16.5 39t16 39t39 16t38.5 -16t15.5 -39t-16 -39t-38 -16zM585 93l39 -47q-8 -24 -30 -40t-53 -16q-44 0 -69 23t-28 66h-8q-60 -89 -166 -89
q-98 0 -163 72.5t-65 187.5t66 187.5t166 72.5q112 0 158 -81v71h87v-307h1v-75q0 -54 33 -54q21 0 32 29zM283 70q67 0 108 50t41 130q0 81 -41 130.5t-108 49.5q-68 0 -110.5 -50.5t-42.5 -129.5t42.5 -129.5t110.5 -50.5z" />
    <glyph glyph-name="uni0227.fina.ss02" horiz-adv-x="598" 
d="M286 578q-25 0 -43 17.5t-18 42.5t18 42.5t43 17.5t42.5 -17.5t17.5 -42.5t-17.5 -42.5t-42.5 -17.5zM585 93l39 -47q-8 -24 -30 -40t-53 -16q-44 0 -69 23t-28 66h-8q-60 -89 -166 -89q-98 0 -163 72.5t-65 187.5t66 187.5t166 72.5q112 0 158 -81v71h87v-307h1v-75
q0 -54 33 -54q21 0 32 29zM283 70q67 0 108 50t41 130q0 81 -41 130.5t-108 49.5q-68 0 -110.5 -50.5t-42.5 -129.5t42.5 -129.5t110.5 -50.5z" />
    <glyph glyph-name="uni1EA1.fina.ss02" horiz-adv-x="598" 
d="M585 93l39 -47q-8 -24 -30 -40t-53 -16q-44 0 -69 23t-28 66h-8q-60 -89 -166 -89q-98 0 -163 72.5t-65 187.5t66 187.5t166 72.5q112 0 158 -81v71h87v-307h1v-75q0 -54 33 -54q21 0 32 29zM283 70q67 0 108 50t41 130q0 81 -41 130.5t-108 49.5q-68 0 -110.5 -50.5
t-42.5 -129.5t42.5 -129.5t110.5 -50.5zM326 -77q25 0 42.5 -17.5t17.5 -42.5t-17.5 -42.5t-42.5 -17.5t-43 17.5t-18 42.5t18 42.5t43 17.5z" />
    <glyph glyph-name="agrave.fina.ss02" horiz-adv-x="598" 
d="M318 555h-62l-99 132h102zM585 93l39 -47q-8 -24 -30 -40t-53 -16q-44 0 -69 23t-28 66h-8q-60 -89 -166 -89q-98 0 -163 72.5t-65 187.5t66 187.5t166 72.5q112 0 158 -81v71h87v-307h1v-75q0 -54 33 -54q21 0 32 29zM283 70q67 0 108 50t41 130q0 81 -41 130.5
t-108 49.5q-68 0 -110.5 -50.5t-42.5 -129.5t42.5 -129.5t110.5 -50.5z" />
    <glyph glyph-name="amacron.fina.ss02" horiz-adv-x="598" 
d="M437 645v-64h-301v64h301zM585 93l39 -47q-8 -24 -30 -40t-53 -16q-44 0 -69 23t-28 66h-8q-60 -89 -166 -89q-98 0 -163 72.5t-65 187.5t66 187.5t166 72.5q112 0 158 -81v71h87v-307h1v-75q0 -54 33 -54q21 0 32 29zM283 70q67 0 108 50t41 130q0 81 -41 130.5
t-108 49.5q-68 0 -110.5 -50.5t-42.5 -129.5t42.5 -129.5t110.5 -50.5z" />
    <glyph glyph-name="aogonek.fina.ss02" horiz-adv-x="607" 
d="M514 -75q0 -26 19 -39t43.5 -12t44.5 12v-55q-17 -13 -56 -13q-45 0 -77 25.5t-32 70.5q0 49 51 80q-56 14 -62 85h-9q-60 -89 -166 -89q-98 0 -163 72.5t-65 187.5t66 187.5t166 72.5q112 0 158 -81v71h87v-382q0 -54 34 -54q20 0 31 29l39 -47q-9 -31 -57 -53
q-52 -23 -52 -68zM283 70q67 0 108 50t41 130q0 81 -41 130.5t-108 49.5q-68 0 -110.5 -50.5t-42.5 -129.5t42.5 -129.5t110.5 -50.5z" />
    <glyph glyph-name="aring.fina.ss02" horiz-adv-x="598" 
d="M286 541q-40 0 -68 28t-28 67t28 67t68 28q39 0 67.5 -28t28.5 -67t-28.5 -67t-67.5 -28zM287 678q-18 0 -30.5 -12.5t-12.5 -29.5q0 -18 12 -30.5t31 -12.5q17 0 29 12.5t12 30.5q0 17 -12.5 29.5t-28.5 12.5zM585 93l39 -47q-8 -24 -30 -40t-53 -16q-44 0 -69 23
t-28 66h-8q-60 -89 -166 -89q-98 0 -163 72.5t-65 187.5t66 187.5t166 72.5q112 0 158 -81v71h87v-307h1v-75q0 -54 33 -54q21 0 32 29zM283 70q67 0 108 50t41 130q0 81 -41 130.5t-108 49.5q-68 0 -110.5 -50.5t-42.5 -129.5t42.5 -129.5t110.5 -50.5z" />
    <glyph glyph-name="atilde.fina.ss02" horiz-adv-x="598" 
d="M223 605q-31 0 -54 -43l-51 25q9 30 35.5 56.5t67.5 26.5q35 0 71.5 -23.5t55.5 -23.5q36 0 54 43l52 -26q-9 -30 -35.5 -56.5t-67.5 -26.5q-35 0 -72 24t-56 24zM585 93l39 -47q-8 -24 -30 -40t-53 -16q-44 0 -69 23t-28 66h-8q-60 -89 -166 -89q-98 0 -163 72.5
t-65 187.5t66 187.5t166 72.5q112 0 158 -81v71h87v-307h1v-75q0 -54 33 -54q21 0 32 29zM283 70q67 0 108 50t41 130q0 81 -41 130.5t-108 49.5q-68 0 -110.5 -50.5t-42.5 -129.5t42.5 -129.5t110.5 -50.5z" />
    <glyph glyph-name="g.ss02" horiz-adv-x="587" 
d="M520 500v-176l-1 1v-303q0 -117 -68.5 -175t-166.5 -58q-100 0 -161.5 47.5t-68.5 128.5h88q7 -45 45 -72t99 -27q57 0 101.5 37.5t44.5 115.5v51q-46 -81 -158 -81q-100 0 -166 72.5t-66 187.5t65 187.5t163 72.5q100 0 160 -80h10l15 71h65zM283 69q67 0 108 49.5
t41 130.5q0 80 -41 130t-108 50q-68 0 -110.5 -50.5t-42.5 -129.5t42.5 -129.5t110.5 -50.5z" />
    <glyph glyph-name="uni01F5.ss02" horiz-adv-x="587" 
d="M414 687l-99 -132h-62l59 132h102zM520 500v-176l-1 1v-303q0 -117 -68.5 -175t-166.5 -58q-100 0 -161.5 47.5t-68.5 128.5h88q7 -45 45 -72t99 -27q57 0 101.5 37.5t44.5 115.5v51q-46 -81 -158 -81q-100 0 -166 72.5t-66 187.5t65 187.5t163 72.5q100 0 160 -80h10
l15 71h65zM283 69q67 0 108 49.5t41 130.5q0 80 -41 130t-108 50q-68 0 -110.5 -50.5t-42.5 -129.5t42.5 -129.5t110.5 -50.5z" />
    <glyph glyph-name="gbreve.ss02" horiz-adv-x="587" 
d="M286 571q-58 0 -94.5 36t-36.5 83h68q0 -28 17 -45.5t46 -17.5t45 17.5t16 45.5h69q0 -47 -36 -83t-94 -36zM520 500v-176l-1 1v-303q0 -117 -68.5 -175t-166.5 -58q-100 0 -161.5 47.5t-68.5 128.5h88q7 -45 45 -72t99 -27q57 0 101.5 37.5t44.5 115.5v51
q-46 -81 -158 -81q-100 0 -166 72.5t-66 187.5t65 187.5t163 72.5q100 0 160 -80h10l15 71h65zM283 69q67 0 108 49.5t41 130.5q0 80 -41 130t-108 50q-68 0 -110.5 -50.5t-42.5 -129.5t42.5 -129.5t110.5 -50.5z" />
    <glyph glyph-name="gcaron.ss02" horiz-adv-x="587" 
d="M324 559h-76l-110 141h83l61 -84h8l60 84h83zM520 500v-176l-1 1v-303q0 -117 -68.5 -175t-166.5 -58q-100 0 -161.5 47.5t-68.5 128.5h88q7 -45 45 -72t99 -27q57 0 101.5 37.5t44.5 115.5v51q-46 -81 -158 -81q-100 0 -166 72.5t-66 187.5t65 187.5t163 72.5
q100 0 160 -80h10l15 71h65zM283 69q67 0 108 49.5t41 130.5q0 80 -41 130t-108 50q-68 0 -110.5 -50.5t-42.5 -129.5t42.5 -129.5t110.5 -50.5z" />
    <glyph glyph-name="gcircumflex.ss02" horiz-adv-x="587" 
d="M281 643l-60 -84h-83l109 141h76l110 -141h-83l-61 84h-8zM520 500v-176l-1 1v-303q0 -117 -68.5 -175t-166.5 -58q-100 0 -161.5 47.5t-68.5 128.5h88q7 -45 45 -72t99 -27q57 0 101.5 37.5t44.5 115.5v51q-46 -81 -158 -81q-100 0 -166 72.5t-66 187.5t65 187.5
t163 72.5q100 0 160 -80h10l15 71h65zM283 69q67 0 108 49.5t41 130.5q0 80 -41 130t-108 50q-68 0 -110.5 -50.5t-42.5 -129.5t42.5 -129.5t110.5 -50.5z" />
    <glyph glyph-name="gcommaaccent.ss02" horiz-adv-x="587" 
d="M286 559q-30 0 -46.5 22t-16.5 58q0 54 29.5 94t69.5 60l21 -27q-56 -43 -57 -89q25 3 43 -13t18 -44q0 -27 -17 -44t-44 -17zM520 500v-176l-1 1v-303q0 -117 -68.5 -175t-166.5 -58q-100 0 -161.5 47.5t-68.5 128.5h88q7 -45 45 -72t99 -27q57 0 101.5 37.5t44.5 115.5
v51q-46 -81 -158 -81q-100 0 -166 72.5t-66 187.5t65 187.5t163 72.5q100 0 160 -80h10l15 71h65zM283 69q67 0 108 49.5t41 130.5q0 80 -41 130t-108 50q-68 0 -110.5 -50.5t-42.5 -129.5t42.5 -129.5t110.5 -50.5z" />
    <glyph glyph-name="gdotaccent.ss02" horiz-adv-x="587" 
d="M286 578q-25 0 -43 17.5t-18 42.5t18 42.5t43 17.5t42.5 -17.5t17.5 -42.5t-17.5 -42.5t-42.5 -17.5zM520 500v-176l-1 1v-303q0 -117 -68.5 -175t-166.5 -58q-100 0 -161.5 47.5t-68.5 128.5h88q7 -45 45 -72t99 -27q57 0 101.5 37.5t44.5 115.5v51q-46 -81 -158 -81
q-100 0 -166 72.5t-66 187.5t65 187.5t163 72.5q100 0 160 -80h10l15 71h65zM283 69q67 0 108 49.5t41 130.5q0 80 -41 130t-108 50q-68 0 -110.5 -50.5t-42.5 -129.5t42.5 -129.5t110.5 -50.5z" />
    <glyph glyph-name="y.ss02" horiz-adv-x="574" 
d="M414 500h92v-496q0 -108 -59.5 -161t-160.5 -53q-92 0 -151.5 47t-66.5 122h87q23 -92 134 -92q58 0 94.5 32t36.5 106v58h-5q-49 -73 -156 -73q-81 0 -133.5 55t-52.5 156v299h91v-282q0 -72 34.5 -109.5t90.5 -37.5q51 0 88 35.5t37 106.5v287z" />
    <glyph glyph-name="yacute.ss02" horiz-adv-x="574" 
d="M314 687h102l-99 -132h-62zM414 500h92v-496q0 -108 -59.5 -161t-160.5 -53q-92 0 -151.5 47t-66.5 122h87q23 -92 134 -92q58 0 94.5 32t36.5 106v58h-5q-49 -73 -156 -73q-81 0 -133.5 55t-52.5 156v299h91v-282q0 -72 34.5 -109.5t90.5 -37.5q51 0 88 35.5t37 106.5
v287z" />
    <glyph glyph-name="ycircumflex.ss02" horiz-adv-x="574" 
d="M223 559h-83l109 141h76l110 -141h-83l-61 84h-8zM414 500h92v-496q0 -108 -59.5 -161t-160.5 -53q-92 0 -151.5 47t-66.5 122h87q23 -92 134 -92q58 0 94.5 32t36.5 106v58h-5q-49 -73 -156 -73q-81 0 -133.5 55t-52.5 156v299h91v-282q0 -72 34.5 -109.5t90.5 -37.5
q51 0 88 35.5t37 106.5v287z" />
    <glyph glyph-name="ydieresis.ss02" horiz-adv-x="574" 
d="M197 558q-23 0 -39.5 16.5t-16.5 38.5q0 23 16.5 39t39.5 16t39 -16t16 -39t-16 -39t-39 -16zM380 558q-22 0 -38.5 16t-16.5 39t16 39t39 16t38.5 -16t15.5 -39t-16 -39t-38 -16zM414 500h92v-496q0 -108 -59.5 -161t-160.5 -53q-92 0 -151.5 47t-66.5 122h87
q23 -92 134 -92q58 0 94.5 32t36.5 106v58h-5q-49 -73 -156 -73q-81 0 -133.5 55t-52.5 156v299h91v-282q0 -72 34.5 -109.5t90.5 -37.5q51 0 88 35.5t37 106.5v287z" />
    <glyph glyph-name="ygrave.ss02" horiz-adv-x="574" 
d="M261 687l59 -132h-62l-99 132h102zM414 500h92v-496q0 -108 -59.5 -161t-160.5 -53q-92 0 -151.5 47t-66.5 122h87q23 -92 134 -92q58 0 94.5 32t36.5 106v58h-5q-49 -73 -156 -73q-81 0 -133.5 55t-52.5 156v299h91v-282q0 -72 34.5 -109.5t90.5 -37.5q51 0 88 35.5
t37 106.5v287z" />
    <glyph glyph-name="uni0233.ss02" horiz-adv-x="574" 
d="M138 645h301v-64h-301v64zM414 500h92v-496q0 -108 -59.5 -161t-160.5 -53q-92 0 -151.5 47t-66.5 122h87q23 -92 134 -92q58 0 94.5 32t36.5 106v58h-5q-49 -73 -156 -73q-81 0 -133.5 55t-52.5 156v299h91v-282q0 -72 34.5 -109.5t90.5 -37.5q51 0 88 35.5t37 106.5
v287z" />
    <glyph glyph-name="uni1E99.ss02" horiz-adv-x="574" 
d="M288 541q-40 0 -68 28t-28 67t28 67t68 28q39 0 67.5 -28t28.5 -67t-28.5 -67t-67.5 -28zM289 593q17 0 29 12.5t12 30.5q0 17 -12.5 29.5t-28.5 12.5q-18 0 -30.5 -12.5t-12.5 -29.5q0 -18 12 -30.5t31 -12.5zM414 500h92v-496q0 -108 -59.5 -161t-160.5 -53
q-92 0 -151.5 47t-66.5 122h87q23 -92 134 -92q58 0 94.5 32t36.5 106v58h-5q-49 -73 -156 -73q-81 0 -133.5 55t-52.5 156v299h91v-282q0 -72 34.5 -109.5t90.5 -37.5q51 0 88 35.5t37 106.5v287z" />
    <glyph glyph-name="uni1EF9.ss02" horiz-adv-x="574" 
d="M456 640q-9 -30 -35.5 -56.5t-67.5 -26.5q-35 0 -72 24t-56 24q-31 0 -54 -43l-51 25q9 30 35.5 56.5t67.5 26.5q35 0 71.5 -23.5t55.5 -23.5q36 0 54 43zM414 500h92v-496q0 -108 -59.5 -161t-160.5 -53q-92 0 -151.5 47t-66.5 122h87q23 -92 134 -92q58 0 94.5 32
t36.5 106v58h-5q-49 -73 -156 -73q-81 0 -133.5 55t-52.5 156v299h91v-282q0 -72 34.5 -109.5t90.5 -37.5q51 0 88 35.5t37 106.5v287z" />
    <glyph glyph-name="f_f_l" horiz-adv-x="823" 
d="M665 710h90v-710h-90v427h-182v-427h-85v427h-189v-427h-88v427h-89v73h89v72q0 65 36 101.5t94 36.5q65 0 101 -36l-31 -67q-25 25 -58 25q-26 0 -40 -18t-14 -51v-63h189v81q0 59 34 94t95 35q37 0 69 -17l-22 -70q-18 11 -38 11q-53 0 -53 -61v-73h182v210z" />
    <glyph glyph-name="f_t" horiz-adv-x="668" 
d="M635 427h-119v-295q0 -63 50 -63q24 0 44 14l23 -70q-36 -23 -82 -23q-123 0 -123 134v303h-219v-427h-88v427h-89v73h89v72q0 65 36 101.5t94 36.5q65 0 101 -36l-31 -67q-25 25 -58 25q-26 0 -40 -18t-14 -51v-63h150q78 0 78 71v55h79v-126h119v-73z" />
    <glyph glyph-name="t_t" horiz-adv-x="660" 
d="M627 427h-119v-295q0 -63 50 -63q24 0 44 14l23 -70q-36 -23 -82 -23q-123 0 -123 134v303h-203v-295q0 -63 50 -63q24 0 44 14l23 -70q-36 -23 -82 -23q-123 0 -123 134v303h-97v65h29q77 0 77 70v64h79v-126h134q78 0 78 71v55h79v-126h119v-73z" />
    <glyph glyph-name="uni2780.ss01" 
d="M416 -10q-149 0 -254.5 105.5t-105.5 254.5t105.5 254.5t254.5 105.5t255 -105.5t106 -254.5t-106 -254.5t-255 -105.5zM416 24q135 0 230 95.5t95 230.5t-95 230.5t-230 95.5q-134 0 -228.5 -95.5t-94.5 -230.5t94.5 -230.5t228.5 -95.5zM398 155v260h-90v54h48
q45 0 45 45v26h60v-385h-63z" />
    <glyph glyph-name="uni2781.ss01" 
d="M416 -10q-149 0 -254.5 105.5t-105.5 254.5t105.5 254.5t254.5 105.5t255 -105.5t106 -254.5t-106 -254.5t-255 -105.5zM416 24q135 0 230 95.5t95 230.5t-95 230.5t-230 95.5q-134 0 -228.5 -95.5t-94.5 -230.5t94.5 -230.5t228.5 -95.5zM447 325q-94 -50 -96 -103h196
v-54h-264v24q0 101 103 161q7 4 19.5 11t18.5 10t15.5 9t14 9.5t11 8.5t9.5 9.5t6.5 10t4.5 11t1 12.5q0 25 -17 41.5t-47 16.5q-36 0 -54.5 -22.5t-20.5 -53.5h-63q0 51 36 91.5t105 40.5q53 0 89 -30.5t36 -78.5q0 -24 -8 -43t-25.5 -34.5t-31.5 -24.5t-38 -22z" />
    <glyph glyph-name="uni2782.ss01" 
d="M416 -10q-149 0 -254.5 105.5t-105.5 254.5t105.5 254.5t254.5 105.5t255 -105.5t106 -254.5t-106 -254.5t-255 -105.5zM416 24q135 0 230 95.5t95 230.5t-95 230.5t-230 95.5q-134 0 -228.5 -95.5t-94.5 -230.5t94.5 -230.5t228.5 -95.5zM485 361q32 -9 52.5 -35
t20.5 -60q0 -50 -37.5 -82t-106.5 -32q-67 0 -102.5 34.5t-39.5 88.5h60q3 -30 24.5 -50.5t59.5 -20.5q35 0 57.5 18t22.5 47q0 30 -23 48t-64 18h-19v52h21q32 0 51.5 15t19.5 39t-18 39t-47 15t-47.5 -15t-21.5 -40h-61q0 47 37.5 77.5t93.5 30.5q54 0 89.5 -28.5
t35.5 -70.5q0 -52 -58 -84v-4z" />
    <glyph glyph-name="uni2783.ss01" 
d="M416 -10q-149 0 -254.5 105.5t-105.5 254.5t105.5 254.5t254.5 105.5t255 -105.5t106 -254.5t-106 -254.5t-255 -105.5zM416 24q135 0 230 95.5t95 230.5t-95 230.5t-230 95.5q-134 0 -228.5 -95.5t-94.5 -230.5t94.5 -230.5t228.5 -95.5zM557 290v-52h-64v-81h-56v81
h-193v35l165 269h84v-252h64zM314 290h123v186h-6z" />
    <glyph glyph-name="uni2784.ss01" 
d="M416 -10q-149 0 -254.5 105.5t-105.5 254.5t105.5 254.5t254.5 105.5t255 -105.5t106 -254.5t-106 -254.5t-255 -105.5zM416 24q135 0 230 95.5t95 230.5t-95 230.5t-230 95.5q-134 0 -228.5 -95.5t-94.5 -230.5t94.5 -230.5t228.5 -95.5zM426 410q61 0 97.5 -37
t36.5 -95q0 -57 -39.5 -92t-102.5 -35q-68 0 -104.5 36.5t-36.5 85.5h59q2 -32 25 -51.5t57 -19.5q36 0 59 22t23 55q0 35 -22 59t-60 24q-50 0 -78 -41l-56 15l22 205h234v-54h-184l-12 -103q32 26 82 26z" />
    <glyph glyph-name="uni2785.ss01" 
d="M416 -10q-149 0 -254.5 105.5t-105.5 254.5t105.5 254.5t254.5 105.5t255 -105.5t106 -254.5t-106 -254.5t-255 -105.5zM416 24q135 0 230 95.5t95 230.5t-95 230.5t-230 95.5q-134 0 -228.5 -95.5t-94.5 -230.5t94.5 -230.5t228.5 -95.5zM427 411q58 0 94.5 -35
t36.5 -89q0 -56 -40.5 -91.5t-105.5 -35.5q-64 0 -104 36t-40 99q0 49 54 126l90 129h73l-116 -152q26 13 58 13zM414 210q40 0 63.5 22t23.5 54t-23.5 53.5t-63.5 21.5q-41 0 -64.5 -21.5t-23.5 -53.5t23.5 -54t64.5 -22z" />
    <glyph glyph-name="uni2786.ss01" 
d="M416 -10q-149 0 -254.5 105.5t-105.5 254.5t105.5 254.5t254.5 105.5t255 -105.5t106 -254.5t-106 -254.5t-255 -105.5zM416 24q135 0 230 95.5t95 230.5t-95 230.5t-230 95.5q-134 0 -228.5 -95.5t-94.5 -230.5t94.5 -230.5t228.5 -95.5zM292 529h274v-42
q-152 -128 -159 -343h-61q5 114 43 199.5t91 132.5h-188v53z" />
    <glyph glyph-name="uni2787.ss01" 
d="M416 -10q-149 0 -254.5 105.5t-105.5 254.5t105.5 254.5t254.5 105.5t255 -105.5t106 -254.5t-106 -254.5t-255 -105.5zM416 24q135 0 230 95.5t95 230.5t-95 230.5t-230 95.5q-134 0 -228.5 -95.5t-94.5 -230.5t94.5 -230.5t228.5 -95.5zM489 367q35 -9 58.5 -36
t23.5 -62q0 -55 -43 -84.5t-112 -29.5t-111 29.5t-42 83.5q0 37 23.5 63t58.5 36v4q-28 10 -44.5 30.5t-16.5 46.5q0 45 37 73.5t96 28.5t96.5 -28.5t37.5 -71.5q0 -27 -17.5 -48t-44.5 -31v-4zM416 503q-32 0 -53 -14.5t-21 -40.5q0 -28 22.5 -43.5t51.5 -15.5q30 0 53 16
t23 43q0 26 -21.5 40.5t-54.5 14.5zM415 203q43 0 67.5 17t24.5 48q0 29 -23.5 50.5t-67.5 21.5t-66.5 -21.5t-22.5 -50.5q0 -31 23 -48t65 -17z" />
    <glyph glyph-name="uni2788.ss01" 
d="M416 -10q-149 0 -254.5 105.5t-105.5 254.5t105.5 254.5t254.5 105.5t255 -105.5t106 -254.5t-106 -254.5t-255 -105.5zM416 24q135 0 230 95.5t95 230.5t-95 230.5t-230 95.5q-134 0 -228.5 -95.5t-94.5 -230.5t94.5 -230.5t228.5 -95.5zM399 291q-58 0 -94.5 35
t-36.5 89q0 56 40.5 91.5t105.5 35.5q64 0 104 -36t40 -99q0 -49 -54 -126l-90 -129h-73l116 152q-26 -13 -58 -13zM412 492q-40 0 -63.5 -22t-23.5 -54t23.5 -53.5t63.5 -21.5q41 0 64.5 21.5t23.5 53.5t-23.5 54t-64.5 22z" />
    <glyph glyph-name="uni2789.ss01" 
d="M416 -10q-149 0 -254.5 105.5t-105.5 254.5t105.5 254.5t254.5 105.5t255 -105.5t106 -254.5t-106 -254.5t-255 -105.5zM416 24q135 0 230 95.5t95 230.5t-95 230.5t-230 95.5q-134 0 -228.5 -95.5t-94.5 -230.5t94.5 -230.5t228.5 -95.5zM503 190q-53 0 -87.5 41.5
t-34.5 115.5q0 73 34.5 115t87.5 42t87.5 -42t34.5 -116q0 -73 -34.5 -114.5t-87.5 -41.5zM280 193v205h-71v46h39q36 0 36 36v21h52v-308h-56zM503 241q31 0 48.5 28t17.5 77q0 48 -17.5 76t-48.5 28t-49 -28t-18 -76t18 -76.5t49 -28.5z" />
    <glyph glyph-name="zero.case" horiz-adv-x="625" 
d="M313 -10q-117 0 -187 91.5t-70 268.5q0 175 70.5 267.5t186.5 92.5q117 0 186.5 -92.5t69.5 -268.5q0 -178 -69.5 -268.5t-186.5 -90.5zM314 78q70 0 111 68.5t41 202.5t-41.5 203t-111.5 69q-69 0 -111 -69t-42 -203t42 -202.5t112 -68.5z" />
    <glyph glyph-name="one.case" horiz-adv-x="336" 
d="M168 0v513h-136v76h64q82 0 82 76v35h85v-700h-95z" />
    <glyph glyph-name="two.case" horiz-adv-x="569" 
d="M338 290q-162 -95 -168 -205h338v-85h-452v40q0 93 52 170.5t143 128.5q89 50 126.5 85.5t37.5 85.5q0 52 -33 84t-90 32q-69 0 -102 -45t-37 -109h-96q0 57 23.5 109.5t79 90.5t134.5 38q96 0 157.5 -54t61.5 -144q0 -74 -45.5 -124t-129.5 -98z" />
    <glyph glyph-name="three.case" horiz-adv-x="583" 
d="M406 369q56 -19 88 -65t32 -109q0 -92 -63 -148.5t-170 -56.5q-110 0 -170 58.5t-67 155.5h91q5 -55 41 -92t102 -37q62 0 101 34.5t39 92.5q0 55 -36.5 91t-104.5 36h-36v80h35q55 0 88 31t33 79q0 47 -31.5 77.5t-83.5 30.5t-84.5 -29t-36.5 -79h-91q0 84 63 137.5
t153 53.5q87 0 143.5 -51t56.5 -127q0 -106 -92 -156v-7z" />
    <glyph glyph-name="four.case" horiz-adv-x="598" 
d="M566 236v-80h-123v-156h-90v156h-321v62l294 482h117v-464h123zM137 236h216v350h-9z" />
    <glyph glyph-name="five.case" horiz-adv-x="586" 
d="M305 459q102 0 163.5 -65.5t61.5 -172.5q0 -103 -67 -167t-171 -64q-109 0 -170.5 62.5t-65.5 158.5h93q4 -63 41 -101t100 -38q64 0 105 41t41 108q0 70 -39.5 115t-103.5 45q-45 0 -84 -20.5t-60 -57.5l-82 23l38 374h390v-88h-308l-21 -202q51 49 139 49z" />
    <glyph glyph-name="six.case" horiz-adv-x="583" 
d="M321 441q79 0 142 -60.5t63 -161.5q0 -100 -65 -164.5t-169 -64.5q-106 0 -171 65.5t-65 172.5q0 57 22 108.5t67 122.5l150 241h111l-192 -287q34 21 66 26q18 2 41 2zM292 70q65 0 104.5 43.5t39.5 107.5q0 61 -39 103t-104 42t-104 -42t-39 -103q0 -63 39 -107
t103 -44z" />
    <glyph glyph-name="seven.case" horiz-adv-x="544" 
d="M56 700h456v-66q-258 -237 -275 -634h-96q15 374 232 611h-317v89z" />
    <glyph glyph-name="eight.case" horiz-adv-x="594" 
d="M406 375q57 -19 94 -68.5t37 -115.5q0 -91 -67 -146t-174 -55q-109 0 -174.5 54.5t-65.5 145.5q0 68 38.5 117.5t94.5 67.5v6q-42 17 -71 58.5t-29 90.5q0 79 61 129.5t147 50.5q87 0 147.5 -49.5t60.5 -130.5q0 -51 -28.5 -90.5t-70.5 -58.5v-6zM298 633
q-51 0 -84.5 -29t-33.5 -77q0 -50 35 -80.5t81 -30.5q47 0 82.5 30.5t35.5 81.5q0 47 -33 76t-83 29zM294 71q62 0 103.5 35t41.5 91q0 54 -39 93.5t-104 39.5q-66 0 -103.5 -39.5t-37.5 -94.5q0 -56 39.5 -90.5t99.5 -34.5z" />
    <glyph glyph-name="nine.case" horiz-adv-x="583" 
d="M271 259q-79 0 -142 60.5t-63 161.5q0 100 65 164.5t169 64.5q106 0 171 -65.5t65 -172.5q0 -57 -22 -108.5t-67 -122.5l-150 -241h-111l192 287q-34 -21 -66 -26q-18 -2 -41 -2zM300 630q-65 0 -104.5 -43.5t-39.5 -107.5q0 -61 39 -103t104 -42t104 42t39 103
q0 63 -39 107t-103 44z" />
    <glyph glyph-name="zero.case.zero" horiz-adv-x="625" 
d="M313 710q117 0 186.5 -92.5t69.5 -268.5q0 -178 -69.5 -268.5t-186.5 -90.5t-187 91.5t-70 268.5q0 175 70.5 267.5t186.5 92.5zM313 628q-72 0 -116 -70.5t-44 -208.5q0 -88 19 -151l241 383q-38 47 -100 47zM314 71q74 0 116.5 70t42.5 208q0 87 -19 152l-241 -383
q40 -47 101 -47z" />
    <glyph glyph-name="zero.lf" horiz-adv-x="586" 
d="M294 -10q-108 0 -173 84t-65 247q0 161 65 245.5t173 84.5t171.5 -84.5t63.5 -246.5q0 -163 -63.5 -246.5t-171.5 -83.5zM294 75q63 0 100 62t37 183t-37.5 183.5t-99.5 62.5q-63 0 -100 -62t-37 -184t37 -183.5t100 -61.5z" />
    <glyph glyph-name="one.lf" horiz-adv-x="323" 
d="M158 0v465h-126v73h59q77 0 77 71v31h81v-640h-91z" />
    <glyph glyph-name="two.lf" horiz-adv-x="534" 
d="M316 261q-141 -91 -148 -178h305v-83h-417v37q0 160 174 272q98 63 122 86q33 34 33 74q0 45 -30 73.5t-81 28.5q-61 0 -91.5 -40.5t-33.5 -97.5h-92q0 53 21.5 100.5t73 82.5t123.5 35q89 0 146 -49.5t57 -132.5q0 -67 -40.5 -111.5t-121.5 -96.5z" />
    <glyph glyph-name="three.lf" horiz-adv-x="547" 
d="M380 338q51 -17 80.5 -59t29.5 -99q0 -85 -58 -137.5t-157 -52.5q-102 0 -157.5 54.5t-61.5 143.5h87q4 -49 37 -82.5t92 -33.5q55 0 90 31t35 83q0 50 -33 82t-94 32h-33v77h33q50 0 79.5 28t29.5 71q0 42 -28 69t-75 27q-46 0 -75.5 -26.5t-32.5 -70.5h-88
q0 77 58 126.5t142 49.5q80 0 132.5 -47t52.5 -117q0 -96 -85 -142v-7z" />
    <glyph glyph-name="four.lf" horiz-adv-x="558" 
d="M526 219v-77h-113v-142h-86v142h-295v58l270 440h111v-421h113zM134 219h193v315h-9z" />
    <glyph glyph-name="five.lf" horiz-adv-x="550" 
d="M287 421q94 0 150.5 -60t56.5 -159q0 -94 -62 -153t-158 -59q-100 0 -157 57t-61 146h89q5 -56 38 -90t89 -34q58 0 94.5 36.5t36.5 97.5q0 62 -35.5 102.5t-92.5 40.5q-89 0 -129 -70l-79 23l34 341h361v-83h-282l-19 -180q48 44 126 44z" />
    <glyph glyph-name="six.lf" horiz-adv-x="547" 
d="M301 404q73 0 131 -55.5t58 -148.5q0 -92 -60.5 -151t-155.5 -59q-98 0 -158 60t-60 158q0 54 20.5 102t61.5 112l137 218h107l-176 -261q35 25 95 25zM274 67q58 0 93.5 39t35.5 96q0 56 -35 93.5t-93 37.5q-59 0 -94 -37.5t-35 -93.5t35.5 -95.5t92.5 -39.5z" />
    <glyph glyph-name="seven.lf" horiz-adv-x="508" 
d="M56 640h420v-63q-236 -220 -250 -577h-92q12 341 210 555h-288v85z" />
    <glyph glyph-name="eight.lf" horiz-adv-x="557" 
d="M380 344q53 -18 87 -63.5t34 -105.5q0 -83 -62.5 -134t-160.5 -51q-100 0 -161 50.5t-61 133.5q0 63 35.5 108.5t86.5 61.5v6q-39 15 -65 52.5t-26 82.5q0 73 56 119.5t135 46.5q80 0 136.5 -45.5t56.5 -119.5q0 -47 -26 -83t-65 -53v-6zM279 577q-46 0 -76 -25.5
t-30 -68.5q0 -45 31.5 -72.5t72.5 -27.5q42 0 74.5 27.5t32.5 72.5q0 43 -29.5 68.5t-75.5 25.5zM276 68q55 0 92.5 31t37.5 82q0 49 -35 84.5t-94 35.5q-58 0 -92 -36t-34 -85q0 -50 35.5 -81t89.5 -31z" />
    <glyph glyph-name="nine.lf" horiz-adv-x="547" 
d="M255 232q-73 0 -131 55.5t-58 148.5q0 92 60.5 151t155.5 59q98 0 158 -60t60 -158q0 -54 -20.5 -102t-61.5 -112l-137 -218h-107l176 261q-35 -25 -95 -25zM282 569q-58 0 -93.5 -39t-35.5 -96q0 -56 35 -93.5t93 -37.5q59 0 94 37.5t35 93.5t-35.5 95.5t-92.5 39.5z
" />
    <glyph glyph-name="zero.lf.case" horiz-adv-x="625" 
d="M313 -10q-117 0 -187 91.5t-70 268.5q0 175 70.5 267.5t186.5 92.5q117 0 186.5 -92.5t69.5 -268.5q0 -178 -69.5 -268.5t-186.5 -90.5zM314 78q70 0 111 68.5t41 202.5t-41.5 203t-111.5 69q-69 0 -111 -69t-42 -203t42 -202.5t112 -68.5z" />
    <glyph glyph-name="one.lf.case" horiz-adv-x="336" 
d="M168 0v513h-136v76h64q82 0 82 76v35h85v-700h-95z" />
    <glyph glyph-name="two.lf.case" horiz-adv-x="569" 
d="M338 290q-162 -95 -168 -205h338v-85h-452v40q0 93 52 170.5t143 128.5q89 50 126.5 85.5t37.5 85.5q0 52 -33 84t-90 32q-69 0 -102 -45t-37 -109h-96q0 57 23.5 109.5t79 90.5t134.5 38q96 0 157.5 -54t61.5 -144q0 -74 -45.5 -124t-129.5 -98z" />
    <glyph glyph-name="three.lf.case" horiz-adv-x="583" 
d="M406 369q56 -19 88 -65t32 -109q0 -92 -63 -148.5t-170 -56.5q-110 0 -170 58.5t-67 155.5h91q5 -55 41 -92t102 -37q62 0 101 34.5t39 92.5q0 55 -36.5 91t-104.5 36h-36v80h35q55 0 88 31t33 79q0 47 -31.5 77.5t-83.5 30.5t-84.5 -29t-36.5 -79h-91q0 84 63 137.5
t153 53.5q87 0 143.5 -51t56.5 -127q0 -106 -92 -156v-7z" />
    <glyph glyph-name="four.lf.case" horiz-adv-x="598" 
d="M566 236v-80h-123v-156h-90v156h-321v62l294 482h117v-464h123zM137 236h216v350h-9z" />
    <glyph glyph-name="five.lf.case" horiz-adv-x="586" 
d="M305 459q102 0 163.5 -65.5t61.5 -172.5q0 -103 -67 -167t-171 -64q-109 0 -170.5 62.5t-65.5 158.5h93q4 -63 41 -101t100 -38q64 0 105 41t41 108q0 70 -39.5 115t-103.5 45q-45 0 -84 -20.5t-60 -57.5l-82 23l38 374h390v-88h-308l-21 -202q51 49 139 49z" />
    <glyph glyph-name="six.lf.case" horiz-adv-x="583" 
d="M321 441q79 0 142 -60.5t63 -161.5q0 -100 -65 -164.5t-169 -64.5q-106 0 -171 65.5t-65 172.5q0 57 22 108.5t67 122.5l150 241h111l-192 -287q34 21 66 26q18 2 41 2zM292 70q65 0 104.5 43.5t39.5 107.5q0 61 -39 103t-104 42t-104 -42t-39 -103q0 -63 39 -107
t103 -44z" />
    <glyph glyph-name="seven.lf.case" horiz-adv-x="544" 
d="M56 700h456v-66q-258 -237 -275 -634h-96q15 374 232 611h-317v89z" />
    <glyph glyph-name="eight.lf.case" horiz-adv-x="594" 
d="M406 375q57 -19 94 -68.5t37 -115.5q0 -91 -67 -146t-174 -55q-109 0 -174.5 54.5t-65.5 145.5q0 68 38.5 117.5t94.5 67.5v6q-42 17 -71 58.5t-29 90.5q0 79 61 129.5t147 50.5q87 0 147.5 -49.5t60.5 -130.5q0 -51 -28.5 -90.5t-70.5 -58.5v-6zM298 633
q-51 0 -84.5 -29t-33.5 -77q0 -50 35 -80.5t81 -30.5q47 0 82.5 30.5t35.5 81.5q0 47 -33 76t-83 29zM294 71q62 0 103.5 35t41.5 91q0 54 -39 93.5t-104 39.5q-66 0 -103.5 -39.5t-37.5 -94.5q0 -56 39.5 -90.5t99.5 -34.5z" />
    <glyph glyph-name="nine.lf.case" horiz-adv-x="583" 
d="M271 259q-79 0 -142 60.5t-63 161.5q0 100 65 164.5t169 64.5q106 0 171 -65.5t65 -172.5q0 -57 -22 -108.5t-67 -122.5l-150 -241h-111l192 287q-34 -21 -66 -26q-18 -2 -41 -2zM300 630q-65 0 -104.5 -43.5t-39.5 -107.5q0 -61 39 -103t104 -42t104 42t39 103
q0 63 -39 107t-103 44z" />
    <glyph glyph-name="zero.tf" horiz-adv-x="536" 
d="M269 651q108 0 171.5 -84.5t63.5 -246.5q0 -163 -63.5 -246.5t-171.5 -83.5t-173 84t-65 247q0 161 65 245.5t173 84.5zM269 572q-66 0 -105 -63.5t-39 -188.5q0 -79 17 -135l214 348q-34 39 -87 39zM270 69q66 0 104 63.5t38 187.5q0 81 -17 137l-215 -347
q35 -41 90 -41z" />
    <glyph glyph-name="one.tf" horiz-adv-x="536" 
d="M334 75h146v-75h-406v75h169v390h-126v73h59q77 0 77 71v31h81v-565z" />
    <glyph glyph-name="two.tf" horiz-adv-x="536" 
d="M313 261q-141 -91 -148 -178h305v-83h-417v37q0 160 174 272q98 63 122 86q33 34 33 74q0 45 -30 73.5t-81 28.5q-61 0 -91.5 -40.5t-33.5 -97.5h-92q0 53 21.5 100.5t73 82.5t123.5 35q89 0 146 -49.5t57 -132.5q0 -67 -40.5 -111.5t-121.5 -96.5z" />
    <glyph glyph-name="three.tf" horiz-adv-x="536" 
d="M375 338q51 -17 80.5 -59t29.5 -99q0 -85 -58 -137.5t-157 -52.5q-102 0 -157.5 54.5t-61.5 143.5h87q4 -49 37 -82.5t92 -33.5q55 0 90 31t35 83q0 50 -33 82t-94 32h-33v77h33q50 0 79.5 28t29.5 71q0 42 -28 69t-75 27q-46 0 -75.5 -26.5t-32.5 -70.5h-88
q0 77 58 126.5t142 49.5q80 0 132.5 -47t52.5 -117q0 -96 -85 -142v-7z" />
    <glyph glyph-name="four.tf" horiz-adv-x="536" 
d="M511 219v-77h-113v-142h-86v142h-295v58l270 440h111v-421h113zM119 219h193v315h-9z" />
    <glyph glyph-name="five.tf" horiz-adv-x="536" 
d="M288 421q94 0 150.5 -60t56.5 -159q0 -94 -62 -153t-158 -59q-100 0 -157 57t-61 146h89q5 -56 38 -90t89 -34q58 0 94.5 36.5t36.5 97.5q0 62 -35.5 102.5t-92.5 40.5q-89 0 -129 -70l-79 23l34 341h361v-83h-282l-19 -180q48 44 126 44z" />
    <glyph glyph-name="six.tf" horiz-adv-x="536" 
d="M298 404q73 0 131 -55.5t58 -148.5q0 -92 -60.5 -151t-155.5 -59q-98 0 -158 60t-60 158q0 54 20.5 102t61.5 112l137 218h107l-176 -261q35 25 95 25zM271 67q58 0 93.5 39t35.5 96q0 56 -35 93.5t-93 37.5q-59 0 -94 -37.5t-35 -93.5t35.5 -95.5t92.5 -39.5z" />
    <glyph glyph-name="seven.tf" horiz-adv-x="536" 
d="M70 640h420v-63q-236 -220 -250 -577h-92q12 341 210 555h-288v85z" />
    <glyph glyph-name="eight.tf" horiz-adv-x="536" 
d="M369 344q53 -18 87 -63.5t34 -105.5q0 -83 -62.5 -134t-160.5 -51q-100 0 -161 50.5t-61 133.5q0 63 35.5 108.5t86.5 61.5v6q-39 15 -65 52.5t-26 82.5q0 73 56 119.5t135 46.5q80 0 136.5 -45.5t56.5 -119.5q0 -47 -26 -83t-65 -53v-6zM268 577q-46 0 -76 -25.5
t-30 -68.5q0 -45 31.5 -72.5t72.5 -27.5q42 0 74.5 27.5t32.5 72.5q0 43 -29.5 68.5t-75.5 25.5zM265 68q55 0 92.5 31t37.5 82q0 49 -35 84.5t-94 35.5q-58 0 -92 -36t-34 -85q0 -50 35.5 -81t89.5 -31z" />
    <glyph glyph-name="nine.tf" horiz-adv-x="536" 
d="M241 232q-73 0 -131 55.5t-58 148.5q0 92 60.5 151t155.5 59q98 0 158 -60t60 -158q0 -54 -20.5 -102t-61.5 -112l-137 -218h-107l176 261q-35 -25 -95 -25zM268 569q-58 0 -93.5 -39t-35.5 -96q0 -56 35 -93.5t93 -37.5q59 0 94 37.5t35 93.5t-35.5 95.5t-92.5 39.5z
" />
    <glyph glyph-name="zero.tf.case" horiz-adv-x="569" 
d="M285 710q117 0 186.5 -92.5t69.5 -268.5q0 -178 -69.5 -268.5t-186.5 -90.5t-187 91.5t-70 268.5q0 175 70.5 267.5t186.5 92.5zM285 628q-72 0 -116 -70.5t-44 -208.5q0 -88 19 -151l241 383q-38 47 -100 47zM286 71q74 0 116.5 70t42.5 208q0 87 -19 152l-241 -383
q40 -47 101 -47z" />
    <glyph glyph-name="one.tf.case" horiz-adv-x="569" 
d="M355 78h153v-78h-437v78h189v435h-136v76h64q82 0 82 76v35h85v-622z" />
    <glyph glyph-name="two.tf.case" horiz-adv-x="569" 
d="M339 290q-162 -95 -168 -205h338v-85h-452v40q0 93 52 170.5t143 128.5q89 50 126.5 85.5t37.5 85.5q0 52 -33 84t-90 32q-69 0 -102 -45t-37 -109h-96q0 57 23.5 109.5t79 90.5t134.5 38q96 0 157.5 -54t61.5 -144q0 -74 -45.5 -124t-129.5 -98z" />
    <glyph glyph-name="three.tf.case" horiz-adv-x="569" 
d="M397 369q56 -19 88 -65t32 -109q0 -92 -63 -148.5t-170 -56.5q-110 0 -170 58.5t-67 155.5h91q5 -55 41 -92t102 -37q62 0 101 34.5t39 92.5q0 55 -36.5 91t-104.5 36h-36v80h35q55 0 88 31t33 79q0 47 -31.5 77.5t-83.5 30.5t-84.5 -29t-36.5 -79h-91q0 84 63 137.5
t153 53.5q87 0 143.5 -51t56.5 -127q0 -106 -92 -156v-7z" />
    <glyph glyph-name="four.tf.case" horiz-adv-x="569" 
d="M553 236v-80h-123v-156h-90v156h-321v62l294 482h117v-464h123zM124 236h216v350h-9z" />
    <glyph glyph-name="five.tf.case" horiz-adv-x="569" 
d="M308 459q102 0 163.5 -65.5t61.5 -172.5q0 -103 -67 -167t-171 -64q-109 0 -170.5 62.5t-65.5 158.5h93q4 -63 41 -101t100 -38q65 0 105.5 41t40.5 108q0 70 -39.5 115t-103.5 45q-45 0 -84 -20.5t-60 -57.5l-82 23l38 374h390v-88h-308l-21 -202q51 49 139 49z" />
    <glyph glyph-name="six.tf.case" horiz-adv-x="569" 
d="M318 441q79 0 142 -60.5t63 -161.5q0 -100 -65 -164.5t-169 -64.5q-106 0 -171 65.5t-65 172.5q0 57 22 108.5t67 122.5l150 241h111l-192 -287q34 21 66 26q18 2 41 2zM289 70q65 0 104.5 43.5t39.5 107.5q0 61 -39 103t-104 42t-104 -42t-39 -103q0 -63 39 -107
t103 -44z" />
    <glyph glyph-name="seven.tf.case" horiz-adv-x="569" 
d="M64 700h456v-66q-258 -237 -275 -634h-96q15 374 232 611h-317v89z" />
    <glyph glyph-name="eight.tf.case" horiz-adv-x="569" 
d="M399 375q57 -19 94 -68.5t37 -115.5q0 -91 -67 -146t-174 -55q-109 0 -174.5 54.5t-65.5 145.5q0 68 38.5 117.5t94.5 67.5v6q-42 17 -71 58.5t-29 90.5q0 79 61 129.5t147 50.5q87 0 147.5 -49.5t60.5 -130.5q0 -51 -28.5 -90.5t-70.5 -58.5v-6zM291 633
q-51 0 -84.5 -29t-33.5 -77q0 -50 35 -80.5t81 -30.5q47 0 82.5 30.5t35.5 81.5q0 47 -33 76t-83 29zM287 71q62 0 103.5 35t41.5 91q0 54 -39 93.5t-104 39.5q-66 0 -103.5 -39.5t-37.5 -94.5q0 -56 39.5 -90.5t99.5 -34.5z" />
    <glyph glyph-name="nine.tf.case" horiz-adv-x="569" 
d="M263 259q-79 0 -142 60.5t-63 161.5q0 100 65 164.5t169 64.5q106 0 171 -65.5t65 -172.5q0 -57 -22 -108.5t-67 -122.5l-150 -241h-111l192 287q-34 -21 -66 -26q-18 -2 -41 -2zM292 630q-65 0 -104.5 -43.5t-39.5 -107.5q0 -61 39 -103t104 -42t104 42t39 103
q0 63 -39 107t-103 44z" />
    <glyph glyph-name="zero.zero" horiz-adv-x="586" 
d="M294 651q108 0 171.5 -84.5t63.5 -246.5q0 -163 -63.5 -246.5t-171.5 -83.5t-173 84t-65 247q0 161 65 245.5t173 84.5zM294 572q-66 0 -105 -63.5t-39 -188.5q0 -79 17 -135l214 348q-35 39 -87 39zM295 69q66 0 104 63.5t38 187.5q0 81 -17 137l-215 -347
q35 -41 90 -41z" />
    <glyph glyph-name="zero.dnom" horiz-adv-x="369" 
d="M185 -4q-67 0 -109.5 52t-42.5 144t42.5 144.5t108.5 52.5t109 -53t43 -145q0 -91 -42.5 -143t-108.5 -52zM185 59q40 0 63.5 34.5t23.5 97.5t-23.5 98t-64.5 35t-64 -35t-23 -98t23.5 -97.5t64.5 -34.5z" />
    <glyph glyph-name="one.dnom" horiz-adv-x="234" 
d="M118 0v260h-90v54h48q45 0 45 45v26h60v-385h-63z" />
    <glyph glyph-name="two.dnom" horiz-adv-x="332" 
d="M197 157q-94 -50 -96 -103h196v-54h-264v24q0 101 103 161q7 4 19.5 11t18.5 10t15.5 9t14 9.5t11 8.5t9.5 9.5t6.5 10t4.5 11t1 12.5q0 25 -17 41.5t-47 16.5q-36 0 -54.5 -22.5t-20.5 -53.5h-63q0 51 36 91.5t105 40.5q53 0 89 -30.5t36 -78.5q0 -24 -8 -43
t-25.5 -34.5t-31.5 -24.5t-38 -22z" />
    <glyph glyph-name="three.dnom" horiz-adv-x="342" 
d="M236 203q32 -9 52.5 -35t20.5 -60q0 -50 -37.5 -82t-106.5 -32q-67 0 -102.5 34.5t-39.5 88.5h60q3 -30 24.5 -50.5t59.5 -20.5q35 0 57.5 18t22.5 47q0 30 -23 48t-64 18h-19v52h21q32 0 51.5 15t19.5 39t-18 39t-47 15t-47.5 -15t-21.5 -40h-61q0 47 37.5 77.5
t93.5 30.5q54 0 89.5 -28.5t35.5 -70.5q0 -52 -58 -84v-4z" />
    <glyph glyph-name="four.dnom" horiz-adv-x="364" 
d="M341 133v-52h-64v-81h-56v81h-193v35l165 269h84v-252h64zM98 133h123v186h-6z" />
    <glyph glyph-name="five.dnom" horiz-adv-x="349" 
d="M182 254q61 0 97.5 -37t36.5 -95q0 -57 -39.5 -92t-102.5 -35q-68 0 -104.5 36.5t-36.5 85.5h59q2 -32 25 -51.5t57 -19.5q36 0 59 22t23 55q0 35 -22 59t-60 24q-50 0 -78 -41l-56 15l22 205h234v-54h-184l-12 -103q32 26 82 26z" />
    <glyph glyph-name="six.dnom" horiz-adv-x="356" 
d="M192 246q58 0 94.5 -35t36.5 -89q0 -56 -40.5 -91.5t-105.5 -35.5q-64 0 -104 36t-40 99q0 49 54 126l90 129h73l-116 -152q26 13 58 13zM179 45q40 0 63.5 22t23.5 54t-23.5 53.5t-63.5 21.5q-41 0 -64.5 -21.5t-23.5 -53.5t23.5 -54t64.5 -22z" />
    <glyph glyph-name="seven.dnom" horiz-adv-x="325" 
d="M28 385h274v-42q-152 -128 -159 -343h-61q5 114 43 199.5t91 132.5h-188v53z" />
    <glyph glyph-name="eight.dnom" horiz-adv-x="373" 
d="M259 207q35 -9 58.5 -36t23.5 -62q0 -55 -43 -84.5t-112 -29.5t-111 29.5t-42 83.5q0 37 23.5 63t58.5 36v4q-28 10 -44.5 30.5t-16.5 46.5q0 45 37 73.5t96 28.5t96.5 -28.5t37.5 -71.5q0 -27 -17.5 -48t-44.5 -31v-4zM186 343q-32 0 -53 -14.5t-21 -40.5
q0 -28 22.5 -43.5t51.5 -15.5q30 0 53 16t23 43q0 26 -21.5 40.5t-54.5 14.5zM185 43q43 0 67.5 17t24.5 48q0 29 -23.5 50.5t-67.5 21.5t-66.5 -21.5t-22.5 -50.5q0 -31 23 -48t65 -17z" />
    <glyph glyph-name="nine.dnom" horiz-adv-x="356" 
d="M164 139q-58 0 -94.5 35t-36.5 89q0 56 40.5 91.5t105.5 35.5q64 0 104 -36t40 -99q0 -49 -54 -126l-90 -129h-73l116 152q-26 -13 -58 -13zM177 340q-40 0 -63.5 -22t-23.5 -54t23.5 -53.5t63.5 -21.5q41 0 64.5 21.5t23.5 53.5t-23.5 54t-64.5 22z" />
    <glyph glyph-name="zero.numr" horiz-adv-x="369" 
d="M185 251q-67 0 -109.5 52t-42.5 144t42.5 144.5t108.5 52.5t109 -53t43 -145q0 -91 -42.5 -143t-108.5 -52zM185 314q40 0 63.5 34.5t23.5 97.5t-23.5 98t-64.5 35t-64 -35t-23 -98t23.5 -97.5t64.5 -34.5z" />
    <glyph glyph-name="one.numr" horiz-adv-x="234" 
d="M118 255v260h-90v54h48q45 0 45 45v26h60v-385h-63z" />
    <glyph glyph-name="two.numr" horiz-adv-x="332" 
d="M197 412q-94 -50 -96 -103h196v-54h-264v24q0 101 103 161q7 4 19.5 11t18.5 10t15.5 9t14 9.5t11 8.5t9.5 9.5t6.5 10t4.5 11t1 12.5q0 25 -17 41.5t-47 16.5q-36 0 -54.5 -22.5t-20.5 -53.5h-63q0 51 36 91.5t105 40.5q53 0 89 -30.5t36 -78.5q0 -24 -8 -43
t-25.5 -34.5t-31.5 -24.5t-38 -22z" />
    <glyph glyph-name="three.numr" horiz-adv-x="342" 
d="M236 458q32 -9 52.5 -35t20.5 -60q0 -50 -37.5 -82t-106.5 -32q-67 0 -102.5 34.5t-39.5 88.5h60q3 -30 24.5 -50.5t59.5 -20.5q35 0 57.5 18t22.5 47q0 30 -23 48t-64 18h-19v52h21q32 0 51.5 15t19.5 39t-18 39t-47 15t-47.5 -15t-21.5 -40h-61q0 47 37.5 77.5
t93.5 30.5q54 0 89.5 -28.5t35.5 -70.5q0 -52 -58 -84v-4z" />
    <glyph glyph-name="four.numr" horiz-adv-x="364" 
d="M341 388v-52h-64v-81h-56v81h-193v35l165 269h84v-252h64zM98 388h123v186h-6z" />
    <glyph glyph-name="five.numr" horiz-adv-x="349" 
d="M182 506q61 0 97.5 -37t36.5 -95q0 -57 -39.5 -92t-102.5 -35q-68 0 -104.5 36.5t-36.5 85.5h59q2 -32 25 -51.5t57 -19.5q36 0 59 22t23 55q0 35 -22 59t-60 24q-50 0 -78 -41l-56 15l22 205h234v-54h-184l-12 -103q32 26 82 26z" />
    <glyph glyph-name="six.numr" horiz-adv-x="356" 
d="M192 501q58 0 94.5 -35t36.5 -89q0 -56 -40.5 -91.5t-105.5 -35.5q-64 0 -104 36t-40 99q0 49 54 126l90 129h73l-116 -152q26 13 58 13zM179 300q40 0 63.5 22t23.5 54t-23.5 53.5t-63.5 21.5q-41 0 -64.5 -21.5t-23.5 -53.5t23.5 -54t64.5 -22z" />
    <glyph glyph-name="seven.numr" horiz-adv-x="325" 
d="M28 640h274v-42q-152 -128 -159 -343h-61q5 114 43 199.5t91 132.5h-188v53z" />
    <glyph glyph-name="eight.numr" horiz-adv-x="373" 
d="M259 462q35 -9 58.5 -36t23.5 -62q0 -55 -43 -84.5t-112 -29.5t-111 29.5t-42 83.5q0 37 23.5 63t58.5 36v4q-28 10 -44.5 30.5t-16.5 46.5q0 45 37 73.5t96 28.5t96.5 -28.5t37.5 -71.5q0 -27 -17.5 -48t-44.5 -31v-4zM186 598q-32 0 -53 -14.5t-21 -40.5
q0 -28 22.5 -43.5t51.5 -15.5q30 0 53 16t23 43q0 26 -21.5 40.5t-54.5 14.5zM185 298q43 0 67.5 17t24.5 48q0 29 -23.5 50.5t-67.5 21.5t-66.5 -21.5t-22.5 -50.5q0 -31 23 -48t65 -17z" />
    <glyph glyph-name="nine.numr" horiz-adv-x="356" 
d="M164 396q-58 0 -94.5 35t-36.5 89q0 56 40.5 91.5t105.5 35.5q64 0 104 -36t40 -99q0 -49 -54 -126l-90 -129h-73l116 152q-26 -13 -58 -13zM177 597q-40 0 -63.5 -22t-23.5 -54t23.5 -53.5t63.5 -21.5q41 0 64.5 21.5t23.5 53.5t-23.5 54t-64.5 22z" />
    <glyph glyph-name="fraction.ss01" horiz-adv-x="256" 
d="M397 640l-498 -640h-40l498 640h40z" />
    <glyph glyph-name="onehalf.ss01" horiz-adv-x="724" 
d="M118 255v260h-90v54h48q45 0 45 45v26h60v-385h-63zM603 640l-498 -640h-40l498 640h40zM589 157q-94 -50 -96 -103h196v-54h-264v24q0 101 103 161q7 4 19.5 11t18.5 10t15.5 9t14 9.5t11 8.5t9.5 9.5t6.5 10t4.5 11t1 12.5q0 25 -17 41.5t-47 16.5q-36 0 -54.5 -22.5
t-20.5 -53.5h-63q0 51 36 91.5t105 40.5q53 0 89 -30.5t36 -78.5q0 -24 -8 -43t-25.5 -34.5t-31.5 -24.5t-38 -22z" />
    <glyph glyph-name="uni2153.ss01" horiz-adv-x="742" 
d="M118 255v260h-90v54h48q45 0 45 45v26h60v-385h-63zM603 640l-498 -640h-40l498 640h40zM636 203q32 -9 52.5 -35t20.5 -60q0 -50 -37.5 -82t-106.5 -32q-67 0 -102.5 34.5t-39.5 88.5h60q3 -30 24.5 -50.5t59.5 -20.5q35 0 57.5 18t22.5 47q0 30 -23 48t-64 18h-19v52
h21q32 0 51.5 15t19.5 39t-18 39t-47 15t-47.5 -15t-21.5 -40h-61q0 47 37.5 77.5t93.5 30.5q54 0 89.5 -28.5t35.5 -70.5q0 -52 -58 -84v-4z" />
    <glyph glyph-name="uni2154.ss01" horiz-adv-x="846" 
d="M197 412q-94 -50 -96 -103h196v-54h-264v24q0 101 103 161q7 4 19.5 11t18.5 10t15.5 9t14 9.5t11 8.5t9.5 9.5t6.5 10t4.5 11t1 12.5q0 25 -17 41.5t-47 16.5q-36 0 -54.5 -22.5t-20.5 -53.5h-63q0 51 36 91.5t105 40.5q53 0 89 -30.5t36 -78.5q0 -24 -8 -43
t-25.5 -34.5t-31.5 -24.5t-38 -22zM707 640l-498 -640h-40l498 640h40zM740 203q32 -9 52.5 -35t20.5 -60q0 -50 -37.5 -82t-106.5 -32q-67 0 -102.5 34.5t-39.5 88.5h60q3 -30 24.5 -50.5t59.5 -20.5q35 0 57.5 18t22.5 47q0 30 -23 48t-64 18h-19v52h21q32 0 51.5 15
t19.5 39t-18 39t-47 15t-47.5 -15t-21.5 -40h-61q0 47 37.5 77.5t93.5 30.5q54 0 89.5 -28.5t35.5 -70.5q0 -52 -58 -84v-4z" />
    <glyph glyph-name="onequarter.ss01" horiz-adv-x="692" 
d="M118 255v260h-90v54h48q45 0 45 45v26h60v-385h-63zM603 640l-498 -640h-40l498 640h40zM669 133v-52h-64v-81h-56v81h-193v35l165 269h84v-252h64zM426 133h123v186h-6z" />
    <glyph glyph-name="threequarters.ss01" horiz-adv-x="772" 
d="M236 458q32 -9 52.5 -35t20.5 -60q0 -50 -37.5 -82t-106.5 -32q-67 0 -102.5 34.5t-39.5 88.5h60q3 -30 24.5 -50.5t59.5 -20.5q35 0 57.5 18t22.5 47q0 30 -23 48t-64 18h-19v52h21q32 0 51.5 15t19.5 39t-18 39t-47 15t-47.5 -15t-21.5 -40h-61q0 47 37.5 77.5
t93.5 30.5q54 0 89.5 -28.5t35.5 -70.5q0 -52 -58 -84v-4zM683 640l-498 -640h-40l498 640h40zM749 133v-52h-64v-81h-56v81h-193v35l165 269h84v-252h64zM506 133h123v186h-6z" />
    <glyph glyph-name="exclamdown.case.alt" horiz-adv-x="262" 
d="M132 706q24 0 41.5 -17.5t17.5 -42.5t-17.5 -42.5t-41.5 -17.5q-26 0 -43.5 17.5t-17.5 42.5t18 42.5t43 17.5zM176 118q5 -50 5 -71q0 -27 -14.5 -43t-36.5 -16t-36.5 16t-14.5 43q0 19 5 71l23 385h47z" />
    <glyph glyph-name="exclam.alt" horiz-adv-x="262" 
d="M176 580l-22 -385h-47l-23 385q-5 52 -5 71q0 27 14.5 43t36.5 16t36.5 -16t14.5 -43q0 -21 -5 -71zM132 -8q-25 0 -43 17.5t-18 42.5t17.5 42.5t43.5 17.5q24 0 41.5 -17.5t17.5 -42.5t-17.5 -42.5t-41.5 -17.5z" />
    </font>
</defs>
</svg>
