<?xml version="1.0" standalone="no"?>
<!DOCTYPE svg PUBLIC "-//W3C//DTD SVG 1.1//EN" "http://www.w3.org/Graphics/SVG/1.1/DTD/svg11.dtd" >
<svg xmlns="http://www.w3.org/2000/svg" xmlns:xlink="http://www.w3.org/1999/xlink" version="1.1">
<metadata>
Created by FontForge 20170731 at Wed Jan  2 22:10:46 2019
 By Aleksey,,,
(c) TIGHTYPE 2019
</metadata>
<defs>
<font id="Moderat-Mono-Regular" horiz-adv-x="600" >
  <font-face 
    font-family="Moderat Mono"
    font-weight="402"
    font-stretch="normal"
    units-per-em="1000"
    panose-1="0 0 5 0 0 0 0 0 0 0"
    ascent="800"
    descent="-200"
    x-height="500"
    cap-height="700"
    bbox="-38 -291 1127 931"
    underline-thickness="50"
    underline-position="-200"
    unicode-range="U+0020-2793"
  />
<missing-glyph 
d="M560 250q0 -108 -76 -184t-184 -76q-109 0 -184.5 76.5t-75.5 183.5q0 108 76 184t184 76q109 0 184.5 -76.5t75.5 -183.5zM164 382v-32h32v-93h33v93h32v32h-97zM339 382v-32h33v-93h32v93h33v32h-98zM300 56q79 0 135.5 54.5t58.5 132.5l-34 6q0 -67 -46.5 -113.5
t-113.5 -46.5q-66 0 -113 46.5t-47 113.5l-33 -6q2 -78 58.5 -132.5t134.5 -54.5z" />
    <glyph glyph-name="arrowleft" unicode="&#x3c;&#x2d;" 
d="M577 389v-78h-419l172 -170l-55 -56l-252 261v8l252 261l55 -56l-172 -170h419z" />
    <glyph glyph-name="arrowright" unicode="&#x2d;&#x3e;" 
d="M325 615l252 -261v-8l-252 -261l-55 56l172 170h-419v78h419l-172 170z" />
    <glyph glyph-name=".notdef" 
d="M560 250q0 -108 -76 -184t-184 -76q-109 0 -184.5 76.5t-75.5 183.5q0 108 76 184t184 76q109 0 184.5 -76.5t75.5 -183.5zM164 382v-32h32v-93h33v93h32v32h-97zM339 382v-32h33v-93h32v93h33v32h-98zM300 56q79 0 135.5 54.5t58.5 132.5l-34 6q0 -67 -46.5 -113.5
t-113.5 -46.5q-66 0 -113 46.5t-47 113.5l-33 -6q2 -78 58.5 -132.5t134.5 -54.5z" />
    <glyph glyph-name=".null" horiz-adv-x="0" 
 />
    <glyph glyph-name="nonmarkingreturn" horiz-adv-x="333" 
 />
    <glyph glyph-name="space" unicode=" " 
 />
    <glyph glyph-name="exclam" unicode="!" 
d="M254 700h92l-15 -496h-61zM301 -5q-27 0 -46.5 19t-19.5 45q0 28 19.5 47t46.5 19q26 0 45 -19t19 -47q0 -26 -19 -45t-45 -19z" />
    <glyph glyph-name="quotedbl" unicode="&#x22;" 
d="M238 587l-16 -142h-43l-17 142q-6 66 -6 68q0 50 44 50q20 0 32 -13.5t12 -36.5q0 -2 -6 -68zM437 587l-16 -142h-42l-17 142q-1 6 -4 32.5t-3 35.5q0 23 12 36.5t32 13.5q21 0 33 -13.5t12 -36.5q0 -17 -7 -68z" />
    <glyph glyph-name="numbersign" unicode="#" 
d="M567 404h-99l-29 -164h97v-71h-110l-31 -169h-81l31 169h-145l-31 -169h-80l31 169h-87v71h100l30 164h-99v72h112l30 164h79l-30 -164h146l30 164h80l-30 -164h86v-72zM358 240l30 164h-146l-29 -164h145z" />
    <glyph glyph-name="dollar" unicode="$" 
d="M515 161q0 -74 -50 -117.5t-129 -51.5v-82h-73v82q-86 9 -135.5 59t-54.5 134h92q11 -99 98 -116v229l-22 8q-72 26 -110.5 65t-38.5 105q0 70 47.5 115.5t123.5 55.5v83h73v-82q79 -8 127 -57t51 -123h-86q-10 87 -92 103v-213l20 -7q81 -29 120 -74t39 -116zM184 481
q0 -62 79 -96v185q-36 -9 -57.5 -33t-21.5 -56zM336 68q39 7 63 30.5t24 60.5q0 74 -87 112v-203z" />
    <glyph glyph-name="percent" unicode="%" 
d="M173 347q-62 0 -106.5 44.5t-44.5 106.5t44.5 107t106.5 45t107 -45t45 -107t-45 -106.5t-107 -44.5zM556 579v-84l-514 -435v84zM173 419q35 0 57 22.5t22 56.5q0 35 -22.5 57.5t-56.5 22.5t-56.5 -23t-22.5 -57t22.5 -56.5t56.5 -22.5zM427 -10q-62 0 -107 45t-45 107
t45 106.5t107 44.5t107 -44.5t45 -106.5t-45 -107t-107 -45zM427 62q34 0 56.5 22.5t22.5 57.5q0 34 -22 56.5t-57 22.5q-34 0 -56.5 -22.5t-22.5 -56.5t22.5 -57t56.5 -23z" />
    <glyph glyph-name="ampersand" unicode="&#x26;" 
d="M599 0h-98l-86 97q-84 -107 -204 -107q-78 0 -129 44t-51 115q0 47 20.5 86.5t42 60t59.5 49.5l24 19q-61 66 -79 99q-23 42 -23 86q0 67 49.5 114t129.5 47q79 0 128 -42.5t49 -111.5q0 -51 -28.5 -90.5t-84.5 -84.5l-32 -26l118 -135l76 117h89l-111 -177zM235 412
l1 -2l28 22q41 31 63.5 59t22.5 63q0 39 -27.5 62t-68.5 23q-43 0 -69.5 -25.5t-26.5 -63.5q0 -35 18 -65t59 -73zM218 64q82 0 144 92l-134 151l-26 -21q-42 -32 -63.5 -61.5t-21.5 -68.5q0 -38 29 -65t72 -27z" />
    <glyph glyph-name="quotesingle" unicode="'" 
d="M337 587l-16 -142h-42l-17 142q-7 51 -7 68q0 23 12 36.5t32 13.5q21 0 33 -13.5t12 -36.5q0 -17 -7 -68z" />
    <glyph glyph-name="parenleft" unicode="(" 
d="M444 -123l-50 -46q-214 192 -214 479q0 288 214 480l50 -47q-188 -174 -188 -433q0 -256 188 -433z" />
    <glyph glyph-name="parenright" unicode=")" 
d="M156 -123q188 177 188 433q0 259 -188 433l50 47q214 -192 214 -480q0 -287 -214 -479z" />
    <glyph glyph-name="asterisk" unicode="*" 
d="M458 592l-106 -57l106 -57l-29 -51l-103 63l3 -120h-59l4 120l-103 -63l-29 51l106 57l-106 57l29 51l103 -63l-4 120h59l-3 -120l103 63z" />
    <glyph glyph-name="plus" unicode="+" 
d="M522 316v-72h-183v-184h-78v184h-184v72h184v184h78v-184h183z" />
    <glyph glyph-name="comma" unicode="," 
d="M298 123q31 0 49 -23.5t18 -60.5q0 -58 -30.5 -102t-73.5 -70l-27 32q59 48 60 96q-26 -2 -42.5 15.5t-16.5 45.5q0 30 18 48.5t45 18.5z" />
    <glyph glyph-name="hyphen" unicode="-" 
d="M117 349h366v-76h-366v76z" />
    <glyph glyph-name="period" unicode="." 
d="M301 -5q-27 0 -46.5 19t-19.5 45q0 28 19.5 47t46.5 19q26 0 45 -19t19 -47q0 -26 -19 -45t-45 -19z" />
    <glyph glyph-name="slash" unicode="/" 
d="M548 750l-410 -800h-86l412 800h84z" />
    <glyph glyph-name="zero" unicode="0" 
d="M301 651q108 0 171.5 -84.5t63.5 -247.5t-64 -246t-171 -83q-108 0 -172.5 83.5t-64.5 247.5q0 162 64.5 246t172.5 84zM300 574q-64 0 -103.5 -63.5t-39.5 -190.5q0 -67 13 -122l234 312q-38 64 -104 64zM301 67q64 0 103.5 63.5t39.5 189.5q0 71 -14 124l-234 -313
q38 -64 105 -64z" />
    <glyph glyph-name="one" unicode="1" 
d="M347 74h165v-74h-424v74h169v382h-149v72h72q86 0 86 78v34h81v-566z" />
    <glyph glyph-name="two" unicode="2" 
d="M284 216q-88 -62 -96 -140h314v-76h-416v35q0 74 37.5 134.5t97.5 102.5l97 67q32 23 47.5 36t32.5 40t17 57q0 45 -30 73.5t-78 28.5q-59 0 -92.5 -38.5t-36.5 -86.5h-91q5 82 64 142t159 60q88 0 141.5 -48t53.5 -128q0 -106 -112 -183z" />
    <glyph glyph-name="three" unicode="3" 
d="M408 330q50 -16 80 -56t30 -98q0 -81 -62 -133.5t-162 -52.5q-95 0 -151.5 49.5t-64.5 137.5h89q7 -49 38 -80.5t88 -31.5q59 0 96 32t37 82t-34 81.5t-93 31.5h-59v71h54q51 0 81.5 29.5t30.5 78.5q0 48 -31 77.5t-81 29.5q-46 0 -79 -26.5t-42 -73.5h-86
q4 78 65.5 125.5t145.5 47.5q83 0 140 -49t57 -128q0 -94 -87 -139v-5z" />
    <glyph glyph-name="four" unicode="4" 
d="M545 215v-69h-111v-146h-84v146h-297v44l288 450h93v-425h111zM157 215h193v305h-7z" />
    <glyph glyph-name="five" unicode="5" 
d="M316 410q90 0 145.5 -59t55.5 -150q0 -96 -62.5 -153.5t-161.5 -57.5q-93 0 -149 52t-61 139h85q4 -55 38.5 -87t88.5 -32q60 0 97 37t37 100q0 62 -35.5 102.5t-93.5 40.5q-40 0 -73.5 -18.5t-52.5 -51.5l-78 17l35 351h357v-75h-281l-21 -200q49 45 130 45z" />
    <glyph glyph-name="six" unicode="6" 
d="M318 404q86 0 142 -57t56 -146q0 -93 -60.5 -152t-156.5 -59q-97 0 -157 60t-60 158q0 42 13 83.5t26.5 67.5t37.5 63l140 218h109l-172 -252q35 16 82 16zM300 64q58 0 93.5 40t35.5 99q0 57 -34.5 95t-93.5 38t-94 -38t-35 -95q0 -59 35 -99t93 -40z" />
    <glyph glyph-name="seven" unicode="7" 
d="M89 640h428v-51q-111 -128 -170 -262t-73 -327h-91q14 189 65 318t140 242v4h-299v76z" />
    <glyph glyph-name="eight" unicode="8" 
d="M407 339q47 -18 80 -61t33 -105q0 -81 -59.5 -132t-159.5 -51q-99 0 -159.5 51.5t-60.5 132.5q0 61 33.5 104.5t79.5 60.5v5q-90 38 -90 137q0 77 56 123.5t142 46.5q85 0 140 -46t55 -123q0 -98 -90 -138v-5zM301 585q-47 0 -78 -28.5t-31 -77.5q0 -48 31.5 -76
t77.5 -28t77 28t31 76q0 49 -30.5 77.5t-77.5 28.5zM301 59q55 0 91.5 32.5t36.5 85.5q0 54 -34.5 89t-94.5 35t-94 -35t-34 -86q0 -55 37 -88t92 -33z" />
    <glyph glyph-name="nine" unicode="9" 
d="M304 650q97 0 157 -60t60 -158q0 -42 -13 -83.5t-26.5 -67.5t-37.5 -63l-140 -218h-109l172 252q-35 -16 -82 -16q-86 0 -142 57t-56 146q0 93 60.5 152t156.5 59zM302 304q59 0 94 38t35 95q0 59 -35 99t-93 40t-93.5 -40t-35.5 -99q0 -57 34.5 -95t93.5 -38z" />
    <glyph glyph-name="colon" unicode=":" 
d="M301 375q-27 0 -46.5 19t-19.5 45q0 28 19.5 47t46.5 19q26 0 45 -19t19 -47q0 -26 -19 -45t-45 -19zM301 -5q-27 0 -46.5 19t-19.5 45q0 28 19.5 47t46.5 19q26 0 45 -19t19 -47q0 -26 -19 -45t-45 -19z" />
    <glyph glyph-name="semicolon" unicode=";" 
d="M301 375q-27 0 -46.5 19.5t-19.5 45.5q0 27 19.5 46t46.5 19q26 0 45 -19t19 -46q0 -26 -19 -45.5t-45 -19.5zM298 123q31 0 49 -23.5t18 -60.5q0 -58 -30.5 -102t-73.5 -70l-27 32q59 48 60 96q-26 -2 -42.5 15.5t-16.5 45.5q0 30 18 48.5t45 18.5z" />
    <glyph glyph-name="less" unicode="&#x3c;" 
d="M492 557v-92l-295 -175v-5l295 -177v-92l-384 225v91z" />
    <glyph glyph-name="equal" unicode="=" 
d="M80 428h440v-75h-440v75zM80 207h440v-74h-440v74z" />
    <glyph glyph-name="greater" unicode="&#x3e;" 
d="M108 557l384 -225v-91l-384 -225v92l295 177v5l-295 175v92z" />
    <glyph glyph-name="question" unicode="?" 
d="M235 249q0 56 17.5 96.5t66.5 79.5q47 37 64 60t17 58q0 41 -25 66t-72 25q-49 0 -75 -30.5t-30 -72.5h-81q3 70 48 124.5t138 54.5q84 0 131.5 -44t47.5 -120q0 -54 -23 -88.5t-76 -75.5q-67 -54 -67 -139v-39h-81v45zM280 -5q-27 0 -46.5 19t-19.5 45q0 28 19.5 47
t46.5 19q26 0 45 -19t19 -47q0 -26 -19 -45t-45 -19z" />
    <glyph glyph-name="at" unicode="@" 
d="M302 710q129 0 204 -110t75 -328q0 -153 -25 -209.5t-91 -56.5q-33 0 -56 17t-29 45q-25 -62 -94 -62q-58 0 -92.5 56t-34.5 179q0 124 32.5 184t87.5 60q47 0 70 -41h6l10 34h58v-339q0 -73 44 -73q31 0 39.5 41t8.5 161q0 383 -216 383q-102 0 -158 -104.5t-56 -306.5
q0 -388 225 -388q77 0 138 44l29 -53q-69 -53 -170 -53q-138 0 -213 111.5t-75 339.5q0 234 76 351.5t207 117.5zM293 71q63 -2 63 175q0 97 -16.5 136t-46.5 39q-30 1 -46 -37t-16 -138q0 -99 16 -137t46 -38z" />
    <glyph glyph-name="A" unicode="A" 
d="M479 0l-57 191h-244l-57 -191h-95l218 700h112l218 -700h-95zM201 269h198l-96 320h-7z" />
    <glyph glyph-name="B" unicode="B" 
d="M425 365q116 -43 116 -175q0 -90 -56 -140t-157 -50h-252v700h248q97 0 148.5 -47t51.5 -127q0 -110 -99 -156v-5zM164 625v-227h152q56 0 87 31.5t31 85.5q0 52 -31 81t-84 29h-155zM321 75q60 0 94.5 33t34.5 88q0 56 -35 91.5t-94 35.5h-157v-248h157z" />
    <glyph glyph-name="C" unicode="C" 
d="M550 213q-14 -109 -76 -166t-157 -57q-125 0 -192.5 94.5t-67.5 262.5q0 169 68.5 266t191.5 97q93 0 152 -56.5t73 -172.5h-93q-22 145 -132 145q-80 0 -124 -74t-44 -205q0 -132 44.5 -202.5t123.5 -70.5q113 0 140 139h93z" />
    <glyph glyph-name="D" unicode="D" 
d="M242 700q150 0 225.5 -94t75.5 -255t-75 -256t-226 -95h-168v700h168zM237 82q105 0 159.5 68t54.5 201q0 267 -214 267h-72v-536h72z" />
    <glyph glyph-name="E" unicode="E" 
d="M178 81h337v-81h-425v700h415v-81h-327v-224h285v-80h-285v-234z" />
    <glyph glyph-name="F" unicode="F" 
d="M508 618h-313v-233h271v-80h-271v-305h-91v700h404v-82z" />
    <glyph glyph-name="G" unicode="G" 
d="M304 364h230v-364h-70l-11 64h-7q-10 -25 -49.5 -49.5t-103.5 -24.5q-115 0 -178 90.5t-63 257.5q0 174 69 273t190 99q91 0 148.5 -55t70.5 -154h-95q-28 125 -124 125q-79 0 -122.5 -75t-43.5 -213q0 -133 42 -200t120 -67q63 0 101 41t38 116v63h-142v73z" />
    <glyph glyph-name="H" unicode="H" 
d="M435 700h91v-700h-91v313h-270v-313h-91v700h91v-305h270v305z" />
    <glyph glyph-name="I" unicode="I" 
d="M345 81h179v-81h-449v81h180v538h-175v81h439v-81h-174v-538z" />
    <glyph glyph-name="J" unicode="J" 
d="M162 201q3 -56 36 -91.5t94 -35.5q62 0 96 36t34 110v480h91v-485q0 -112 -59.5 -168.5t-161.5 -56.5q-105 0 -161.5 57t-60.5 154h92z" />
    <glyph glyph-name="K" unicode="K" 
d="M446 0l-231 318h-50v-318h-91v700h91v-300h50l208 300h105l-230 -336v-5l253 -359h-105z" />
    <glyph glyph-name="L" unicode="L" 
d="M177 82h343v-82h-436v700h93v-618z" />
    <glyph glyph-name="M" unicode="M" 
d="M526 700v-700h-82v528h-7l-94 -253h-84l-96 253h-7v-528h-82v700h107l116 -319h7l116 319h106z" />
    <glyph glyph-name="N" unicode="N" 
d="M440 700h86v-700h-94l-266 529h-6v-529h-86v700h95l265 -529h6v529z" />
    <glyph glyph-name="O" unicode="O" 
d="M301 -10q-114 0 -181 95t-67 265q0 168 66.5 264t181.5 96q113 0 180 -96t67 -264t-67 -264t-180 -96zM301 74q73 0 114.5 71.5t41.5 204.5t-41.5 204.5t-114.5 71.5q-74 0 -116 -71.5t-42 -204.5t42 -204.5t116 -71.5z" />
    <glyph glyph-name="P" unicode="P" 
d="M326 700q97 0 155 -58t58 -152q0 -98 -59.5 -155.5t-160.5 -57.5h-157v-277h-87v700h251zM305 358q68 0 105 35t37 97q0 60 -37.5 94.5t-98.5 34.5h-149v-261h143z" />
    <glyph glyph-name="Q" unicode="Q" 
d="M367 0q21 -52 87 -52q26 0 53 6v-67q-35 -8 -68 -8q-118 0 -152 111q-108 6 -171 100.5t-63 259.5q0 168 66.5 264t181.5 96q113 0 180 -96t67 -264q0 -141 -48 -232t-133 -118zM143 350q0 -133 42 -204.5t116 -71.5q73 0 114.5 71.5t41.5 204.5t-41.5 204.5t-114.5 71.5
q-74 0 -116 -71.5t-42 -204.5z" />
    <glyph glyph-name="R" unicode="R" 
d="M557 0h-99l-173 294h-122v-294h-89v700h234q100 0 159 -54t59 -144q0 -75 -40 -124.5t-112 -68.5zM163 621v-248h132q66 0 103 34t37 91q0 59 -37.5 91t-102.5 32h-132z" />
    <glyph glyph-name="S" unicode="S" 
d="M527 182q0 -94 -64 -143t-166 -49q-108 0 -171 55.5t-70 154.5h90q8 -64 47 -97.5t105 -33.5q60 0 99.5 27.5t39.5 83.5q0 32 -12 55.5t-38 39.5t-45.5 24t-54.5 19l-26 8q-38 13 -64.5 25t-56.5 34t-46 55.5t-16 76.5q0 87 63.5 140t159.5 53q98 0 159.5 -55.5
t66.5 -142.5h-86q-6 52 -42 85.5t-97 33.5q-60 0 -97 -31.5t-37 -80.5q0 -22 10 -40.5t19.5 -28.5t34.5 -21.5t34 -14.5l39 -13l23 -8q22 -7 33.5 -11t35.5 -15t38.5 -21t34 -27t30.5 -35.5t19 -45t8 -56.5z" />
    <glyph glyph-name="T" unicode="T" 
d="M548 700v-82h-203v-618h-90v618h-203v82h496z" />
    <glyph glyph-name="U" unicode="U" 
d="M524 700v-466q0 -116 -60.5 -180t-162.5 -64q-103 0 -164 64t-61 180v466h91v-476q0 -72 37.5 -111t96.5 -39t95.5 39t36.5 111v476h91z" />
    <glyph glyph-name="V" unicode="V" 
d="M476 700h98l-219 -700h-112l-217 700h98l172 -570h8z" />
    <glyph glyph-name="W" unicode="W" 
d="M489 700h84l-84 -700h-98l-88 426h-7l-87 -426h-98l-85 700h87l54 -527h7l79 377h94l77 -377h7z" />
    <glyph glyph-name="X" unicode="X" 
d="M462 0l-157 284h-6l-158 -284h-106l205 361l-195 339h106l148 -264h6l147 264h103l-194 -339l205 -361h-104z" />
    <glyph glyph-name="Y" unicode="Y" 
d="M466 700h108l-228 -353v-347h-90v347l-230 353h108l163 -251h7z" />
    <glyph glyph-name="Z" unicode="Z" 
d="M186 82h349v-82h-481v51l352 562v5h-332v82h459v-51l-347 -562v-5z" />
    <glyph glyph-name="bracketleft" unicode="[" 
d="M193 773h251v-65h-175v-812h175v-65h-251v942z" />
    <glyph glyph-name="backslash" unicode="\" 
d="M52 750h84l412 -800h-86z" />
    <glyph glyph-name="bracketright" unicode="]" 
d="M407 773v-942h-251v65h175v812h-175v65h251z" />
    <glyph glyph-name="asciicircum" unicode="^" 
d="M430 360l-126 252h-6l-128 -252h-91l169 340h105l168 -340h-91z" />
    <glyph glyph-name="underscore" unicode="_" 
d="M82 0h435v-75h-435v75z" />
    <glyph glyph-name="grave" unicode="`" 
d="M305 700l69 -145h-70l-77 145h78z" />
    <glyph glyph-name="a" unicode="a" 
d="M531 68h13v-68h-40q-74 0 -89 65q-57 -75 -169 -75q-75 0 -122 36t-47 106q0 69 47.5 108t126.5 46l153 15v27q0 51 -28.5 80.5t-79.5 29.5q-93 0 -112 -95h-87q8 74 60.5 120.5t139.5 46.5q88 0 141.5 -48t53.5 -136v-217q0 -41 39 -41zM404 192v43l-125 -12
q-115 -10 -115 -87q0 -39 26.5 -57.5t67.5 -18.5q58 0 102 32.5t44 99.5z" />
    <glyph glyph-name="b" unicode="b" 
d="M317 510q100 0 165 -71t65 -188q0 -116 -64.5 -188.5t-165.5 -72.5q-105 0 -161 81h-7l-8 -71h-72v710h88v-276q53 76 160 76zM306 66q68 0 110.5 51t42.5 134q0 82 -42.5 132.5t-110.5 50.5t-108.5 -50t-40.5 -133q0 -84 40.5 -134.5t108.5 -50.5z" />
    <glyph glyph-name="c" unicode="c" 
d="M533 163q-14 -79 -76 -126t-152 -47q-111 0 -179.5 73t-68.5 184q0 114 70 188.5t178 74.5q87 0 150 -47.5t75 -131.5h-88q-9 45 -45.5 74t-91.5 29q-71 0 -115.5 -53t-44.5 -134q0 -79 43.5 -130t116.5 -51q110 0 140 97h88z" />
    <glyph glyph-name="d" unicode="d" 
d="M443 710h88v-710h-72l-8 71h-7q-56 -81 -161 -81q-101 0 -165.5 72.5t-64.5 188.5q0 117 65 188t165 71q107 0 160 -76v276zM294 66q68 0 108.5 50.5t40.5 134.5q0 83 -40.5 133t-108.5 50t-110.5 -50.5t-42.5 -132.5q0 -83 42.5 -134t110.5 -51z" />
    <glyph glyph-name="e" unicode="e" 
d="M527 260q0 -7 -2 -31h-375q4 -75 46.5 -121t110.5 -46q50 0 84.5 21.5t47.5 62.5h85q-16 -74 -74 -115t-143 -41q-107 0 -174.5 70t-67.5 185q0 119 67.5 192t170.5 73q97 0 160.5 -65t63.5 -185zM303 438q-62 0 -103.5 -41.5t-48.5 -103.5h290q0 65 -38.5 105t-99.5 40z
" />
    <glyph glyph-name="f" unicode="f" 
d="M529 500v-71h-220v-429h-87v429h-150v71h150v40q0 86 50.5 128t125.5 42q54 0 103 -22l-18 -65q-42 14 -72 14q-50 0 -76 -28.5t-26 -78.5v-30h220z" />
    <glyph glyph-name="g" unicode="g" 
d="M356 94q91 0 138.5 -37t47.5 -105q0 -77 -65 -119.5t-168 -42.5q-117 0 -180 48t-72 123l93 71q-32 11 -51 35t-19 56q0 60 68 93q-57 48 -57 122q0 75 58 123.5t151 48.5q69 0 122 -32q56 27 90 70l52 -52q-39 -39 -92 -60q34 -43 34 -98q0 -77 -58.5 -123.5
t-147.5 -46.5q-56 0 -100 18q-40 -16 -40 -46q0 -46 82 -46h114zM300 443q-56 0 -90 -29.5t-34 -75.5q0 -44 34.5 -73.5t89.5 -29.5q54 0 87.5 29.5t33.5 73.5q0 46 -33 75.5t-88 29.5zM309 -141q61 0 105 23t44 67q0 36 -29 55t-81 19h-107l-97 -71q12 -40 52.5 -66.5
t112.5 -26.5z" />
    <glyph glyph-name="h" unicode="h" 
d="M331 510q84 0 135 -50.5t51 -143.5v-316h-88v299q0 68 -34 101.5t-89 33.5q-59 0 -96.5 -36t-37.5 -108v-290h-88v710h88v-273h6q52 73 153 73z" />
    <glyph glyph-name="i" unicode="i" 
d="M302 580q-24 0 -41.5 17t-17.5 41t17.5 40.5t41.5 16.5q23 0 40 -16.5t17 -40.5t-17 -41t-40 -17zM344 69h177v-69h-442v69h178v362h-168v69h255v-431z" />
    <glyph glyph-name="j" unicode="j" 
d="M371 580q-24 0 -41.5 17t-17.5 41t17.5 40.5t41.5 16.5q23 0 40 -16.5t17 -40.5t-17 -41t-40 -17zM135 500h278v-524q0 -186 -186 -186q-44 0 -90 11v70q32 -9 69 -9q34 0 58.5 10t36 22.5t18 33t7 31.5t0.5 28v444h-191v69z" />
    <glyph glyph-name="k" unicode="k" 
d="M535 500l-225 -206l225 -294h-100l-186 237l-69 -63v-174h-88v710h88v-428h6l241 218h108z" />
    <glyph glyph-name="l" unicode="l" 
d="M336 69h177v-69h-442v69h177v562h-167v69h255v-631z" />
    <glyph glyph-name="m" unicode="m" 
d="M439 510q52 0 83.5 -34t31.5 -101v-375h-83v363q0 32 -16 52t-43 20q-31 0 -50.5 -23.5t-19.5 -63.5v-348h-83v357q0 35 -17 56t-44 21q-29 0 -49 -22t-20 -61v-351h-82v500h74l8 -38h7q33 48 92 48q38 0 63 -19t34 -42h7q33 61 107 61z" />
    <glyph glyph-name="n" unicode="n" 
d="M331 510q84 0 135 -50.5t51 -143.5v-316h-88v299q0 68 -34 101.5t-89 33.5q-59 0 -96.5 -36t-37.5 -108v-290h-88v500h79l9 -63h6q52 73 153 73z" />
    <glyph glyph-name="o" unicode="o" 
d="M300 -10q-107 0 -174 74t-67 187t66.5 186t174.5 73q106 0 173 -73.5t67 -185.5q0 -114 -66.5 -187.5t-173.5 -73.5zM300 66q70 0 111 52.5t41 132.5q0 79 -41.5 131t-110.5 52q-72 0 -112.5 -51.5t-40.5 -131.5t41 -132.5t112 -52.5z" />
    <glyph glyph-name="p" unicode="p" 
d="M317 510q101 0 165.5 -72.5t64.5 -188.5q0 -117 -65 -188t-165 -71q-107 0 -160 76v-266h-88v700h72l8 -71h7q56 81 161 81zM306 66q68 0 110.5 50.5t42.5 132.5q0 83 -42.5 134t-110.5 51t-108.5 -50.5t-40.5 -134.5q0 -83 40.5 -133t108.5 -50z" />
    <glyph glyph-name="q" unicode="q" 
d="M459 500h72v-700h-88v266q-53 -76 -160 -76q-100 0 -165 71t-65 188q0 116 64.5 188.5t165.5 72.5q105 0 161 -81h7zM294 66q68 0 108.5 50t40.5 133q0 84 -40.5 134.5t-108.5 50.5t-110.5 -51t-42.5 -134q0 -82 42.5 -132.5t110.5 -50.5z" />
    <glyph glyph-name="r" unicode="r" 
d="M488 424q-81 0 -131.5 -43.5t-50.5 -122.5v-191h193v-67h-430v67h149v366h-144v67h222l9 -84h7q27 47 70.5 70.5t125.5 23.5h37v-88q-20 2 -57 2z" />
    <glyph glyph-name="s" unicode="s" 
d="M502 135q0 -71 -56.5 -108t-143.5 -37q-105 0 -159.5 44t-58.5 118h86q10 -93 132 -93q51 0 85 18t34 56q0 30 -27 50.5t-89 34.5l-46 10q-78 17 -117.5 48t-39.5 88q0 68 55 107t136 39q92 0 143 -42t54 -101h-85q-4 33 -35 53.5t-77 20.5t-77 -18.5t-31 -54.5
q0 -33 25.5 -47t87.5 -28l42 -9q83 -19 122.5 -54.5t39.5 -94.5z" />
    <glyph glyph-name="t" unicode="t" 
d="M321 170q0 -106 111 -106q38 0 68 8v-71q-44 -11 -87 -11q-179 0 -179 166v273h-162v71h83q48 0 67.5 19.5t19.5 70.5v46h79v-136h208v-71h-208v-259z" />
    <glyph glyph-name="u" unicode="u" 
d="M269 -10q-84 0 -135 50.5t-51 143.5v316h88v-299q0 -68 34 -101.5t89 -33.5q59 0 96.5 36t37.5 108v290h88v-500h-79l-9 63h-6q-52 -73 -153 -73z" />
    <glyph glyph-name="v" unicode="v" 
d="M455 500h89l-190 -500h-108l-191 500h90l152 -409h7z" />
    <glyph glyph-name="w" unicode="w" 
d="M496 500h79l-92 -500h-98l-81 354h-7l-84 -354h-97l-91 500h80l62 -385h7l78 349h97l77 -349h6z" />
    <glyph glyph-name="x" unicode="x" 
d="M444 0l-140 194h-7l-142 -194h-103l190 260l-173 240h101l127 -173h7l125 173h101l-171 -240l188 -260h-103z" />
    <glyph glyph-name="y" unicode="y" 
d="M544 500l-200 -578q-21 -62 -62 -97t-117 -35q-36 0 -76 11v68q29 -8 63 -8q79 0 110 74l25 65h-30l-202 500h92l164 -409h6l136 409h91z" />
    <glyph glyph-name="z" unicode="z" 
d="M213 70h293v-70h-420v44l292 381v5h-274v70h399v-44l-290 -381v-5z" />
    <glyph glyph-name="braceleft" unicode="{" 
d="M300 413q0 -77 -66 -108v-6q66 -29 66 -108v-228q0 -32 20.5 -49.5t49.5 -17.5h74v-65h-88q-61 0 -96 33.5t-35 93.5v226q0 43 -21.5 63.5t-78.5 24.5v60q57 4 78.5 24.5t21.5 63.5v226q0 60 35 93.5t96 33.5h88v-65h-74q-29 0 -49.5 -18t-20.5 -49v-228z" />
    <glyph glyph-name="bar" unicode="|" 
d="M340 770v-910h-81v910h81z" />
    <glyph glyph-name="braceright" unicode="}" 
d="M300 413v228q0 31 -20.5 49t-49.5 18h-74v65h88q61 0 96 -33.5t35 -93.5v-226q0 -43 21.5 -63.5t78.5 -24.5v-60q-57 -4 -78.5 -24.5t-21.5 -63.5v-226q0 -60 -35 -93.5t-96 -33.5h-88v65h74q29 0 49.5 17.5t20.5 49.5v228q0 79 66 108v6q-66 31 -66 108z" />
    <glyph glyph-name="asciitilde" unicode="~" 
d="M554 357q-7 -70 -43.5 -117.5t-101.5 -47.5q-40 0 -72 16.5t-49.5 36t-41.5 36t-49 16.5q-35 0 -54.5 -26.5t-23.5 -66.5h-72q7 71 44 118t102 47q39 0 71 -16.5t49.5 -36t41.5 -36t49 -16.5q35 0 54.5 26.5t23.5 66.5h72z" />
    <glyph glyph-name="uni00A0" unicode="&#xa0;" 
 />
    <glyph glyph-name="exclamdown" unicode="&#xa1;" 
d="M300 505q27 0 46 -19t19 -45q0 -28 -19 -47t-46 -19q-26 0 -45 19t-19 47q0 26 19 45t45 19zM347 -200h-92l14 496h62z" />
    <glyph glyph-name="cent" unicode="&#xa2;" 
d="M525 240q-13 -69 -63 -112t-125 -51v-76h-74v79q-87 15 -138.5 80.5t-51.5 159.5q0 95 52.5 162.5t137.5 83.5v75h74v-72q72 -8 123 -52.5t62 -117.5h-83q-8 37 -34.5 63.5t-67.5 33.5v-347q81 13 105 91h83zM156 320q0 -61 28.5 -106t78.5 -60v337q-49 -17 -78 -63
t-29 -108z" />
    <glyph glyph-name="sterling" unicode="&#xa3;" 
d="M209 73h323v-73h-471v55q58 20 100 63.5t42 98.5q0 27 -10 54h-132v66h93q-18 26 -26.5 40t-17.5 40t-9 53q0 85 64 132.5t159 47.5q74 0 127.5 -31.5t79.5 -79.5l-63 -48q-48 81 -140 81q-61 0 -96.5 -29.5t-35.5 -79.5q0 -18 7 -36.5t13.5 -28.5t22.5 -32t21 -29h203
v-66h-171q6 -21 6 -45q0 -88 -89 -148v-5z" />
    <glyph glyph-name="currency" unicode="&#xa4;" 
d="M517 250q0 -70 -39 -125l79 -78l-55 -54l-78 78q-55 -38 -125 -38q-69 0 -124 38l-80 -78l-53 54l79 79q-39 55 -39 124q0 70 38 125l-78 78l53 54l80 -78q55 38 125 38q69 0 124 -38l78 78l55 -54l-79 -78q39 -55 39 -125zM300 113q56 0 96 41t40 96t-40 96t-96 41
q-57 0 -97 -41t-40 -96t40 -96t97 -41z" />
    <glyph glyph-name="yen" unicode="&#xa5;" 
d="M564 640l-168 -242h131v-71h-179v-104h179v-71h-179v-152h-94v152h-180v71h180v104h-180v71h131l-168 242h103l157 -227h7l157 227h103z" />
    <glyph glyph-name="brokenbar" unicode="&#xa6;" 
d="M259 770h81v-355h-81v355zM259 -140v355h81v-355h-81z" />
    <glyph glyph-name="section" unicode="&#xa7;" 
d="M418 96q104 -38 104 -133q0 -81 -64 -127t-162 -46q-110 0 -171 56t-59 135h86q1 -48 39 -81.5t106 -33.5q61 0 99.5 25.5t38.5 70.5q0 28 -14 47t-42 30t-48 15.5t-55 9.5q-100 15 -156.5 61.5t-56.5 122.5q0 58 34.5 96.5t84.5 55.5v4q-104 38 -104 134q0 81 64 126.5
t162 45.5q110 0 171 -56t59 -135h-86q-1 48 -39 81.5t-106 33.5q-61 0 -99.5 -25.5t-38.5 -70.5q0 -27 14 -46t42 -30t48 -15.5t55 -9.5q100 -16 156.5 -62.5t56.5 -122.5q0 -57 -35 -95.5t-84 -55.5v-5zM309 135q59 0 99 31t40 82q0 52 -47.5 84.5t-109.5 32.5
q-59 0 -99 -31t-40 -82q0 -52 47.5 -84.5t109.5 -32.5z" />
    <glyph glyph-name="dieresis" unicode="&#xa8;" 
d="M209 558q-23 0 -39 16t-16 39t16 39t39 16t38.5 -16t15.5 -39t-16 -39t-38 -16zM391 558q-22 0 -38 16.5t-16 38.5q0 23 16 39t38 16q23 0 38.5 -16t15.5 -39t-16 -39t-38 -16z" />
    <glyph glyph-name="copyright" unicode="&#xa9;" 
d="M300 -10q-120 0 -195 96t-75 264t75 264t195 96t195 -96.5t75 -263.5t-75 -263.5t-195 -96.5zM299 48q95 0 153.5 80t58.5 222t-58.5 222t-153.5 80q-93 0 -151.5 -80.5t-58.5 -221.5t58.5 -221.5t151.5 -80.5zM437 286q-6 -56 -45.5 -86.5t-89.5 -30.5q-67 0 -107 49
t-40 131q0 80 41.5 130t104.5 50q51 0 87.5 -29t43.5 -91h-66q-12 59 -65 59q-35 0 -55.5 -33t-20.5 -87q0 -56 21 -87t58 -31q52 0 66 56h67z" />
    <glyph glyph-name="guillemotleft" unicode="&#xab;" 
d="M208 97l-157 202l157 202h102l-158 -202l158 -202h-102zM448 97l-157 202l157 202h102l-159 -202l159 -202h-102z" />
    <glyph glyph-name="logicalnot" unicode="&#xac;" 
d="M512 145h-77v194h-358v70h435v-264z" />
    <glyph glyph-name="uni00AD" unicode="&#xad;" 
d="M117 349h366v-76h-366v76z" />
    <glyph glyph-name="registered" unicode="&#xae;" 
d="M300 710q120 0 195 -96.5t75 -263.5t-75 -263.5t-195 -96.5t-195 96t-75 264t75 264t195 96zM299 48q95 0 153.5 80t58.5 222t-58.5 222t-153.5 80q-93 0 -151.5 -80.5t-58.5 -221.5t58.5 -221.5t151.5 -80.5zM413 419q0 -70 -58 -93l70 -152h-65l-59 136h-46v-136h-61
v350h119q47 0 73.5 -28t26.5 -77zM255 468v-102h49q24 0 36.5 14t12.5 38q0 50 -49 50h-49z" />
    <glyph glyph-name="macron" unicode="&#xaf;" 
d="M150 645h301v-64h-301v64z" />
    <glyph glyph-name="degree" unicode="&#xb0;" 
d="M300 393q-66 0 -112.5 46t-46.5 112t46.5 112.5t112.5 46.5q65 0 112 -46.5t47 -112.5t-47 -112t-112 -46zM300 460q40 0 65.5 26t25.5 65q0 40 -25.5 65.5t-65.5 25.5q-39 0 -65 -25.5t-26 -65.5q0 -39 26 -65t65 -26z" />
    <glyph glyph-name="plusminus" unicode="&#xb1;" 
d="M340 384h179v-69h-179v-175h-79v175h-180v69h180v174h79v-174zM81 0v73h438v-73h-438z" />
    <glyph glyph-name="uni00B2" unicode="&#xb2;" 
d="M297 471q-51 -33 -55 -78h187v-52h-259v23q0 90 82 145l61 38q54 35 54 73q0 26 -17 42t-44 16q-33 0 -51.5 -21.5t-19.5 -48.5h-64q3 48 39 85.5t99 37.5q54 0 88 -29.5t34 -78.5q0 -30 -14 -54.5t-25.5 -33.5t-29.5 -21z" />
    <glyph glyph-name="uni00B3" unicode="&#xb3;" 
d="M368 538q65 -22 65 -91q0 -48 -39.5 -80t-101.5 -32q-60 0 -95.5 30.5t-40.5 84.5h62q9 -62 74 -62q34 0 55.5 17t21.5 45t-20 45.5t-53 17.5h-38v48h35q29 0 47 16t18 43t-18.5 43t-47.5 16q-27 0 -46 -14.5t-25 -40.5h-59q3 47 42 76.5t91 29.5t88.5 -29.5t36.5 -77.5
q0 -53 -52 -82v-3z" />
    <glyph glyph-name="acute" unicode="&#xb4;" 
d="M295 700h78l-77 -145h-70z" />
    <glyph glyph-name="uni00B5" unicode="&#xb5;" 
d="M428 500h88v-500h-79l-9 63h-6q-52 -73 -153 -73q-59 0 -101 27v-217h-85v700h88v-299q0 -68 34 -101.5t89 -33.5q59 0 96.5 36t37.5 108v290z" />
    <glyph glyph-name="paragraph" unicode="&#xb6;" 
d="M26 512q0 83 59 135.5t148 52.5h341v-78h-81v-622h-77v622h-106v-622h-77v323q-87 0 -147 52.5t-60 136.5z" />
    <glyph glyph-name="periodcentered" unicode="&#xb7;" 
d="M301 251q-27 0 -46.5 19.5t-19.5 45.5q0 27 19.5 46t46.5 19q26 0 45 -19t19 -46q0 -26 -19 -45.5t-45 -19.5z" />
    <glyph glyph-name="cedilla" unicode="&#xb8;" 
d="M235 -149q28 -16 52 -16q23 0 36.5 11.5t13.5 29.5q0 42 -52 42q-15 0 -35 -8l-29 25l51 75h50v-10l-31 -44q38 2 68.5 -20t30.5 -63q0 -38 -27 -60.5t-74 -22.5q-43 0 -72 21z" />
    <glyph glyph-name="uni00B9" unicode="&#xb9;" 
d="M277 340v266h-79v50h37q49 0 49 49v20h55v-385h-62z" />
    <glyph glyph-name="guillemotright" unicode="&#xbb;" 
d="M152 97h-102l159 202l-159 202h102l157 -202zM392 97h-102l158 202l-158 202h102l157 -202z" />
    <glyph glyph-name="onequarter" unicode="&#xbc;" 
d="M269 405v266h-79v50h37q49 0 49 49v20h55v-385h-62zM87 337h426v-52h-426v52zM453 -16v-48h-69v-86h-58v86h-181v31l176 268h63v-251h69zM216 -16h110v169h-5z" />
    <glyph glyph-name="onehalf" unicode="&#xbd;" 
d="M269 405v266h-79v50h37q49 0 49 49v20h55v-385h-62zM87 337h426v-52h-426v52zM300 -20q-51 -33 -55 -78h187v-52h-259v23q0 91 83 145l60 38q54 35 54 73q0 26 -17 42t-44 16q-33 0 -51.5 -21.5t-19.5 -48.5h-64q3 48 39 85.5t99 37.5q54 0 88 -29.5t34 -78.5
q0 -30 -14 -54.5t-25.5 -33.5t-29.5 -21z" />
    <glyph glyph-name="threequarters" unicode="&#xbe;" 
d="M368 603q65 -22 65 -91q0 -48 -39.5 -80t-101.5 -32q-60 0 -95.5 30.5t-39.5 84.5h61q10 -62 74 -62q34 0 55.5 17t21.5 45t-20 45.5t-53 17.5h-38v48h35q29 0 47 16t18 43t-18.5 43t-47.5 16q-26 0 -45.5 -14.5t-24.5 -40.5h-60q3 47 42 76.5t91 29.5t88.5 -29.5
t36.5 -77.5q0 -53 -52 -82v-3zM87 337h426v-52h-426v52zM453 -16v-48h-69v-86h-58v86h-181v31l176 268h63v-251h69zM216 -16h110v169h-5z" />
    <glyph glyph-name="questiondown" unicode="&#xbf;" 
d="M319 505q27 0 46.5 -19t19.5 -45q0 -28 -19.5 -47t-46.5 -19q-26 0 -45 19t-19 47q0 26 19 45t45 19zM364 251q0 -56 -17.5 -96.5t-66.5 -79.5q-47 -37 -64 -60t-17 -58q0 -41 25 -66t72 -25q49 0 75 30.5t30 72.5h81q-3 -70 -48 -124.5t-138 -54.5q-84 0 -131.5 44
t-47.5 120q0 54 23 88.5t76 75.5q67 54 67 139v39h81v-45z" />
    <glyph glyph-name="Agrave" unicode="&#xc0;" 
d="M335 755h-70l-77 145h78zM479 0l-57 191h-244l-57 -191h-95l218 700h112l218 -700h-95zM201 269h198l-96 320h-7z" />
    <glyph glyph-name="Aacute" unicode="&#xc1;" 
d="M412 900l-77 -145h-70l69 145h78zM479 0l-57 191h-244l-57 -191h-95l218 700h112l218 -700h-95zM201 269h198l-96 320h-7z" />
    <glyph glyph-name="Acircumflex" unicode="&#xc2;" 
d="M297 845l-58 -86h-79l101 141h78l102 -141h-79l-60 86h-5zM479 0l-57 191h-244l-57 -191h-95l218 700h112l218 -700h-95zM201 269h198l-96 320h-7z" />
    <glyph glyph-name="Atilde" unicode="&#xc3;" 
d="M237 812q-40 0 -46 -55h-63q5 52 30.5 85.5t70.5 33.5q26 0 47 -10t32 -22t25.5 -22t29.5 -10q41 0 47 55h62q-3 -49 -29 -83.5t-71 -34.5q-25 0 -46 10t-32.5 21.5t-26.5 21.5t-30 10zM479 0l-57 191h-244l-57 -191h-95l218 700h112l218 -700h-95zM201 269h198l-96 320
h-7z" />
    <glyph glyph-name="Adieresis" unicode="&#xc4;" 
d="M186 766q-25 0 -43 17.5t-18 42.5t18 42.5t43 17.5t42.5 -17.5t17.5 -42.5t-17.5 -42.5t-42.5 -17.5zM415 766q-24 0 -41.5 17.5t-17.5 42.5t17.5 42.5t41.5 17.5q25 0 43 -17.5t18 -42.5t-18 -42.5t-43 -17.5zM479 0l-57 191h-244l-57 -191h-95l218 700h112l218 -700
h-95zM201 269h198l-96 320h-7z" />
    <glyph glyph-name="Aring" unicode="&#xc5;" 
d="M300 741q-39 0 -67.5 28.5t-28.5 66.5q0 39 28.5 67t67.5 28t67.5 -28t28.5 -67q0 -38 -28.5 -66.5t-67.5 -28.5zM301 879q-18 0 -30.5 -12.5t-12.5 -30.5t12.5 -31t30.5 -13q17 0 29 13t12 31q0 17 -12.5 30t-28.5 13zM479 0l-57 191h-244l-57 -191h-95l218 700h112
l218 -700h-95zM201 269h198l-96 320h-7z" />
    <glyph glyph-name="AE" unicode="&#xc6;" 
d="M396 77h181v-77h-267v193h-142l-66 -193h-85l229 700h321v-77h-171v-229h142v-78h-142v-239zM187 267h123v333h-6z" />
    <glyph glyph-name="Ccedilla" unicode="&#xc7;" 
d="M550 213q-13 -102 -69 -159t-142 -63l-25 -35q38 2 68.5 -20t30.5 -63q0 -38 -27 -60.5t-74 -22.5q-43 0 -72 21l18 40q28 -16 52 -16q23 0 36.5 11.5t13.5 29.5q0 42 -52 42q-15 0 -35 -8l-29 25l39 57q-109 13 -167.5 106t-58.5 249q0 169 68.5 266t191.5 97
q93 0 152 -56.5t73 -172.5h-93q-22 145 -132 145q-80 0 -124 -74t-44 -205q0 -132 44.5 -202.5t123.5 -70.5q113 0 140 139h93z" />
    <glyph glyph-name="Egrave" unicode="&#xc8;" 
d="M264 900l69 -145h-70l-77 145h78zM178 81h337v-81h-425v700h415v-81h-327v-224h285v-80h-285v-234z" />
    <glyph glyph-name="Eacute" unicode="&#xc9;" 
d="M331 900h78l-77 -145h-70zM178 81h337v-81h-425v700h415v-81h-327v-224h285v-80h-285v-234z" />
    <glyph glyph-name="Ecircumflex" unicode="&#xca;" 
d="M236 759h-79l101 141h78l102 -141h-79l-60 86h-5zM178 81h337v-81h-425v700h415v-81h-327v-224h285v-80h-285v-234z" />
    <glyph glyph-name="Edieresis" unicode="&#xcb;" 
d="M183 766q-25 0 -43 17.5t-18 42.5t18 42.5t43 17.5t42.5 -17.5t17.5 -42.5t-17.5 -42.5t-42.5 -17.5zM412 766q-24 0 -41.5 17.5t-17.5 42.5t17.5 42.5t41.5 17.5q25 0 43 -17.5t18 -42.5t-18 -42.5t-43 -17.5zM178 81h337v-81h-425v700h415v-81h-327v-224h285v-80h-285
v-234z" />
    <glyph glyph-name="Igrave" unicode="&#xcc;" 
d="M336 755h-70l-77 145h78zM345 81h179v-81h-449v81h180v538h-175v81h439v-81h-174v-538z" />
    <glyph glyph-name="Iacute" unicode="&#xcd;" 
d="M412 900l-77 -145h-70l69 145h78zM345 81h179v-81h-449v81h180v538h-175v81h439v-81h-174v-538z" />
    <glyph glyph-name="Icircumflex" unicode="&#xce;" 
d="M297 845l-58 -86h-79l101 141h78l102 -141h-79l-60 86h-5zM345 81h179v-81h-449v81h180v538h-175v81h439v-81h-174v-538z" />
    <glyph glyph-name="Idieresis" unicode="&#xcf;" 
d="M186 766q-25 0 -43 17.5t-18 42.5t18 42.5t43 17.5t42.5 -17.5t17.5 -42.5t-17.5 -42.5t-42.5 -17.5zM415 766q-24 0 -41.5 17.5t-17.5 42.5t17.5 42.5t41.5 17.5q25 0 43 -17.5t18 -42.5t-18 -42.5t-43 -17.5zM345 81h179v-81h-449v81h180v538h-175v81h439v-81h-174
v-538z" />
    <glyph glyph-name="Eth" unicode="&#xd0;" 
d="M242 700q150 0 225.5 -94t75.5 -255t-75 -256t-226 -95h-168v315h-112v69h112v316h168zM237 82q105 0 159.5 68t54.5 201q0 267 -214 267h-72v-234h144v-69h-144v-233h72z" />
    <glyph glyph-name="Ntilde" unicode="&#xd1;" 
d="M472 867q-3 -49 -29 -83.5t-71 -34.5q-25 0 -46 10t-32.5 21.5t-26.5 21.5t-30 10q-40 0 -46 -55h-63q5 52 30.5 85.5t70.5 33.5q26 0 47 -10t32 -22t25.5 -22t29.5 -10q41 0 47 55h62zM440 700h86v-700h-94l-266 529h-6v-529h-86v700h95l265 -529h6v529z" />
    <glyph glyph-name="Ograve" unicode="&#xd2;" 
d="M267 900l69 -145h-70l-77 145h78zM301 -10q-114 0 -181 95t-67 265q0 168 66.5 264t181.5 96q113 0 180 -96t67 -264t-67 -264t-180 -96zM301 74q73 0 114.5 71.5t41.5 204.5t-41.5 204.5t-114.5 71.5q-74 0 -116 -71.5t-42 -204.5t42 -204.5t116 -71.5z" />
    <glyph glyph-name="Oacute" unicode="&#xd3;" 
d="M334 900h78l-77 -145h-70zM301 -10q-114 0 -181 95t-67 265q0 168 66.5 264t181.5 96q113 0 180 -96t67 -264t-67 -264t-180 -96zM301 74q73 0 114.5 71.5t41.5 204.5t-41.5 204.5t-114.5 71.5q-74 0 -116 -71.5t-42 -204.5t42 -204.5t116 -71.5z" />
    <glyph glyph-name="Ocircumflex" unicode="&#xd4;" 
d="M239 759h-79l101 141h78l102 -141h-79l-60 86h-5zM301 -10q-114 0 -181 95t-67 265q0 168 66.5 264t181.5 96q113 0 180 -96t67 -264t-67 -264t-180 -96zM301 74q73 0 114.5 71.5t41.5 204.5t-41.5 204.5t-114.5 71.5q-74 0 -116 -71.5t-42 -204.5t42 -204.5t116 -71.5z
" />
    <glyph glyph-name="Otilde" unicode="&#xd5;" 
d="M472 867q-3 -49 -29 -83.5t-71 -34.5q-25 0 -46 10t-32.5 21.5t-26.5 21.5t-30 10q-40 0 -46 -55h-63q5 52 30.5 85.5t70.5 33.5q26 0 47 -10t32 -22t25.5 -22t29.5 -10q41 0 47 55h62zM301 -10q-114 0 -181 95t-67 265q0 168 66.5 264t181.5 96q113 0 180 -96t67 -264
t-67 -264t-180 -96zM301 74q73 0 114.5 71.5t41.5 204.5t-41.5 204.5t-114.5 71.5q-74 0 -116 -71.5t-42 -204.5t42 -204.5t116 -71.5z" />
    <glyph glyph-name="Odieresis" unicode="&#xd6;" 
d="M186 766q-25 0 -43 17.5t-18 42.5t18 42.5t43 17.5t42.5 -17.5t17.5 -42.5t-17.5 -42.5t-42.5 -17.5zM415 766q-24 0 -41.5 17.5t-17.5 42.5t17.5 42.5t41.5 17.5q25 0 43 -17.5t18 -42.5t-18 -42.5t-43 -17.5zM301 -10q-114 0 -181 95t-67 265q0 168 66.5 264t181.5 96
q113 0 180 -96t67 -264t-67 -264t-180 -96zM301 74q73 0 114.5 71.5t41.5 204.5t-41.5 204.5t-114.5 71.5q-74 0 -116 -71.5t-42 -204.5t42 -204.5t116 -71.5z" />
    <glyph glyph-name="multiply" unicode="&#xd7;" 
d="M517 440l-163 -160l163 -160l-53 -53l-163 160l-164 -160l-53 53l163 160l-163 160l52 54l164 -161l164 161z" />
    <glyph glyph-name="Oslash" unicode="&#xd8;" 
d="M485 608q63 -96 63 -258q0 -168 -67 -264t-180 -96q-78 0 -136 46l-44 -79l-61 34l56 100q-63 96 -63 259q0 168 66.5 264t181.5 96q76 0 133 -45l44 79l63 -35zM140 350q0 -102 25 -169l228 409q-37 39 -92 39q-75 0 -118 -72t-43 -207zM301 71q75 0 117.5 72.5
t42.5 206.5q0 103 -26 170l-228 -409q38 -40 94 -40z" />
    <glyph glyph-name="Ugrave" unicode="&#xd9;" 
d="M266 900l69 -145h-70l-77 145h78zM524 700v-466q0 -116 -60.5 -180t-162.5 -64q-103 0 -164 64t-61 180v466h91v-476q0 -72 37.5 -111t96.5 -39t95.5 39t36.5 111v476h91z" />
    <glyph glyph-name="Uacute" unicode="&#xda;" 
d="M334 900h78l-77 -145h-70zM524 700v-466q0 -116 -60.5 -180t-162.5 -64q-103 0 -164 64t-61 180v466h91v-476q0 -72 37.5 -111t96.5 -39t95.5 39t36.5 111v476h91z" />
    <glyph glyph-name="Ucircumflex" unicode="&#xdb;" 
d="M239 759h-79l101 141h78l102 -141h-79l-60 86h-5zM524 700v-466q0 -116 -60.5 -180t-162.5 -64q-103 0 -164 64t-61 180v466h91v-476q0 -72 37.5 -111t96.5 -39t95.5 39t36.5 111v476h91z" />
    <glyph glyph-name="Udieresis" unicode="&#xdc;" 
d="M186 766q-25 0 -43 17.5t-18 42.5t18 42.5t43 17.5t42.5 -17.5t17.5 -42.5t-17.5 -42.5t-42.5 -17.5zM415 766q-24 0 -41.5 17.5t-17.5 42.5t17.5 42.5t41.5 17.5q25 0 43 -17.5t18 -42.5t-18 -42.5t-43 -17.5zM524 700v-466q0 -116 -60.5 -180t-162.5 -64
q-103 0 -164 64t-61 180v466h91v-476q0 -72 37.5 -111t96.5 -39t95.5 39t36.5 111v476h91z" />
    <glyph glyph-name="Yacute" unicode="&#xdd;" 
d="M334 900h78l-77 -145h-70zM466 700h108l-228 -353v-347h-90v347l-230 353h108l163 -251h7z" />
    <glyph glyph-name="Thorn" unicode="&#xde;" 
d="M326 561q97 0 155.5 -58t58.5 -152q0 -98 -59.5 -155.5t-161.5 -57.5h-157v-138h-88v700h88v-139h164zM305 219q68 0 105 35t37 97q0 60 -37.5 94.5t-97.5 34.5h-150v-261h143z" />
    <glyph glyph-name="germandbls" unicode="&#xdf;" 
d="M389 370q130 -40 130 -183q0 -94 -50 -145.5t-139 -51.5q-45 0 -92 15v68q39 -12 79 -12q55 0 87 33.5t32 96.5q0 137 -154 137h-44v71h38q61 0 96 31.5t35 88.5q0 53 -29.5 85.5t-83.5 32.5q-53 0 -86 -32.5t-33 -97.5v-507h-87v504q0 97 54.5 151.5t150.5 54.5
q91 0 145 -48t54 -129q0 -110 -103 -158v-5z" />
    <glyph glyph-name="agrave" unicode="&#xe0;" 
d="M328 555h-70l-77 145h78zM531 68h13v-68h-40q-74 0 -89 65q-57 -75 -169 -75q-75 0 -122 36t-47 106q0 69 47.5 108t126.5 46l153 15v27q0 51 -28.5 80.5t-79.5 29.5q-93 0 -112 -95h-87q8 74 60.5 120.5t139.5 46.5q88 0 141.5 -48t53.5 -136v-217q0 -41 39 -41z
M404 192v43l-125 -12q-115 -10 -115 -87q0 -39 26.5 -57.5t67.5 -18.5q58 0 102 32.5t44 99.5z" />
    <glyph glyph-name="aacute" unicode="&#xe1;" 
d="M405 700l-77 -145h-70l69 145h78zM531 68h13v-68h-40q-74 0 -89 65q-57 -75 -169 -75q-75 0 -122 36t-47 106q0 69 47.5 108t126.5 46l153 15v27q0 51 -28.5 80.5t-79.5 29.5q-93 0 -112 -95h-87q8 74 60.5 120.5t139.5 46.5q88 0 141.5 -48t53.5 -136v-217q0 -41 39 -41
zM404 192v43l-125 -12q-115 -10 -115 -87q0 -39 26.5 -57.5t67.5 -18.5q58 0 102 32.5t44 99.5z" />
    <glyph glyph-name="acircumflex" unicode="&#xe2;" 
d="M290 645l-58 -86h-79l101 141h78l102 -141h-79l-60 86h-5zM531 68h13v-68h-40q-74 0 -89 65q-57 -75 -169 -75q-75 0 -122 36t-47 106q0 69 47.5 108t126.5 46l153 15v27q0 51 -28.5 80.5t-79.5 29.5q-93 0 -112 -95h-87q8 74 60.5 120.5t139.5 46.5q88 0 141.5 -48
t53.5 -136v-217q0 -41 39 -41zM404 192v43l-125 -12q-115 -10 -115 -87q0 -39 26.5 -57.5t67.5 -18.5q58 0 102 32.5t44 99.5z" />
    <glyph glyph-name="atilde" unicode="&#xe3;" 
d="M230 612q-40 0 -46 -55h-63q5 52 30.5 85.5t70.5 33.5q26 0 47 -10t32 -22t25.5 -22t29.5 -10q41 0 47 55h62q-3 -49 -29 -83.5t-71 -34.5q-25 0 -46 10t-32.5 21.5t-26.5 21.5t-30 10zM531 68h13v-68h-40q-74 0 -89 65q-57 -75 -169 -75q-75 0 -122 36t-47 106
q0 69 47.5 108t126.5 46l153 15v27q0 51 -28.5 80.5t-79.5 29.5q-93 0 -112 -95h-87q8 74 60.5 120.5t139.5 46.5q88 0 141.5 -48t53.5 -136v-217q0 -41 39 -41zM404 192v43l-125 -12q-115 -10 -115 -87q0 -39 26.5 -57.5t67.5 -18.5q58 0 102 32.5t44 99.5z" />
    <glyph glyph-name="adieresis" unicode="&#xe4;" 
d="M203 558q-23 0 -39 16t-16 39t16 39t39 16t38.5 -16t15.5 -39t-16 -39t-38 -16zM385 558q-22 0 -38 16.5t-16 38.5q0 23 16 39t38 16q23 0 38.5 -16t15.5 -39t-16 -39t-38 -16zM531 68h13v-68h-40q-74 0 -89 65q-57 -75 -169 -75q-75 0 -122 36t-47 106q0 69 47.5 108
t126.5 46l153 15v27q0 51 -28.5 80.5t-79.5 29.5q-93 0 -112 -95h-87q8 74 60.5 120.5t139.5 46.5q88 0 141.5 -48t53.5 -136v-217q0 -41 39 -41zM404 192v43l-125 -12q-115 -10 -115 -87q0 -39 26.5 -57.5t67.5 -18.5q58 0 102 32.5t44 99.5z" />
    <glyph glyph-name="aring" unicode="&#xe5;" 
d="M293 541q-39 0 -67.5 28.5t-28.5 66.5q0 39 28.5 67t67.5 28t67.5 -28t28.5 -67q0 -38 -28.5 -66.5t-67.5 -28.5zM294 679q-18 0 -30.5 -12.5t-12.5 -30.5t12.5 -31t30.5 -13q17 0 29 13t12 31q0 17 -12.5 30t-28.5 13zM531 68h13v-68h-40q-74 0 -89 65q-57 -75 -169 -75
q-75 0 -122 36t-47 106q0 69 47.5 108t126.5 46l153 15v27q0 51 -28.5 80.5t-79.5 29.5q-93 0 -112 -95h-87q8 74 60.5 120.5t139.5 46.5q88 0 141.5 -48t53.5 -136v-217q0 -41 39 -41zM404 192v43l-125 -12q-115 -10 -115 -87q0 -39 26.5 -57.5t67.5 -18.5q58 0 102 32.5
t44 99.5z" />
    <glyph glyph-name="ae" unicode="&#xe6;" 
d="M414 59q27 0 48.5 20t25.5 66h82q-7 -78 -50 -116.5t-104 -38.5q-88 0 -126 72q-32 -72 -127 -72q-63 0 -100.5 35t-37.5 102q0 85 52.5 125t141.5 40h31v64q0 83 -64 83q-68 0 -71 -85l-84 2q4 76 44 115t108 39q81 0 118 -60q40 60 115 60q68 0 111 -58t43 -191
q0 -21 -1 -34h-235q0 -168 80 -168zM415 441q-35 0 -57 -36.5t-24 -112.5h157q-3 149 -76 149zM173 59q32 0 54.5 24.5t22.5 79.5v64h-22q-57 0 -88 -20.5t-31 -73.5q0 -36 17.5 -55t46.5 -19z" />
    <glyph glyph-name="ccedilla" unicode="&#xe7;" 
d="M533 163q-14 -74 -69.5 -120.5t-137.5 -51.5l-24 -35q38 2 68.5 -20t30.5 -63q0 -38 -27 -60.5t-74 -22.5q-43 0 -72 21l18 40q28 -16 52 -16q23 0 36.5 11.5t13.5 29.5q0 42 -52 42q-15 0 -35 -8l-29 25l39 57q-98 11 -156 81.5t-58 173.5q0 114 70 188.5t178 74.5
q87 0 150 -47.5t75 -131.5h-88q-9 45 -45.5 74t-91.5 29q-71 0 -115.5 -53t-44.5 -134q0 -79 43.5 -130t116.5 -51q110 0 140 97h88z" />
    <glyph glyph-name="egrave" unicode="&#xe8;" 
d="M337 555h-70l-77 145h78zM527 260q0 -7 -2 -31h-375q4 -75 46.5 -121t110.5 -46q50 0 84.5 21.5t47.5 62.5h85q-16 -74 -74 -115t-143 -41q-107 0 -174.5 70t-67.5 185q0 119 67.5 192t170.5 73q97 0 160.5 -65t63.5 -185zM303 438q-62 0 -103.5 -41.5t-48.5 -103.5h290
q0 65 -38.5 105t-99.5 40z" />
    <glyph glyph-name="eacute" unicode="&#xe9;" 
d="M414 700l-77 -145h-70l69 145h78zM527 260q0 -7 -2 -31h-375q4 -75 46.5 -121t110.5 -46q50 0 84.5 21.5t47.5 62.5h85q-16 -74 -74 -115t-143 -41q-107 0 -174.5 70t-67.5 185q0 119 67.5 192t170.5 73q97 0 160.5 -65t63.5 -185zM303 438q-62 0 -103.5 -41.5
t-48.5 -103.5h290q0 65 -38.5 105t-99.5 40z" />
    <glyph glyph-name="ecircumflex" unicode="&#xea;" 
d="M299 645l-58 -86h-79l101 141h78l102 -141h-79l-60 86h-5zM527 260q0 -7 -2 -31h-375q4 -75 46.5 -121t110.5 -46q50 0 84.5 21.5t47.5 62.5h85q-16 -74 -74 -115t-143 -41q-107 0 -174.5 70t-67.5 185q0 119 67.5 192t170.5 73q97 0 160.5 -65t63.5 -185zM303 438
q-62 0 -103.5 -41.5t-48.5 -103.5h290q0 65 -38.5 105t-99.5 40z" />
    <glyph glyph-name="edieresis" unicode="&#xeb;" 
d="M212 558q-22 0 -38.5 16t-16.5 39t16 39t39 16t38.5 -16t15.5 -39t-16 -39t-38 -16zM394 558q-22 0 -38 16.5t-16 38.5q0 23 16 39t38 16q23 0 38.5 -16t15.5 -39t-16 -39t-38 -16zM527 260q0 -7 -2 -31h-375q4 -75 46.5 -121t110.5 -46q50 0 84.5 21.5t47.5 62.5h85
q-16 -74 -74 -115t-143 -41q-107 0 -174.5 70t-67.5 185q0 119 67.5 192t170.5 73q97 0 160.5 -65t63.5 -185zM303 438q-62 0 -103.5 -41.5t-48.5 -103.5h290q0 65 -38.5 105t-99.5 40z" />
    <glyph glyph-name="igrave" unicode="&#xec;" 
d="M267 700l69 -145h-70l-77 145h78zM344 69h177v-69h-442v69h178v362h-168v69h255v-431z" />
    <glyph glyph-name="iacute" unicode="&#xed;" 
d="M335 700h78l-77 -145h-70zM344 69h177v-69h-442v69h178v362h-168v69h255v-431z" />
    <glyph glyph-name="icircumflex" unicode="&#xee;" 
d="M240 559h-79l101 141h78l102 -141h-79l-60 86h-5zM344 69h177v-69h-442v69h178v362h-168v69h255v-431z" />
    <glyph glyph-name="idieresis" unicode="&#xef;" 
d="M211 558q-23 0 -39 16t-16 39t16 39t39 16t38.5 -16t15.5 -39t-16 -39t-38 -16zM393 558q-22 0 -38 16.5t-16 38.5q0 23 16 39t38 16q23 0 38.5 -16t15.5 -39t-16 -39t-38 -16zM344 69h177v-69h-442v69h178v362h-168v69h255v-431z" />
    <glyph glyph-name="eth" unicode="&#xf0;" 
d="M410 583q122 -145 122 -322q0 -126 -65 -198.5t-177 -72.5q-98 0 -167 65t-69 168t64 166.5t163 63.5q48 0 88 -19t61 -47h7q-28 92 -98 173l-157 -50l-17 50l134 43q-55 53 -117 97h102q52 -39 87 -74l101 32l17 -50zM292 64q68 0 111 47t43 116q0 67 -45 109.5
t-113 42.5q-69 0 -111 -44t-42 -113t45 -113.5t112 -44.5z" />
    <glyph glyph-name="ntilde" unicode="&#xf1;" 
d="M472 667q-3 -49 -29 -83.5t-71 -34.5q-25 0 -46 10t-32.5 21.5t-26.5 21.5t-30 10q-40 0 -46 -55h-63q5 52 30.5 85.5t70.5 33.5q26 0 47 -10t32 -22t25.5 -22t29.5 -10q41 0 47 55h62zM331 510q84 0 135 -50.5t51 -143.5v-316h-88v299q0 68 -34 101.5t-89 33.5
q-59 0 -96.5 -36t-37.5 -108v-290h-88v500h79l9 -63h6q52 73 153 73z" />
    <glyph glyph-name="ograve" unicode="&#xf2;" 
d="M266 700l69 -145h-70l-77 145h78zM300 -10q-107 0 -174 74t-67 187t66.5 186t174.5 73q106 0 173 -73.5t67 -185.5q0 -114 -66.5 -187.5t-173.5 -73.5zM300 66q70 0 111 52.5t41 132.5q0 79 -41.5 131t-110.5 52q-72 0 -112.5 -51.5t-40.5 -131.5t41 -132.5t112 -52.5z
" />
    <glyph glyph-name="oacute" unicode="&#xf3;" 
d="M334 700h78l-77 -145h-70zM300 -10q-107 0 -174 74t-67 187t66.5 186t174.5 73q106 0 173 -73.5t67 -185.5q0 -114 -66.5 -187.5t-173.5 -73.5zM300 66q70 0 111 52.5t41 132.5q0 79 -41.5 131t-110.5 52q-72 0 -112.5 -51.5t-40.5 -131.5t41 -132.5t112 -52.5z" />
    <glyph glyph-name="ocircumflex" unicode="&#xf4;" 
d="M239 559h-79l101 141h78l102 -141h-79l-60 86h-5zM300 -10q-107 0 -174 74t-67 187t66.5 186t174.5 73q106 0 173 -73.5t67 -185.5q0 -114 -66.5 -187.5t-173.5 -73.5zM300 66q70 0 111 52.5t41 132.5q0 79 -41.5 131t-110.5 52q-72 0 -112.5 -51.5t-40.5 -131.5
t41 -132.5t112 -52.5z" />
    <glyph glyph-name="otilde" unicode="&#xf5;" 
d="M472 667q-3 -49 -29 -83.5t-71 -34.5q-25 0 -46 10t-32.5 21.5t-26.5 21.5t-30 10q-40 0 -46 -55h-63q5 52 30.5 85.5t70.5 33.5q26 0 47 -10t32 -22t25.5 -22t29.5 -10q41 0 47 55h62zM300 -10q-107 0 -174 74t-67 187t66.5 186t174.5 73q106 0 173 -73.5t67 -185.5
q0 -114 -66.5 -187.5t-173.5 -73.5zM300 66q70 0 111 52.5t41 132.5q0 79 -41.5 131t-110.5 52q-72 0 -112.5 -51.5t-40.5 -131.5t41 -132.5t112 -52.5z" />
    <glyph glyph-name="odieresis" unicode="&#xf6;" 
d="M210 558q-22 0 -38.5 16t-16.5 39t16 39t39 16t38.5 -16t15.5 -39t-16 -39t-38 -16zM392 558q-22 0 -38 16.5t-16 38.5q0 23 16 39t38 16q23 0 38.5 -16t15.5 -39t-16 -39t-38 -16zM300 -10q-107 0 -174 74t-67 187t66.5 186t174.5 73q106 0 173 -73.5t67 -185.5
q0 -114 -66.5 -187.5t-173.5 -73.5zM300 66q70 0 111 52.5t41 132.5q0 79 -41.5 131t-110.5 52q-72 0 -112.5 -51.5t-40.5 -131.5t41 -132.5t112 -52.5z" />
    <glyph glyph-name="divide" unicode="&#xf7;" 
d="M301 397q-25 0 -43 18t-18 41q0 25 18 43t43 18q24 0 41.5 -18t17.5 -43q0 -23 -17.5 -41t-41.5 -18zM67 317h466v-74h-466v74zM301 39q-25 0 -43 17.5t-18 41.5q0 25 18 42.5t43 17.5q24 0 41.5 -17.5t17.5 -42.5q0 -24 -17.5 -41.5t-41.5 -17.5z" />
    <glyph glyph-name="oslash" unicode="&#xf8;" 
d="M477 432q63 -72 63 -181q0 -114 -66.5 -187.5t-173.5 -73.5q-73 0 -129 36l-53 -71l-52 36l57 76q-64 73 -64 184q0 113 66.5 186t174.5 73q72 0 128 -36l53 70l53 -36zM143 251q0 -69 30 -118l210 280q-36 25 -83 25q-73 0 -115 -53t-42 -134zM300 62q72 0 114 54
t42 135q0 66 -29 115l-210 -280q37 -24 83 -24z" />
    <glyph glyph-name="ugrave" unicode="&#xf9;" 
d="M266 700l69 -145h-70l-77 145h78zM269 -10q-84 0 -135 50.5t-51 143.5v316h88v-299q0 -68 34 -101.5t89 -33.5q59 0 96.5 36t37.5 108v290h88v-500h-79l-9 63h-6q-52 -73 -153 -73z" />
    <glyph glyph-name="uacute" unicode="&#xfa;" 
d="M334 700h78l-77 -145h-70zM269 -10q-84 0 -135 50.5t-51 143.5v316h88v-299q0 -68 34 -101.5t89 -33.5q59 0 96.5 36t37.5 108v290h88v-500h-79l-9 63h-6q-52 -73 -153 -73z" />
    <glyph glyph-name="ucircumflex" unicode="&#xfb;" 
d="M239 559h-79l101 141h78l102 -141h-79l-60 86h-5zM269 -10q-84 0 -135 50.5t-51 143.5v316h88v-299q0 -68 34 -101.5t89 -33.5q59 0 96.5 36t37.5 108v290h88v-500h-79l-9 63h-6q-52 -73 -153 -73z" />
    <glyph glyph-name="udieresis" unicode="&#xfc;" 
d="M210 558q-22 0 -38.5 16t-16.5 39t16 39t39 16t38.5 -16t15.5 -39t-16 -39t-38 -16zM392 558q-22 0 -38 16.5t-16 38.5q0 23 16 39t38 16q23 0 38.5 -16t15.5 -39t-16 -39t-38 -16zM269 -10q-84 0 -135 50.5t-51 143.5v316h88v-299q0 -68 34 -101.5t89 -33.5
q59 0 96.5 36t37.5 108v290h88v-500h-79l-9 63h-6q-52 -73 -153 -73z" />
    <glyph glyph-name="yacute" unicode="&#xfd;" 
d="M334 700h78l-77 -145h-70zM544 500l-200 -578q-21 -62 -62 -97t-117 -35q-36 0 -76 11v68q29 -8 63 -8q79 0 110 74l25 65h-30l-202 500h92l164 -409h6l136 409h91z" />
    <glyph glyph-name="thorn" unicode="&#xfe;" 
d="M317 510q101 0 165.5 -72.5t64.5 -188.5q0 -117 -65 -188t-165 -71q-104 0 -160 81v-271h-88v910h80v-281h7q56 81 161 81zM306 66q68 0 110.5 50.5t42.5 132.5q0 83 -42.5 134t-110.5 51t-108.5 -50.5t-40.5 -134.5q0 -83 40.5 -133t108.5 -50z" />
    <glyph glyph-name="ydieresis" unicode="&#xff;" 
d="M210 558q-22 0 -38.5 16t-16.5 39t16 39t39 16t38.5 -16t15.5 -39t-16 -39t-38 -16zM392 558q-22 0 -38 16.5t-16 38.5q0 23 16 39t38 16q23 0 38.5 -16t15.5 -39t-16 -39t-38 -16zM544 500l-200 -578q-21 -62 -62 -97t-117 -35q-36 0 -76 11v68q29 -8 63 -8q79 0 110 74
l25 65h-30l-202 500h92l164 -409h6l136 409h91z" />
    <glyph glyph-name="Amacron" unicode="&#x100;" 
d="M451 845v-64h-301v64h301zM479 0l-57 191h-244l-57 -191h-95l218 700h112l218 -700h-95zM201 269h198l-96 320h-7z" />
    <glyph glyph-name="amacron" unicode="&#x101;" 
d="M444 645v-64h-301v64h301zM531 68h13v-68h-40q-74 0 -89 65q-57 -75 -169 -75q-75 0 -122 36t-47 106q0 69 47.5 108t126.5 46l153 15v27q0 51 -28.5 80.5t-79.5 29.5q-93 0 -112 -95h-87q8 74 60.5 120.5t139.5 46.5q88 0 141.5 -48t53.5 -136v-217q0 -41 39 -41z
M404 192v43l-125 -12q-115 -10 -115 -87q0 -39 26.5 -57.5t67.5 -18.5q58 0 102 32.5t44 99.5z" />
    <glyph glyph-name="Abreve" unicode="&#x102;" 
d="M300 771q-58 0 -95.5 39t-37.5 90h70q0 -31 17 -51t46 -20q28 0 44.5 20t16.5 51h70q0 -51 -36.5 -90t-94.5 -39zM479 0l-57 191h-244l-57 -191h-95l218 700h112l218 -700h-95zM201 269h198l-96 320h-7z" />
    <glyph glyph-name="abreve" unicode="&#x103;" 
d="M293 571q-58 0 -95.5 39t-37.5 90h70q0 -31 17 -51t46 -20q28 0 44.5 20t16.5 51h70q0 -51 -36.5 -90t-94.5 -39zM531 68h13v-68h-40q-74 0 -89 65q-57 -75 -169 -75q-75 0 -122 36t-47 106q0 69 47.5 108t126.5 46l153 15v27q0 51 -28.5 80.5t-79.5 29.5q-93 0 -112 -95
h-87q8 74 60.5 120.5t139.5 46.5q88 0 141.5 -48t53.5 -136v-217q0 -41 39 -41zM404 192v43l-125 -12q-115 -10 -115 -87q0 -39 26.5 -57.5t67.5 -18.5q58 0 102 32.5t44 99.5z" />
    <glyph glyph-name="Aogonek" unicode="&#x104;" 
d="M562 -117q22 0 44 6v-55q-18 -7 -52 -7q-50 0 -81 22.5t-31 66.5q0 51 60 84h-23l-57 191h-244l-57 -191h-95l218 700h112l218 -700q-70 -25 -70 -74q0 -43 58 -43zM201 269h198l-96 320h-7z" />
    <glyph glyph-name="aogonek" unicode="&#x105;" 
d="M532 -117q22 0 44 6v-55q-18 -7 -52 -7q-50 0 -81 22.5t-31 66.5q0 55 64 86q-48 9 -61 63q-57 -75 -169 -75q-75 0 -122 36t-47 106q0 69 47.5 108t126.5 46l153 15v27q0 51 -28.5 80.5t-79.5 29.5q-93 0 -112 -95h-87q8 74 60.5 120.5t139.5 46.5q88 0 141.5 -48
t53.5 -136v-217q0 -41 39 -41h13v-68q-70 -25 -70 -74q0 -43 58 -43zM404 192v43l-125 -12q-115 -10 -115 -87q0 -39 26.5 -57.5t67.5 -18.5q58 0 102 32.5t44 99.5z" />
    <glyph glyph-name="Cacute" unicode="&#x106;" 
d="M347 900h78l-77 -145h-70zM550 213q-14 -109 -76 -166t-157 -57q-125 0 -192.5 94.5t-67.5 262.5q0 169 68.5 266t191.5 97q93 0 152 -56.5t73 -172.5h-93q-22 145 -132 145q-80 0 -124 -74t-44 -205q0 -132 44.5 -202.5t123.5 -70.5q113 0 140 139h93z" />
    <glyph glyph-name="cacute" unicode="&#x107;" 
d="M333 700h78l-77 -145h-70zM533 163q-14 -79 -76 -126t-152 -47q-111 0 -179.5 73t-68.5 184q0 114 70 188.5t178 74.5q87 0 150 -47.5t75 -131.5h-88q-9 45 -45.5 74t-91.5 29q-71 0 -115.5 -53t-44.5 -134q0 -79 43.5 -130t116.5 -51q110 0 140 97h88z" />
    <glyph glyph-name="Ccircumflex" unicode="&#x108;" 
d="M252 759h-79l101 141h78l102 -141h-79l-60 86h-5zM550 213q-14 -109 -76 -166t-157 -57q-125 0 -192.5 94.5t-67.5 262.5q0 169 68.5 266t191.5 97q93 0 152 -56.5t73 -172.5h-93q-22 145 -132 145q-80 0 -124 -74t-44 -205q0 -132 44.5 -202.5t123.5 -70.5
q113 0 140 139h93z" />
    <glyph glyph-name="ccircumflex" unicode="&#x109;" 
d="M238 559h-79l101 141h78l102 -141h-79l-60 86h-5zM533 163q-14 -79 -76 -126t-152 -47q-111 0 -179.5 73t-68.5 184q0 114 70 188.5t178 74.5q87 0 150 -47.5t75 -131.5h-88q-9 45 -45.5 74t-91.5 29q-71 0 -115.5 -53t-44.5 -134q0 -79 43.5 -130t116.5 -51
q110 0 140 97h88z" />
    <glyph glyph-name="Cdotaccent" unicode="&#x10a;" 
d="M314 780q-24 0 -41.5 17t-17.5 41t17.5 40.5t41.5 16.5q23 0 40 -16.5t17 -40.5t-17 -41t-40 -17zM550 213q-14 -109 -76 -166t-157 -57q-125 0 -192.5 94.5t-67.5 262.5q0 169 68.5 266t191.5 97q93 0 152 -56.5t73 -172.5h-93q-22 145 -132 145q-80 0 -124 -74
t-44 -205q0 -132 44.5 -202.5t123.5 -70.5q113 0 140 139h93z" />
    <glyph glyph-name="cdotaccent" unicode="&#x10b;" 
d="M300 580q-24 0 -41.5 17t-17.5 41t17.5 40.5t41.5 16.5q23 0 40 -16.5t17 -40.5t-17 -41t-40 -17zM533 163q-14 -79 -76 -126t-152 -47q-111 0 -179.5 73t-68.5 184q0 114 70 188.5t178 74.5q87 0 150 -47.5t75 -131.5h-88q-9 45 -45.5 74t-91.5 29q-71 0 -115.5 -53
t-44.5 -134q0 -79 43.5 -130t116.5 -51q110 0 140 97h88z" />
    <glyph glyph-name="Ccaron" unicode="&#x10c;" 
d="M374 900h79l-101 -141h-78l-102 141h79l60 -86h5zM550 213q-14 -109 -76 -166t-157 -57q-125 0 -192.5 94.5t-67.5 262.5q0 169 68.5 266t191.5 97q93 0 152 -56.5t73 -172.5h-93q-22 145 -132 145q-80 0 -124 -74t-44 -205q0 -132 44.5 -202.5t123.5 -70.5
q113 0 140 139h93z" />
    <glyph glyph-name="ccaron" unicode="&#x10d;" 
d="M360 700h79l-101 -141h-78l-102 141h79l60 -86h5zM533 163q-14 -79 -76 -126t-152 -47q-111 0 -179.5 73t-68.5 184q0 114 70 188.5t178 74.5q87 0 150 -47.5t75 -131.5h-88q-9 45 -45.5 74t-91.5 29q-71 0 -115.5 -53t-44.5 -134q0 -79 43.5 -130t116.5 -51
q110 0 140 97h88z" />
    <glyph glyph-name="Dcaron" unicode="&#x10e;" 
d="M344 900h79l-101 -141h-78l-102 141h79l60 -86h5zM242 700q150 0 225.5 -94t75.5 -255t-75 -256t-226 -95h-168v700h168zM237 82q105 0 159.5 68t54.5 201q0 267 -214 267h-72v-536h72z" />
    <glyph glyph-name="dcaron" unicode="&#x10f;" 
d="M443 434v276h88v-710h-72l-8 71h-7q-56 -81 -161 -81q-101 0 -165.5 72.5t-64.5 188.5q0 117 65 188t165 71q107 0 160 -76zM697 710q28 0 44.5 -22t16.5 -56q0 -100 -96 -161l-24 31q54 44 55 90q-23 -2 -38.5 14t-15.5 42q0 28 16.5 45t41.5 17zM294 66
q68 0 108.5 50.5t40.5 134.5q0 83 -40.5 133t-108.5 50t-110.5 -50.5t-42.5 -132.5q0 -83 42.5 -134t110.5 -51z" />
    <glyph glyph-name="Dcroat" unicode="&#x110;" 
d="M242 700q150 0 225.5 -94t75.5 -255t-75 -256t-226 -95h-168v315h-112v69h112v316h168zM237 82q105 0 159.5 68t54.5 201q0 267 -214 267h-72v-234h144v-69h-144v-233h72z" />
    <glyph glyph-name="dcroat" unicode="&#x111;" 
d="M633 634v-66h-102v-568h-72l-8 71h-7q-56 -81 -161 -81q-101 0 -165.5 72.5t-64.5 188.5q0 117 65 188t165 71q107 0 160 -76v134h-167v66h167v76h88v-76h102zM294 66q68 0 108.5 50.5t40.5 134.5q0 83 -40.5 133t-108.5 50t-110.5 -50.5t-42.5 -132.5q0 -83 42.5 -134
t110.5 -51z" />
    <glyph glyph-name="Emacron" unicode="&#x112;" 
d="M148 845h301v-64h-301v64zM178 81h337v-81h-425v700h415v-81h-327v-224h285v-80h-285v-234z" />
    <glyph glyph-name="emacron" unicode="&#x113;" 
d="M453 645v-64h-301v64h301zM527 260q0 -7 -2 -31h-375q4 -75 46.5 -121t110.5 -46q50 0 84.5 21.5t47.5 62.5h85q-16 -74 -74 -115t-143 -41q-107 0 -174.5 70t-67.5 185q0 119 67.5 192t170.5 73q97 0 160.5 -65t63.5 -185zM303 438q-62 0 -103.5 -41.5t-48.5 -103.5h290
q0 65 -38.5 105t-99.5 40z" />
    <glyph glyph-name="Ebreve" unicode="&#x114;" 
d="M428 900q0 -51 -36.5 -90t-94.5 -39t-95.5 39t-37.5 90h70q0 -31 17 -51t46 -20q28 0 44.5 20t16.5 51h70zM178 81h337v-81h-425v700h415v-81h-327v-224h285v-80h-285v-234z" />
    <glyph glyph-name="ebreve" unicode="&#x115;" 
d="M302 571q-58 0 -95.5 39t-37.5 90h70q0 -31 17 -51t46 -20q28 0 44.5 20t16.5 51h70q0 -51 -36.5 -90t-94.5 -39zM527 260q0 -7 -2 -31h-375q4 -75 46.5 -121t110.5 -46q50 0 84.5 21.5t47.5 62.5h85q-16 -74 -74 -115t-143 -41q-107 0 -174.5 70t-67.5 185
q0 119 67.5 192t170.5 73q97 0 160.5 -65t63.5 -185zM303 438q-62 0 -103.5 -41.5t-48.5 -103.5h290q0 65 -38.5 105t-99.5 40z" />
    <glyph glyph-name="Edotaccent" unicode="&#x116;" 
d="M298 780q-24 0 -41.5 17t-17.5 41t17.5 40.5t41.5 16.5q23 0 40 -16.5t17 -40.5t-17 -41t-40 -17zM178 81h337v-81h-425v700h415v-81h-327v-224h285v-80h-285v-234z" />
    <glyph glyph-name="edotaccent" unicode="&#x117;" 
d="M303 580q-24 0 -41.5 17t-17.5 41t17.5 40.5t41.5 16.5q23 0 40 -16.5t17 -40.5t-17 -41t-40 -17zM527 260q0 -7 -2 -31h-375q4 -75 46.5 -121t110.5 -46q50 0 84.5 21.5t47.5 62.5h85q-16 -74 -74 -115t-143 -41q-107 0 -174.5 70t-67.5 185q0 119 67.5 192t170.5 73
q97 0 160.5 -65t63.5 -185zM303 438q-62 0 -103.5 -41.5t-48.5 -103.5h290q0 65 -38.5 105t-99.5 40z" />
    <glyph glyph-name="Eogonek" unicode="&#x118;" 
d="M502 -117q22 0 44 6v-55q-18 -7 -52 -7q-50 0 -81 22.5t-31 66.5q0 51 60 84h-352v700h415v-81h-327v-224h285v-80h-285v-234h337v-81h-1q-70 -25 -70 -74q0 -43 58 -43z" />
    <glyph glyph-name="eogonek" unicode="&#x119;" 
d="M527 260q0 -7 -2 -31h-375q4 -75 46.5 -121t110.5 -46q50 0 84.5 21.5t47.5 62.5h85q-13 -56 -50 -94t-93 -53q-68 -25 -68 -73q0 -43 58 -43q21 0 44 6v-55q-18 -7 -52 -7q-50 0 -81 22.5t-31 66.5t44 74q-102 5 -166 74.5t-64 180.5q0 119 67.5 192t170.5 73
q97 0 160.5 -65t63.5 -185zM303 438q-62 0 -103.5 -41.5t-48.5 -103.5h290q0 65 -38.5 105t-99.5 40z" />
    <glyph glyph-name="Ecaron" unicode="&#x11a;" 
d="M359 900h79l-101 -141h-78l-102 141h79l60 -86h5zM178 81h337v-81h-425v700h415v-81h-327v-224h285v-80h-285v-234z" />
    <glyph glyph-name="ecaron" unicode="&#x11b;" 
d="M341 559h-78l-102 141h79l60 -86h5l58 86h79zM527 260q0 -7 -2 -31h-375q4 -75 46.5 -121t110.5 -46q50 0 84.5 21.5t47.5 62.5h85q-16 -74 -74 -115t-143 -41q-107 0 -174.5 70t-67.5 185q0 119 67.5 192t170.5 73q97 0 160.5 -65t63.5 -185zM303 438
q-62 0 -103.5 -41.5t-48.5 -103.5h290q0 65 -38.5 105t-99.5 40z" />
    <glyph glyph-name="Gcircumflex" unicode="&#x11c;" 
d="M229 759h-79l101 141h78l102 -141h-79l-60 86h-5zM304 364h230v-364h-70l-11 64h-7q-10 -25 -49.5 -49.5t-103.5 -24.5q-115 0 -178 90.5t-63 257.5q0 174 69 273t190 99q91 0 148.5 -55t70.5 -154h-95q-28 125 -124 125q-79 0 -122.5 -75t-43.5 -213q0 -133 42 -200
t120 -67q63 0 101 41t38 116v63h-142v73z" />
    <glyph glyph-name="gcircumflex" unicode="&#x11d;" 
d="M295 645l-58 -86h-79l101 141h78l102 -141h-79l-60 86h-5zM356 94q91 0 138.5 -37t47.5 -105q0 -77 -65 -119.5t-168 -42.5q-117 0 -180 48t-72 123l93 71q-32 11 -51 35t-19 56q0 60 68 93q-57 48 -57 122q0 75 58 123.5t151 48.5q69 0 122 -32q56 27 90 70l52 -52
q-39 -39 -92 -60q34 -43 34 -98q0 -77 -58.5 -123.5t-147.5 -46.5q-56 0 -100 18q-40 -16 -40 -46q0 -46 82 -46h114zM300 443q-56 0 -90 -29.5t-34 -75.5q0 -44 34.5 -73.5t89.5 -29.5q54 0 87.5 29.5t33.5 73.5q0 46 -33 75.5t-88 29.5zM309 -141q61 0 105 23t44 67
q0 36 -29 55t-81 19h-107l-97 -71q12 -40 52.5 -66.5t112.5 -26.5z" />
    <glyph glyph-name="Gbreve" unicode="&#x11e;" 
d="M421 900q0 -51 -36.5 -90t-94.5 -39t-95.5 39t-37.5 90h70q0 -31 17 -51t46 -20q28 0 44.5 20t16.5 51h70zM304 364h230v-364h-70l-11 64h-7q-10 -25 -49.5 -49.5t-103.5 -24.5q-115 0 -178 90.5t-63 257.5q0 174 69 273t190 99q91 0 148.5 -55t70.5 -154h-95
q-28 125 -124 125q-79 0 -122.5 -75t-43.5 -213q0 -133 42 -200t120 -67q63 0 101 41t38 116v63h-142v73z" />
    <glyph glyph-name="gbreve" unicode="&#x11f;" 
d="M298 571q-58 0 -95.5 39t-37.5 90h70q0 -31 17 -51t46 -20q28 0 44.5 20t16.5 51h70q0 -51 -36.5 -90t-94.5 -39zM356 94q91 0 138.5 -37t47.5 -105q0 -77 -65 -119.5t-168 -42.5q-117 0 -180 48t-72 123l93 71q-32 11 -51 35t-19 56q0 60 68 93q-57 48 -57 122
q0 75 58 123.5t151 48.5q69 0 122 -32q56 27 90 70l52 -52q-39 -39 -92 -60q34 -43 34 -98q0 -77 -58.5 -123.5t-147.5 -46.5q-56 0 -100 18q-40 -16 -40 -46q0 -46 82 -46h114zM300 443q-56 0 -90 -29.5t-34 -75.5q0 -44 34.5 -73.5t89.5 -29.5q54 0 87.5 29.5t33.5 73.5
q0 46 -33 75.5t-88 29.5zM309 -141q61 0 105 23t44 67q0 36 -29 55t-81 19h-107l-97 -71q12 -40 52.5 -66.5t112.5 -26.5z" />
    <glyph glyph-name="Gdotaccent" unicode="&#x120;" 
d="M291 780q-24 0 -41.5 17t-17.5 41t17.5 40.5t41.5 16.5q23 0 40 -16.5t17 -40.5t-17 -41t-40 -17zM304 364h230v-364h-70l-11 64h-7q-10 -25 -49.5 -49.5t-103.5 -24.5q-115 0 -178 90.5t-63 257.5q0 174 69 273t190 99q91 0 148.5 -55t70.5 -154h-95q-28 125 -124 125
q-79 0 -122.5 -75t-43.5 -213q0 -133 42 -200t120 -67q63 0 101 41t38 116v63h-142v73z" />
    <glyph glyph-name="gdotaccent" unicode="&#x121;" 
d="M299 580q-24 0 -41.5 17t-17.5 41t17.5 40.5t41.5 16.5q23 0 40 -16.5t17 -40.5t-17 -41t-40 -17zM356 94q91 0 138.5 -37t47.5 -105q0 -77 -65 -119.5t-168 -42.5q-117 0 -180 48t-72 123l93 71q-32 11 -51 35t-19 56q0 60 68 93q-57 48 -57 122q0 75 58 123.5t151 48.5
q69 0 122 -32q56 27 90 70l52 -52q-39 -39 -92 -60q34 -43 34 -98q0 -77 -58.5 -123.5t-147.5 -46.5q-56 0 -100 18q-40 -16 -40 -46q0 -46 82 -46h114zM300 443q-56 0 -90 -29.5t-34 -75.5q0 -44 34.5 -73.5t89.5 -29.5q54 0 87.5 29.5t33.5 73.5q0 46 -33 75.5t-88 29.5z
M309 -141q61 0 105 23t44 67q0 36 -29 55t-81 19h-107l-97 -71q12 -40 52.5 -66.5t112.5 -26.5z" />
    <glyph glyph-name="uni0122" unicode="&#x122;" 
d="M304 364h230v-364h-70l-11 64h-7q-10 -25 -49.5 -49.5t-103.5 -24.5q-115 0 -178 90.5t-63 257.5q0 174 69 273t190 99q91 0 148.5 -55t70.5 -154h-95q-28 125 -124 125q-79 0 -122.5 -75t-43.5 -213q0 -133 42 -200t120 -67q63 0 101 41t38 116v63h-142v73zM301 -60
q31 0 48 -21.5t17 -54.5q0 -52 -30 -91.5t-72 -63.5l-26 27q58 48 59 88q-26 -2 -42 14t-16 42q0 27 17.5 43.5t44.5 16.5z" />
    <glyph glyph-name="uni0123" unicode="&#x123;" 
d="M300 560q-31 0 -48 21.5t-17 54.5q0 52 30 91.5t72 63.5l26 -27q-58 -48 -59 -88q26 2 42 -14t16 -42q0 -27 -17.5 -43.5t-44.5 -16.5zM356 94q91 0 138.5 -37t47.5 -105q0 -77 -65 -119.5t-168 -42.5q-117 0 -180 48t-72 123l93 71q-32 11 -51 35t-19 56q0 60 68 93
q-57 48 -57 122q0 75 58 123.5t151 48.5q69 0 122 -32q56 27 90 70l52 -52q-39 -39 -92 -60q34 -43 34 -98q0 -77 -58.5 -123.5t-147.5 -46.5q-56 0 -100 18q-40 -16 -40 -46q0 -46 82 -46h114zM300 443q-56 0 -90 -29.5t-34 -75.5q0 -44 34.5 -73.5t89.5 -29.5
q54 0 87.5 29.5t33.5 73.5q0 46 -33 75.5t-88 29.5zM309 -141q61 0 105 23t44 67q0 36 -29 55t-81 19h-107l-97 -71q12 -40 52.5 -66.5t112.5 -26.5z" />
    <glyph glyph-name="Hcircumflex" unicode="&#x124;" 
d="M239 759h-79l101 141h78l102 -141h-79l-60 86h-5zM435 700h91v-700h-91v313h-270v-313h-91v700h91v-305h270v305z" />
    <glyph glyph-name="hcircumflex" unicode="&#x125;" 
d="M68 759h-79l101 141h78l102 -141h-79l-60 86h-5zM331 510q84 0 135 -50.5t51 -143.5v-316h-88v299q0 68 -34 101.5t-89 33.5q-59 0 -96.5 -36t-37.5 -108v-290h-88v710h88v-273h6q52 73 153 73z" />
    <glyph glyph-name="Hbar" unicode="&#x126;" 
d="M435 700h91v-700h-91v313h-270v-313h-91v700h91v-119h270v119zM165 395h270v116h-270v-116z" />
    <glyph glyph-name="hbar" unicode="&#x127;" 
d="M331 510q84 0 135 -50.5t51 -143.5v-316h-88v299q0 68 -34 101.5t-89 33.5q-59 0 -96.5 -36t-37.5 -108v-290h-88v567h-100v66h100v77h88v-77h169v-66h-169v-130h6q52 73 153 73z" />
    <glyph glyph-name="Itilde" unicode="&#x128;" 
d="M237 812q-40 0 -46 -55h-63q5 52 30.5 85.5t70.5 33.5q26 0 47 -10t32 -22t25.5 -22t29.5 -10q41 0 47 55h62q-3 -49 -29 -83.5t-71 -34.5q-25 0 -46 10t-32.5 21.5t-26.5 21.5t-30 10zM345 81h179v-81h-449v81h180v538h-175v81h439v-81h-174v-538z" />
    <glyph glyph-name="itilde" unicode="&#x129;" 
d="M473 667q-3 -49 -29 -83.5t-71 -34.5q-25 0 -46 10t-32.5 21.5t-26.5 21.5t-30 10q-40 0 -46 -55h-63q5 52 30.5 85.5t70.5 33.5q26 0 47 -10t32 -22t25.5 -22t29.5 -10q41 0 47 55h62zM344 69h177v-69h-442v69h178v362h-168v69h255v-431z" />
    <glyph glyph-name="Imacron" unicode="&#x12a;" 
d="M452 845v-64h-301v64h301zM345 81h179v-81h-449v81h180v538h-175v81h439v-81h-174v-538z" />
    <glyph glyph-name="imacron" unicode="&#x12b;" 
d="M151 645h301v-64h-301v64zM344 69h177v-69h-442v69h178v362h-168v69h255v-431z" />
    <glyph glyph-name="Ibreve" unicode="&#x12c;" 
d="M300 771q-58 0 -95.5 39t-37.5 90h70q0 -31 17 -51t46 -20q28 0 44.5 20t16.5 51h70q0 -51 -36.5 -90t-94.5 -39zM345 81h179v-81h-449v81h180v538h-175v81h439v-81h-174v-538z" />
    <glyph glyph-name="ibreve" unicode="&#x12d;" 
d="M432 700q0 -51 -36.5 -90t-94.5 -39t-95.5 39t-37.5 90h70q0 -31 17 -51t46 -20q28 0 44.5 20t16.5 51h70zM344 69h177v-69h-442v69h178v362h-168v69h255v-431z" />
    <glyph glyph-name="Iogonek" unicode="&#x12e;" 
d="M512 -117q22 0 44 6v-55q-18 -7 -52 -7q-50 0 -81 22.5t-31 66.5q0 51 60 84h-377v81h180v538h-175v81h439v-81h-174v-538h179v-81q-70 -25 -70 -74q0 -43 58 -43z" />
    <glyph glyph-name="iogonek" unicode="&#x12f;" 
d="M302 580q-24 0 -41.5 17t-17.5 41t17.5 40.5t41.5 16.5q23 0 40 -16.5t17 -40.5t-17 -41t-40 -17zM398 0q-70 -25 -70 -74q0 -43 58 -43q22 0 44 6v-55q-18 -7 -52 -7q-50 0 -81 22.5t-31 66.5q0 51 60 84h-247v69h178v362h-168v69h255v-431h177v-69h-123z" />
    <glyph glyph-name="Idotaccent" unicode="&#x130;" 
d="M301 780q-24 0 -41.5 17t-17.5 41t17.5 40.5t41.5 16.5q23 0 40 -16.5t17 -40.5t-17 -41t-40 -17zM345 81h179v-81h-449v81h180v538h-175v81h439v-81h-174v-538z" />
    <glyph glyph-name="dotlessi" unicode="&#x131;" 
d="M344 69h177v-69h-442v69h178v362h-168v69h255v-431z" />
    <glyph glyph-name="IJ" unicode="&#x132;" horiz-adv-x="1200" 
d="M345 619v-538h179v-81h-449v81h180v538h-175v81h439v-81h-174zM1022 700h91v-485q0 -112 -59.5 -168.5t-161.5 -56.5q-105 0 -161.5 57t-60.5 154h92q3 -56 36 -91.5t94 -35.5q62 0 96 36t34 110v480z" />
    <glyph glyph-name="ij" unicode="&#x133;" horiz-adv-x="1200" 
d="M302 580q-24 0 -41.5 17t-17.5 41t17.5 40.5t41.5 16.5q23 0 40 -16.5t17 -40.5t-17 -41t-40 -17zM971 580q-24 0 -41.5 17t-17.5 41t17.5 40.5t41.5 16.5q23 0 40 -16.5t17 -40.5t-17 -41t-40 -17zM344 69h177v-69h-442v69h178v362h-168v69h255v-431zM735 500h278v-524
q0 -186 -186 -186q-44 0 -90 11v70q32 -9 69 -9q34 0 58.5 10t36 22.5t18 33t7 31.5t0.5 28v444h-191v69z" />
    <glyph glyph-name="Jcircumflex" unicode="&#x134;" 
d="M406 759h-79l101 141h78l102 -141h-79l-60 86h-5zM162 201q3 -56 36 -91.5t94 -35.5q62 0 96 36t34 110v480h91v-485q0 -112 -59.5 -168.5t-161.5 -56.5q-105 0 -161.5 57t-60.5 154h92z" />
    <glyph glyph-name="jcircumflex" unicode="&#x135;" 
d="M309 559h-79l101 141h78l102 -141h-79l-60 86h-5zM135 500h278v-524q0 -186 -186 -186q-44 0 -90 11v70q32 -9 69 -9q34 0 58.5 10t36 22.5t18 33t7 31.5t0.5 28v444h-191v69z" />
    <glyph glyph-name="uni0136" unicode="&#x136;" 
d="M446 0l-231 318h-50v-318h-91v700h91v-300h50l208 300h105l-230 -336v-5l253 -359h-105zM321 -60q31 0 48 -21.5t17 -54.5q0 -52 -30 -91.5t-72 -63.5l-26 27q58 48 59 88q-26 -2 -42 14t-16 42q0 27 17.5 43.5t44.5 16.5z" />
    <glyph glyph-name="uni0137" unicode="&#x137;" 
d="M535 500l-225 -206l225 -294h-100l-186 237l-69 -63v-174h-88v710h88v-428h6l241 218h108zM295 -60q31 0 48 -21.5t17 -54.5q0 -52 -30 -91.5t-72 -63.5l-26 27q58 48 59 88q-26 -2 -42 14t-16 42q0 27 17.5 43.5t44.5 16.5z" />
    <glyph glyph-name="Lacute" unicode="&#x139;" 
d="M164 900h78l-77 -145h-70zM177 82h343v-82h-436v700h93v-618z" />
    <glyph glyph-name="lacute" unicode="&#x13a;" 
d="M322 900h78l-77 -145h-70zM336 69h177v-69h-442v69h177v562h-167v69h255v-631z" />
    <glyph glyph-name="uni013B" unicode="&#x13b;" 
d="M177 82h343v-82h-436v700h93v-618zM300 -60q31 0 48 -21.5t17 -54.5q0 -52 -30 -91.5t-72 -63.5l-26 27q58 48 59 88q-26 -2 -42 14t-16 42q0 27 17.5 43.5t44.5 16.5z" />
    <glyph glyph-name="uni013C" unicode="&#x13c;" 
d="M336 69h177v-69h-442v69h177v562h-167v69h255v-631zM287 -60q31 0 48 -21.5t17 -54.5q0 -52 -30 -91.5t-72 -63.5l-26 27q58 48 59 88q-26 -2 -42 14t-16 42q0 27 17.5 43.5t44.5 16.5z" />
    <glyph glyph-name="Lcaron" unicode="&#x13d;" 
d="M343 710q28 0 44.5 -22t16.5 -56q0 -100 -96 -161l-24 31q54 44 55 90q-23 -2 -38.5 14t-15.5 42q0 28 16.5 45t41.5 17zM177 82h343v-82h-436v700h93v-618z" />
    <glyph glyph-name="lcaron" unicode="&#x13e;" 
d="M501 710q28 0 44.5 -22t16.5 -56q0 -100 -96 -161l-24 31q54 44 55 90q-23 -2 -38.5 14t-15.5 42q0 28 16.5 45t41.5 17zM336 69h177v-69h-442v69h177v562h-167v69h255v-631z" />
    <glyph glyph-name="Ldot" unicode="&#x13f;" 
d="M177 82h343v-82h-436v700h93v-618zM349 349q-24 0 -41.5 17t-17.5 41t17.5 40.5t41.5 16.5q23 0 40 -16.5t17 -40.5t-17 -41t-40 -17z" />
    <glyph glyph-name="ldot" unicode="&#x140;" 
d="M289 780q-24 0 -41.5 17t-17.5 41t17.5 40.5t41.5 16.5q23 0 40 -16.5t17 -40.5t-17 -41t-40 -17zM336 69h177v-69h-442v69h177v562h-167v69h255v-631z" />
    <glyph glyph-name="Lslash" unicode="&#x141;" 
d="M177 82h343v-82h-436v271l-122 -61v82l122 62v346h93v-299l169 85v-83l-169 -85v-236z" />
    <glyph glyph-name="lslash" unicode="&#x142;" 
d="M336 69h177v-69h-442v69h177v222l-96 -52v81l96 53v258h-167v69h255v-279l89 49v-82l-89 -49v-270z" />
    <glyph glyph-name="Nacute" unicode="&#x143;" 
d="M334 900h78l-77 -145h-70zM440 700h86v-700h-94l-266 529h-6v-529h-86v700h95l265 -529h6v529z" />
    <glyph glyph-name="nacute" unicode="&#x144;" 
d="M334 700h78l-77 -145h-70zM331 510q84 0 135 -50.5t51 -143.5v-316h-88v299q0 68 -34 101.5t-89 33.5q-59 0 -96.5 -36t-37.5 -108v-290h-88v500h79l9 -63h6q52 73 153 73z" />
    <glyph glyph-name="uni0145" unicode="&#x145;" 
d="M440 700h86v-700h-94l-266 529h-6v-529h-86v700h95l265 -529h6v529zM298 -60q31 0 48 -21.5t17 -54.5q0 -52 -30 -91.5t-72 -63.5l-26 27q58 48 59 88q-26 -2 -42 14t-16 42q0 27 17.5 43.5t44.5 16.5z" />
    <glyph glyph-name="uni0146" unicode="&#x146;" 
d="M331 510q84 0 135 -50.5t51 -143.5v-316h-88v299q0 68 -34 101.5t-89 33.5q-59 0 -96.5 -36t-37.5 -108v-290h-88v500h79l9 -63h6q52 73 153 73zM299 -60q31 0 48 -21.5t17 -54.5q0 -52 -30 -91.5t-72 -63.5l-26 27q58 48 59 88q-26 -2 -42 14t-16 42q0 27 17.5 43.5
t44.5 16.5z" />
    <glyph glyph-name="Ncaron" unicode="&#x147;" 
d="M361 900h79l-101 -141h-78l-102 141h79l60 -86h5zM440 700h86v-700h-94l-266 529h-6v-529h-86v700h95l265 -529h6v529z" />
    <glyph glyph-name="ncaron" unicode="&#x148;" 
d="M362 700h79l-101 -141h-78l-102 141h79l60 -86h5zM331 510q84 0 135 -50.5t51 -143.5v-316h-88v299q0 68 -34 101.5t-89 33.5q-59 0 -96.5 -36t-37.5 -108v-290h-88v500h79l9 -63h6q52 73 153 73z" />
    <glyph glyph-name="Eng" unicode="&#x14a;" 
d="M440 700h86v-779q0 -65 -35 -98t-94 -33q-35 0 -75 11v67q30 -7 51 -7q65 0 65 67v60l-272 541h-6v-529h-86v700h95l265 -529h6v529z" />
    <glyph glyph-name="eng" unicode="&#x14b;" 
d="M331 510q84 0 135 -50.5t51 -143.5v-395q0 -65 -35 -98t-94 -33q-35 0 -75 11v67q30 -7 51 -7q65 0 65 67v371q0 68 -34 101.5t-89 33.5q-59 0 -96.5 -36t-37.5 -108v-290h-88v500h79l9 -63h6q52 73 153 73z" />
    <glyph glyph-name="Omacron" unicode="&#x14c;" 
d="M151 845h301v-64h-301v64zM301 -10q-114 0 -181 95t-67 265q0 168 66.5 264t181.5 96q113 0 180 -96t67 -264t-67 -264t-180 -96zM301 74q73 0 114.5 71.5t41.5 204.5t-41.5 204.5t-114.5 71.5q-74 0 -116 -71.5t-42 -204.5t42 -204.5t116 -71.5z" />
    <glyph glyph-name="omacron" unicode="&#x14d;" 
d="M150 645h301v-64h-301v64zM300 -10q-107 0 -174 74t-67 187t66.5 186t174.5 73q106 0 173 -73.5t67 -185.5q0 -114 -66.5 -187.5t-173.5 -73.5zM300 66q70 0 111 52.5t41 132.5q0 79 -41.5 131t-110.5 52q-72 0 -112.5 -51.5t-40.5 -131.5t41 -132.5t112 -52.5z" />
    <glyph glyph-name="Obreve" unicode="&#x14e;" 
d="M431 900q0 -51 -36.5 -90t-94.5 -39t-95.5 39t-37.5 90h70q0 -31 17 -51t46 -20q28 0 44.5 20t16.5 51h70zM301 -10q-114 0 -181 95t-67 265q0 168 66.5 264t181.5 96q113 0 180 -96t67 -264t-67 -264t-180 -96zM301 74q73 0 114.5 71.5t41.5 204.5t-41.5 204.5
t-114.5 71.5q-74 0 -116 -71.5t-42 -204.5t42 -204.5t116 -71.5z" />
    <glyph glyph-name="obreve" unicode="&#x14f;" 
d="M431 700q0 -51 -36.5 -90t-94.5 -39t-95.5 39t-37.5 90h70q0 -31 17 -51t46 -20q28 0 44.5 20t16.5 51h70zM300 -10q-107 0 -174 74t-67 187t66.5 186t174.5 73q106 0 173 -73.5t67 -185.5q0 -114 -66.5 -187.5t-173.5 -73.5zM300 66q70 0 111 52.5t41 132.5
q0 79 -41.5 131t-110.5 52q-72 0 -112.5 -51.5t-40.5 -131.5t41 -132.5t112 -52.5z" />
    <glyph glyph-name="Ohungarumlaut" unicode="&#x150;" 
d="M246 900h77l-63 -145h-72zM400 900h77l-64 -145h-71zM301 -10q-114 0 -181 95t-67 265q0 168 66.5 264t181.5 96q113 0 180 -96t67 -264t-67 -264t-180 -96zM301 74q73 0 114.5 71.5t41.5 204.5t-41.5 204.5t-114.5 71.5q-74 0 -116 -71.5t-42 -204.5t42 -204.5
t116 -71.5z" />
    <glyph glyph-name="ohungarumlaut" unicode="&#x151;" 
d="M245 700h77l-63 -145h-72zM399 700h77l-64 -145h-71zM300 -10q-107 0 -174 74t-67 187t66.5 186t174.5 73q106 0 173 -73.5t67 -185.5q0 -114 -66.5 -187.5t-173.5 -73.5zM300 66q70 0 111 52.5t41 132.5q0 79 -41.5 131t-110.5 52q-72 0 -112.5 -51.5t-40.5 -131.5
t41 -132.5t112 -52.5z" />
    <glyph glyph-name="OE" unicode="&#x152;" 
d="M207 -10q-84 0 -130 89t-46 271q0 180 45.5 270t130.5 90q67 0 103 -67v57h257v-77h-171v-229h142v-78h-142v-239h181v-77h-267v57q-36 -67 -103 -67zM215 74q95 0 95 276t-95 276q-97 0 -97 -276t97 -276z" />
    <glyph glyph-name="oe" unicode="&#x153;" 
d="M414 59q27 0 48.5 20t25.5 66h82q-7 -78 -50 -116.5t-104 -38.5q-84 0 -122 65q-41 -65 -114 -65q-72 0 -112 65t-40 194q0 127 40 194t112 67q73 0 115 -71q40 71 121 71q68 0 111 -58t43 -191q0 -21 -1 -34h-234q0 -2 -0.5 -6t-0.5 -6q3 -156 80 -156zM415 441
q-35 0 -57 -36.5t-24 -112.5h157q-3 149 -76 149zM183 62q72 0 72 187q0 189 -72 189t-72 -189q0 -187 72 -187z" />
    <glyph glyph-name="Racute" unicode="&#x154;" 
d="M400 900l-77 -145h-70l69 145h78zM557 0h-99l-173 294h-122v-294h-89v700h234q100 0 159 -54t59 -144q0 -75 -40 -124.5t-112 -68.5zM163 621v-248h132q66 0 103 34t37 91q0 59 -37.5 91t-102.5 32h-132z" />
    <glyph glyph-name="racute" unicode="&#x155;" 
d="M343 700h78l-77 -145h-70zM488 424q-81 0 -131.5 -43.5t-50.5 -122.5v-191h193v-67h-430v67h149v366h-144v67h222l9 -84h7q27 47 70.5 70.5t125.5 23.5h37v-88q-20 2 -57 2z" />
    <glyph glyph-name="uni0156" unicode="&#x156;" 
d="M374 309l183 -309h-99l-173 294h-122v-294h-89v700h234q100 0 159 -54t59 -144q0 -75 -40 -124.5t-112 -68.5zM163 621v-248h132q66 0 103 34t37 91q0 59 -37.5 91t-102.5 32h-132zM309 -60q31 0 48 -21.5t17 -54.5q0 -52 -30 -91.5t-72 -63.5l-26 27q58 48 59 88
q-26 -2 -42 14t-16 42q0 27 17.5 43.5t44.5 16.5z" />
    <glyph glyph-name="uni0157" unicode="&#x157;" 
d="M488 424q-81 0 -131.5 -43.5t-50.5 -122.5v-191h193v-67h-430v67h149v366h-144v67h222l9 -84h7q27 47 70.5 70.5t125.5 23.5h37v-88q-20 2 -57 2zM282 -60q31 0 48 -21.5t17 -54.5q0 -52 -30 -91.5t-72 -63.5l-26 27q58 48 59 88q-26 -2 -42 14t-16 42q0 27 17.5 43.5
t44.5 16.5z" />
    <glyph glyph-name="Rcaron" unicode="&#x158;" 
d="M328 759h-78l-102 141h79l60 -86h5l58 86h79zM557 0h-99l-173 294h-122v-294h-89v700h234q100 0 159 -54t59 -144q0 -75 -40 -124.5t-112 -68.5zM163 621v-248h132q66 0 103 34t37 91q0 59 -37.5 91t-102.5 32h-132z" />
    <glyph glyph-name="rcaron" unicode="&#x159;" 
d="M371 700h79l-101 -141h-78l-102 141h79l60 -86h5zM488 424q-81 0 -131.5 -43.5t-50.5 -122.5v-191h193v-67h-430v67h149v366h-144v67h222l9 -84h7q27 47 70.5 70.5t125.5 23.5h37v-88q-20 2 -57 2z" />
    <glyph glyph-name="Sacute" unicode="&#x15a;" 
d="M323 900h78l-77 -145h-70zM527 182q0 -94 -64 -143t-166 -49q-108 0 -171 55.5t-70 154.5h90q8 -64 47 -97.5t105 -33.5q60 0 99.5 27.5t39.5 83.5q0 32 -12 55.5t-38 39.5t-45.5 24t-54.5 19l-26 8q-38 13 -64.5 25t-56.5 34t-46 55.5t-16 76.5q0 87 63.5 140t159.5 53
q98 0 159.5 -55.5t66.5 -142.5h-86q-6 52 -42 85.5t-97 33.5q-60 0 -97 -31.5t-37 -80.5q0 -22 10 -40.5t19.5 -28.5t34.5 -21.5t34 -14.5l39 -13l23 -8q22 -7 33.5 -11t35.5 -15t38.5 -21t34 -27t30.5 -35.5t19 -45t8 -56.5z" />
    <glyph glyph-name="sacute" unicode="&#x15b;" 
d="M321 700h78l-77 -145h-70zM502 135q0 -71 -56.5 -108t-143.5 -37q-105 0 -159.5 44t-58.5 118h86q10 -93 132 -93q51 0 85 18t34 56q0 30 -27 50.5t-89 34.5l-46 10q-78 17 -117.5 48t-39.5 88q0 68 55 107t136 39q92 0 143 -42t54 -101h-85q-4 33 -35 53.5t-77 20.5
t-77 -18.5t-31 -54.5q0 -33 25.5 -47t87.5 -28l42 -9q83 -19 122.5 -54.5t39.5 -94.5z" />
    <glyph glyph-name="Scircumflex" unicode="&#x15c;" 
d="M228 759h-79l101 141h78l102 -141h-79l-60 86h-5zM527 182q0 -94 -64 -143t-166 -49q-108 0 -171 55.5t-70 154.5h90q8 -64 47 -97.5t105 -33.5q60 0 99.5 27.5t39.5 83.5q0 32 -12 55.5t-38 39.5t-45.5 24t-54.5 19l-26 8q-38 13 -64.5 25t-56.5 34t-46 55.5t-16 76.5
q0 87 63.5 140t159.5 53q98 0 159.5 -55.5t66.5 -142.5h-86q-6 52 -42 85.5t-97 33.5q-60 0 -97 -31.5t-37 -80.5q0 -22 10 -40.5t19.5 -28.5t34.5 -21.5t34 -14.5l39 -13l23 -8q22 -7 33.5 -11t35.5 -15t38.5 -21t34 -27t30.5 -35.5t19 -45t8 -56.5z" />
    <glyph glyph-name="scircumflex" unicode="&#x15d;" 
d="M226 559h-79l101 141h78l102 -141h-79l-60 86h-5zM502 135q0 -71 -56.5 -108t-143.5 -37q-105 0 -159.5 44t-58.5 118h86q10 -93 132 -93q51 0 85 18t34 56q0 30 -27 50.5t-89 34.5l-46 10q-78 17 -117.5 48t-39.5 88q0 68 55 107t136 39q92 0 143 -42t54 -101h-85
q-4 33 -35 53.5t-77 20.5t-77 -18.5t-31 -54.5q0 -33 25.5 -47t87.5 -28l42 -9q83 -19 122.5 -54.5t39.5 -94.5z" />
    <glyph glyph-name="Scedilla" unicode="&#x15e;" 
d="M328 393q22 -7 33.5 -11t35.5 -15t38.5 -21t34 -27t30.5 -35.5t19 -45t8 -56.5q0 -86 -54 -134.5t-143 -56.5l-25 -35q38 2 68.5 -20t30.5 -63q0 -38 -27 -60.5t-74 -22.5q-43 0 -72 21l18 40q28 -16 52 -16q23 0 36.5 11.5t13.5 29.5q0 42 -52 42q-15 0 -35 -8l-29 25
l38 56q-97 6 -154 61t-63 148h90q8 -64 47 -97.5t105 -33.5q60 0 99.5 27.5t39.5 83.5q0 32 -12 55.5t-38 39.5t-45.5 24t-54.5 19l-26 8q-38 13 -64.5 25t-56.5 34t-46 55.5t-16 76.5q0 87 63.5 140t159.5 53q98 0 159.5 -55.5t66.5 -142.5h-86q-6 52 -42 85.5t-97 33.5
q-60 0 -97 -31.5t-37 -80.5q0 -22 10 -40.5t19.5 -28.5t34.5 -21.5t34 -14.5l39 -13z" />
    <glyph glyph-name="scedilla" unicode="&#x15f;" 
d="M502 135q0 -67 -50 -103.5t-129 -40.5l-24 -35q38 2 68.5 -20t30.5 -63q0 -38 -27 -60.5t-74 -22.5q-43 0 -72 21l18 40q28 -16 52 -16q23 0 36.5 11.5t13.5 29.5q0 42 -52 42q-15 0 -35 -8l-29 25l38 56q-88 8 -133.5 51t-49.5 110h86q10 -93 132 -93q51 0 85 18t34 56
q0 30 -27 50.5t-89 34.5l-46 10q-78 17 -117.5 48t-39.5 88q0 68 55 107t136 39q92 0 143 -42t54 -101h-85q-4 33 -35 53.5t-77 20.5t-77 -18.5t-31 -54.5q0 -33 25.5 -47t87.5 -28l42 -9q83 -19 122.5 -54.5t39.5 -94.5z" />
    <glyph glyph-name="Scaron" unicode="&#x160;" 
d="M350 900h79l-101 -141h-78l-102 141h79l60 -86h5zM527 182q0 -94 -64 -143t-166 -49q-108 0 -171 55.5t-70 154.5h90q8 -64 47 -97.5t105 -33.5q60 0 99.5 27.5t39.5 83.5q0 32 -12 55.5t-38 39.5t-45.5 24t-54.5 19l-26 8q-38 13 -64.5 25t-56.5 34t-46 55.5t-16 76.5
q0 87 63.5 140t159.5 53q98 0 159.5 -55.5t66.5 -142.5h-86q-6 52 -42 85.5t-97 33.5q-60 0 -97 -31.5t-37 -80.5q0 -22 10 -40.5t19.5 -28.5t34.5 -21.5t34 -14.5l39 -13l23 -8q22 -7 33.5 -11t35.5 -15t38.5 -21t34 -27t30.5 -35.5t19 -45t8 -56.5z" />
    <glyph glyph-name="scaron" unicode="&#x161;" 
d="M348 700h79l-101 -141h-78l-102 141h79l60 -86h5zM502 135q0 -71 -56.5 -108t-143.5 -37q-105 0 -159.5 44t-58.5 118h86q10 -93 132 -93q51 0 85 18t34 56q0 30 -27 50.5t-89 34.5l-46 10q-78 17 -117.5 48t-39.5 88q0 68 55 107t136 39q92 0 143 -42t54 -101h-85
q-4 33 -35 53.5t-77 20.5t-77 -18.5t-31 -54.5q0 -33 25.5 -47t87.5 -28l42 -9q83 -19 122.5 -54.5t39.5 -94.5z" />
    <glyph glyph-name="uni0162" unicode="&#x162;" 
d="M345 0h-17l-31 -44q38 2 68.5 -20t30.5 -63q0 -38 -27 -60.5t-74 -22.5q-43 0 -72 21l18 40q28 -16 52 -16q23 0 36.5 11.5t13.5 29.5q0 42 -52 42q-15 0 -35 -8l-29 25l44 65h-16v618h-203v82h496v-82h-203v-618z" />
    <glyph glyph-name="uni0163" unicode="&#x163;" 
d="M529 429h-208v-259q0 -106 111 -106q38 0 68 8v-71q-44 -11 -87 -11q-13 0 -20 1l-24 -35q38 2 68.5 -20t30.5 -63q0 -38 -27 -60.5t-74 -22.5q-43 0 -72 21l18 40q28 -16 52 -16q23 0 36.5 11.5t13.5 29.5q0 42 -52 42q-15 0 -35 -8l-29 25l43 63q-108 29 -108 158v273
h-162v71h83q48 0 67.5 19.5t19.5 70.5v46h79v-136h208v-71z" />
    <glyph glyph-name="Tcaron" unicode="&#x164;" 
d="M339 759h-78l-102 141h79l60 -86h5l58 86h79zM548 700v-82h-203v-618h-90v618h-203v82h496z" />
    <glyph glyph-name="tcaron" unicode="&#x165;" 
d="M482 770q28 0 43.5 -20t15.5 -52q0 -50 -27 -88.5t-65 -60.5l-24 28q53 41 54 84q-23 -1 -38 13.5t-15 38.5q0 26 16 41.5t40 15.5zM321 170q0 -106 111 -106q38 0 68 8v-71q-44 -11 -87 -11q-179 0 -179 166v273h-162v71h83q48 0 67.5 19.5t19.5 70.5v46h79v-136h208
v-71h-208v-259z" />
    <glyph glyph-name="Tbar" unicode="&#x166;" 
d="M548 618h-203v-238h129v-69h-129v-311h-90v311h-128v69h128v238h-203v82h496v-82z" />
    <glyph glyph-name="tbar" unicode="&#x167;" 
d="M529 429h-208v-126h208v-66h-208v-67q0 -106 111 -106q38 0 68 8v-71q-44 -11 -87 -11q-179 0 -179 166v81h-162v66h162v126h-162v71h83q48 0 67.5 19.5t19.5 70.5v46h79v-136h208v-71z" />
    <glyph glyph-name="Utilde" unicode="&#x168;" 
d="M472 867q-3 -49 -29 -83.5t-71 -34.5q-25 0 -46 10t-32.5 21.5t-26.5 21.5t-30 10q-40 0 -46 -55h-63q5 52 30.5 85.5t70.5 33.5q26 0 47 -10t32 -22t25.5 -22t29.5 -10q41 0 47 55h62zM524 700v-466q0 -116 -60.5 -180t-162.5 -64q-103 0 -164 64t-61 180v466h91v-476
q0 -72 37.5 -111t96.5 -39t95.5 39t36.5 111v476h91z" />
    <glyph glyph-name="utilde" unicode="&#x169;" 
d="M472 667q-3 -49 -29 -83.5t-71 -34.5q-25 0 -46 10t-32.5 21.5t-26.5 21.5t-30 10q-40 0 -46 -55h-63q5 52 30.5 85.5t70.5 33.5q26 0 47 -10t32 -22t25.5 -22t29.5 -10q41 0 47 55h62zM269 -10q-84 0 -135 50.5t-51 143.5v316h88v-299q0 -68 34 -101.5t89 -33.5
q59 0 96.5 36t37.5 108v290h88v-500h-79l-9 63h-6q-52 -73 -153 -73z" />
    <glyph glyph-name="Umacron" unicode="&#x16a;" 
d="M150 845h301v-64h-301v64zM524 700v-466q0 -116 -60.5 -180t-162.5 -64q-103 0 -164 64t-61 180v466h91v-476q0 -72 37.5 -111t96.5 -39t95.5 39t36.5 111v476h91z" />
    <glyph glyph-name="umacron" unicode="&#x16b;" 
d="M150 645h301v-64h-301v64zM269 -10q-84 0 -135 50.5t-51 143.5v316h88v-299q0 -68 34 -101.5t89 -33.5q59 0 96.5 36t37.5 108v290h88v-500h-79l-9 63h-6q-52 -73 -153 -73z" />
    <glyph glyph-name="Ubreve" unicode="&#x16c;" 
d="M431 900q0 -51 -36.5 -90t-94.5 -39t-95.5 39t-37.5 90h70q0 -31 17 -51t46 -20q28 0 44.5 20t16.5 51h70zM524 700v-466q0 -116 -60.5 -180t-162.5 -64q-103 0 -164 64t-61 180v466h91v-476q0 -72 37.5 -111t96.5 -39t95.5 39t36.5 111v476h91z" />
    <glyph glyph-name="ubreve" unicode="&#x16d;" 
d="M431 700q0 -51 -36.5 -90t-94.5 -39t-95.5 39t-37.5 90h70q0 -31 17 -51t46 -20q28 0 44.5 20t16.5 51h70zM269 -10q-84 0 -135 50.5t-51 143.5v316h88v-299q0 -68 34 -101.5t89 -33.5q59 0 96.5 36t37.5 108v290h88v-500h-79l-9 63h-6q-52 -73 -153 -73z" />
    <glyph glyph-name="Uring" unicode="&#x16e;" 
d="M300 741q-39 0 -67.5 28.5t-28.5 66.5q0 39 28.5 67t67.5 28t67.5 -28t28.5 -67q0 -38 -28.5 -66.5t-67.5 -28.5zM301 792q17 0 29 13t12 31q0 17 -12.5 30t-28.5 13q-18 0 -30.5 -12.5t-12.5 -30.5t12.5 -31t30.5 -13zM524 700v-466q0 -116 -60.5 -180t-162.5 -64
q-103 0 -164 64t-61 180v466h91v-476q0 -72 37.5 -111t96.5 -39t95.5 39t36.5 111v476h91z" />
    <glyph glyph-name="uring" unicode="&#x16f;" 
d="M300 541q-39 0 -67.5 28.5t-28.5 66.5q0 39 28.5 67t67.5 28t67.5 -28t28.5 -67q0 -38 -28.5 -66.5t-67.5 -28.5zM301 592q17 0 29 13t12 31q0 17 -12.5 30t-28.5 13q-18 0 -30.5 -12.5t-12.5 -30.5t12.5 -31t30.5 -13zM269 -10q-84 0 -135 50.5t-51 143.5v316h88v-299
q0 -68 34 -101.5t89 -33.5q59 0 96.5 36t37.5 108v290h88v-500h-79l-9 63h-6q-52 -73 -153 -73z" />
    <glyph glyph-name="Uhungarumlaut" unicode="&#x170;" 
d="M245 900h77l-63 -145h-72zM399 900h77l-64 -145h-71zM524 700v-466q0 -116 -60.5 -180t-162.5 -64q-103 0 -164 64t-61 180v466h91v-476q0 -72 37.5 -111t96.5 -39t95.5 39t36.5 111v476h91z" />
    <glyph glyph-name="uhungarumlaut" unicode="&#x171;" 
d="M245 700h77l-63 -145h-72zM399 700h77l-64 -145h-71zM269 -10q-84 0 -135 50.5t-51 143.5v316h88v-299q0 -68 34 -101.5t89 -33.5q59 0 96.5 36t37.5 108v290h88v-500h-79l-9 63h-6q-52 -73 -153 -73z" />
    <glyph glyph-name="Uogonek" unicode="&#x172;" 
d="M433 700h91v-466q0 -95 -40.5 -155t-112.5 -80q-67 -25 -67 -73q0 -43 58 -43q22 0 44 6v-55q-18 -7 -52 -7q-50 0 -81 22.5t-31 66.5t44 74q-97 5 -153.5 68.5t-56.5 175.5v466h91v-476q0 -72 37.5 -111t96.5 -39t95.5 39t36.5 111v476z" />
    <glyph glyph-name="uogonek" unicode="&#x173;" 
d="M504 -117q22 0 44 6v-55q-18 -7 -52 -7q-50 0 -81 22.5t-31 66.5q0 51 60 84h-7l-9 63h-6q-52 -73 -153 -73q-84 0 -135 50.5t-51 143.5v316h88v-299q0 -68 34 -101.5t89 -33.5q59 0 96.5 36t37.5 108v290h88v-500q-70 -25 -70 -74q0 -43 58 -43z" />
    <glyph glyph-name="Wcircumflex" unicode="&#x174;" 
d="M239 759h-79l101 141h78l102 -141h-79l-60 86h-5zM489 700h84l-84 -700h-98l-88 426h-7l-87 -426h-98l-85 700h87l54 -527h7l79 377h94l77 -377h7z" />
    <glyph glyph-name="wcircumflex" unicode="&#x175;" 
d="M239 559h-79l101 141h78l102 -141h-79l-60 86h-5zM496 500h79l-92 -500h-98l-81 354h-7l-84 -354h-97l-91 500h80l62 -385h7l78 349h97l77 -349h6z" />
    <glyph glyph-name="Ycircumflex" unicode="&#x176;" 
d="M239 759h-79l101 141h78l102 -141h-79l-60 86h-5zM466 700h108l-228 -353v-347h-90v347l-230 353h108l163 -251h7z" />
    <glyph glyph-name="ycircumflex" unicode="&#x177;" 
d="M239 559h-79l101 141h78l102 -141h-79l-60 86h-5zM544 500l-200 -578q-21 -62 -62 -97t-117 -35q-36 0 -76 11v68q29 -8 63 -8q79 0 110 74l25 65h-30l-202 500h92l164 -409h6l136 409h91z" />
    <glyph glyph-name="Ydieresis" unicode="&#x178;" 
d="M186 766q-25 0 -43 17.5t-18 42.5t18 42.5t43 17.5t42.5 -17.5t17.5 -42.5t-17.5 -42.5t-42.5 -17.5zM415 766q-24 0 -41.5 17.5t-17.5 42.5t17.5 42.5t41.5 17.5q25 0 43 -17.5t18 -42.5t-18 -42.5t-43 -17.5zM466 700h108l-228 -353v-347h-90v347l-230 353h108
l163 -251h7z" />
    <glyph glyph-name="Zacute" unicode="&#x179;" 
d="M337 900h78l-77 -145h-70zM186 82h349v-82h-481v51l352 562v5h-332v82h459v-51l-347 -562v-5z" />
    <glyph glyph-name="zacute" unicode="&#x17a;" 
d="M338 700h78l-77 -145h-70zM213 70h293v-70h-420v44l292 381v5h-274v70h399v-44l-290 -381v-5z" />
    <glyph glyph-name="Zdotaccent" unicode="&#x17b;" 
d="M304 780q-24 0 -41.5 17t-17.5 41t17.5 40.5t41.5 16.5q23 0 40 -16.5t17 -40.5t-17 -41t-40 -17zM186 82h349v-82h-481v51l352 562v5h-332v82h459v-51l-347 -562v-5z" />
    <glyph glyph-name="zdotaccent" unicode="&#x17c;" 
d="M304 580q-24 0 -41.5 17t-17.5 41t17.5 40.5t41.5 16.5q23 0 40 -16.5t17 -40.5t-17 -41t-40 -17zM213 70h293v-70h-420v44l292 381v5h-274v70h399v-44l-290 -381v-5z" />
    <glyph glyph-name="Zcaron" unicode="&#x17d;" 
d="M364 900h79l-101 -141h-78l-102 141h79l60 -86h5zM186 82h349v-82h-481v51l352 562v5h-332v82h459v-51l-347 -562v-5z" />
    <glyph glyph-name="zcaron" unicode="&#x17e;" 
d="M365 700h79l-101 -141h-78l-102 141h79l60 -86h5zM213 70h293v-70h-420v44l292 381v5h-274v70h399v-44l-290 -381v-5z" />
    <glyph glyph-name="florin" unicode="&#x192;" 
d="M446 579q-59 0 -70 -66l-23 -136h139v-66h-151l-33 -193q-23 -128 -147 -128q-60 0 -101 38l31 59q28 -26 63 -26q59 0 70 66l32 184h-132v66h143l25 145q11 65 49.5 96.5t96.5 31.5q60 0 101 -38l-30 -59q-29 26 -63 26z" />
    <glyph glyph-name="uni01CD" unicode="&#x1cd;" 
d="M339 759h-78l-102 141h79l60 -86h5l58 86h79zM479 0l-57 191h-244l-57 -191h-95l218 700h112l218 -700h-95zM201 269h198l-96 320h-7z" />
    <glyph glyph-name="uni01CE" unicode="&#x1ce;" 
d="M332 559h-78l-102 141h79l60 -86h5l58 86h79zM531 68h13v-68h-40q-74 0 -89 65q-57 -75 -169 -75q-75 0 -122 36t-47 106q0 69 47.5 108t126.5 46l153 15v27q0 51 -28.5 80.5t-79.5 29.5q-93 0 -112 -95h-87q8 74 60.5 120.5t139.5 46.5q88 0 141.5 -48t53.5 -136v-217
q0 -41 39 -41zM404 192v43l-125 -12q-115 -10 -115 -87q0 -39 26.5 -57.5t67.5 -18.5q58 0 102 32.5t44 99.5z" />
    <glyph glyph-name="uni01CF" unicode="&#x1cf;" 
d="M339 759h-78l-102 141h79l60 -86h5l58 86h79zM345 81h179v-81h-449v81h180v538h-175v81h439v-81h-174v-538z" />
    <glyph glyph-name="uni01D0" unicode="&#x1d0;" 
d="M362 700h79l-101 -141h-78l-102 141h79l60 -86h5zM344 69h177v-69h-442v69h178v362h-168v69h255v-431z" />
    <glyph glyph-name="uni01D1" unicode="&#x1d1;" 
d="M362 900h79l-101 -141h-78l-102 141h79l60 -86h5zM301 -10q-114 0 -181 95t-67 265q0 168 66.5 264t181.5 96q113 0 180 -96t67 -264t-67 -264t-180 -96zM301 74q73 0 114.5 71.5t41.5 204.5t-41.5 204.5t-114.5 71.5q-74 0 -116 -71.5t-42 -204.5t42 -204.5t116 -71.5z
" />
    <glyph glyph-name="uni01D2" unicode="&#x1d2;" 
d="M361 700h79l-101 -141h-78l-102 141h79l60 -86h5zM300 -10q-107 0 -174 74t-67 187t66.5 186t174.5 73q106 0 173 -73.5t67 -185.5q0 -114 -66.5 -187.5t-173.5 -73.5zM300 66q70 0 111 52.5t41 132.5q0 79 -41.5 131t-110.5 52q-72 0 -112.5 -51.5t-40.5 -131.5
t41 -132.5t112 -52.5z" />
    <glyph glyph-name="uni01D3" unicode="&#x1d3;" 
d="M361 900h79l-101 -141h-78l-102 141h79l60 -86h5zM524 700v-466q0 -116 -60.5 -180t-162.5 -64q-103 0 -164 64t-61 180v466h91v-476q0 -72 37.5 -111t96.5 -39t95.5 39t36.5 111v476h91z" />
    <glyph glyph-name="uni01D4" unicode="&#x1d4;" 
d="M361 700h79l-101 -141h-78l-102 141h79l60 -86h5zM269 -10q-84 0 -135 50.5t-51 143.5v316h88v-299q0 -68 34 -101.5t89 -33.5q59 0 96.5 36t37.5 108v290h88v-500h-79l-9 63h-6q-52 -73 -153 -73z" />
    <glyph glyph-name="uni01E2" unicode="&#x1e2;" 
d="M257 845h301v-64h-301v64zM396 77h181v-77h-267v193h-142l-66 -193h-85l229 700h321v-77h-171v-229h142v-78h-142v-239zM187 267h123v333h-6z" />
    <glyph glyph-name="uni01E3" unicode="&#x1e3;" 
d="M451 645v-64h-301v64h301zM414 59q27 0 48.5 20t25.5 66h82q-7 -78 -50 -116.5t-104 -38.5q-88 0 -126 72q-32 -72 -127 -72q-63 0 -100.5 35t-37.5 102q0 85 52.5 125t141.5 40h31v64q0 83 -64 83q-68 0 -71 -85l-84 2q4 76 44 115t108 39q81 0 118 -60q40 60 115 60
q68 0 111 -58t43 -191q0 -21 -1 -34h-235q0 -168 80 -168zM415 441q-35 0 -57 -36.5t-24 -112.5h157q-3 149 -76 149zM173 59q32 0 54.5 24.5t22.5 79.5v64h-22q-57 0 -88 -20.5t-31 -73.5q0 -36 17.5 -55t46.5 -19z" />
    <glyph glyph-name="Gcaron" unicode="&#x1e6;" 
d="M351 900h79l-101 -141h-78l-102 141h79l60 -86h5zM304 364h230v-364h-70l-11 64h-7q-10 -25 -49.5 -49.5t-103.5 -24.5q-115 0 -178 90.5t-63 257.5q0 174 69 273t190 99q91 0 148.5 -55t70.5 -154h-95q-28 125 -124 125q-79 0 -122.5 -75t-43.5 -213q0 -133 42 -200
t120 -67q63 0 101 41t38 116v63h-142v73z" />
    <glyph glyph-name="gcaron" unicode="&#x1e7;" 
d="M338 559h-78l-102 141h79l60 -86h5l58 86h79zM356 94q91 0 138.5 -37t47.5 -105q0 -77 -65 -119.5t-168 -42.5q-117 0 -180 48t-72 123l93 71q-32 11 -51 35t-19 56q0 60 68 93q-57 48 -57 122q0 75 58 123.5t151 48.5q69 0 122 -32q56 27 90 70l52 -52q-39 -39 -92 -60
q34 -43 34 -98q0 -77 -58.5 -123.5t-147.5 -46.5q-56 0 -100 18q-40 -16 -40 -46q0 -46 82 -46h114zM300 443q-56 0 -90 -29.5t-34 -75.5q0 -44 34.5 -73.5t89.5 -29.5q54 0 87.5 29.5t33.5 73.5q0 46 -33 75.5t-88 29.5zM309 -141q61 0 105 23t44 67q0 36 -29 55t-81 19
h-107l-97 -71q12 -40 52.5 -66.5t112.5 -26.5z" />
    <glyph glyph-name="uni01EA" unicode="&#x1ea;" 
d="M362 -2q-65 -25 -65 -72q0 -43 58 -43q21 0 44 6v-55q-18 -7 -52 -7q-50 0 -81 22.5t-31 66.5q0 45 44 75q-104 9 -165 103t-61 256q0 168 66.5 264t181.5 96q113 0 180 -96t67 -264q0 -143 -49.5 -235t-136.5 -117zM143 350q0 -133 42 -204.5t116 -71.5q73 0 114.5 71.5
t41.5 204.5t-41.5 204.5t-114.5 71.5q-74 0 -116 -71.5t-42 -204.5z" />
    <glyph glyph-name="uni01EB" unicode="&#x1eb;" 
d="M363 -2q-64 -27 -64 -72q0 -43 58 -43q21 0 44 6v-55q-18 -7 -52 -7q-50 0 -81 22.5t-31 66.5q0 45 44 75q-99 7 -160.5 80t-61.5 180q0 113 66.5 186t174.5 73q106 0 173 -73.5t67 -185.5q0 -96 -48 -164.5t-129 -88.5zM147 251q0 -80 41 -132.5t112 -52.5
q70 0 111 52.5t41 132.5q0 79 -41.5 131t-110.5 52q-72 0 -112.5 -51.5t-40.5 -131.5z" />
    <glyph glyph-name="uni01F4" unicode="&#x1f4;" 
d="M324 900h78l-77 -145h-70zM304 364h230v-364h-70l-11 64h-7q-10 -25 -49.5 -49.5t-103.5 -24.5q-115 0 -178 90.5t-63 257.5q0 174 69 273t190 99q91 0 148.5 -55t70.5 -154h-95q-28 125 -124 125q-79 0 -122.5 -75t-43.5 -213q0 -133 42 -200t120 -67q63 0 101 41
t38 116v63h-142v73z" />
    <glyph glyph-name="uni01F5" unicode="&#x1f5;" 
d="M410 700l-77 -145h-70l69 145h78zM356 94q91 0 138.5 -37t47.5 -105q0 -77 -65 -119.5t-168 -42.5q-117 0 -180 48t-72 123l93 71q-32 11 -51 35t-19 56q0 60 68 93q-57 48 -57 122q0 75 58 123.5t151 48.5q69 0 122 -32q56 27 90 70l52 -52q-39 -39 -92 -60
q34 -43 34 -98q0 -77 -58.5 -123.5t-147.5 -46.5q-56 0 -100 18q-40 -16 -40 -46q0 -46 82 -46h114zM300 443q-56 0 -90 -29.5t-34 -75.5q0 -44 34.5 -73.5t89.5 -29.5q54 0 87.5 29.5t33.5 73.5q0 46 -33 75.5t-88 29.5zM309 -141q61 0 105 23t44 67q0 36 -29 55t-81 19
h-107l-97 -71q12 -40 52.5 -66.5t112.5 -26.5z" />
    <glyph glyph-name="uni01F8" unicode="&#x1f8;" 
d="M266 900l69 -145h-70l-77 145h78zM440 700h86v-700h-94l-266 529h-6v-529h-86v700h95l265 -529h6v529z" />
    <glyph glyph-name="uni01F9" unicode="&#x1f9;" 
d="M267 700l69 -145h-70l-77 145h78zM331 510q84 0 135 -50.5t51 -143.5v-316h-88v299q0 68 -34 101.5t-89 33.5q-59 0 -96.5 -36t-37.5 -108v-290h-88v500h79l9 -63h6q52 73 153 73z" />
    <glyph glyph-name="AEacute" unicode="&#x1fc;" 
d="M440 900h78l-77 -145h-70zM396 77h181v-77h-267v193h-142l-66 -193h-85l229 700h321v-77h-171v-229h142v-78h-142v-239zM187 267h123v333h-6z" />
    <glyph glyph-name="aeacute" unicode="&#x1fd;" 
d="M412 700l-77 -145h-70l69 145h78zM414 59q27 0 48.5 20t25.5 66h82q-7 -78 -50 -116.5t-104 -38.5q-88 0 -126 72q-32 -72 -127 -72q-63 0 -100.5 35t-37.5 102q0 85 52.5 125t141.5 40h31v64q0 83 -64 83q-68 0 -71 -85l-84 2q4 76 44 115t108 39q81 0 118 -60
q40 60 115 60q68 0 111 -58t43 -191q0 -21 -1 -34h-235q0 -168 80 -168zM415 441q-35 0 -57 -36.5t-24 -112.5h157q-3 149 -76 149zM173 59q32 0 54.5 24.5t22.5 79.5v64h-22q-57 0 -88 -20.5t-31 -73.5q0 -36 17.5 -55t46.5 -19z" />
    <glyph glyph-name="Oslashacute" unicode="&#x1fe;" 
d="M412 900l-77 -145h-70l69 145h78zM485 608q63 -96 63 -258q0 -168 -67 -264t-180 -96q-78 0 -136 46l-44 -79l-61 34l56 100q-63 96 -63 259q0 168 66.5 264t181.5 96q76 0 133 -45l44 79l63 -35zM140 350q0 -102 25 -169l228 409q-37 39 -92 39q-75 0 -118 -72t-43 -207
zM301 71q75 0 117.5 72.5t42.5 206.5q0 103 -26 170l-228 -409q38 -40 94 -40z" />
    <glyph glyph-name="oslashacute" unicode="&#x1ff;" 
d="M412 700l-77 -145h-70l69 145h78zM477 432q63 -72 63 -181q0 -114 -66.5 -187.5t-173.5 -73.5q-73 0 -129 36l-53 -71l-52 36l57 76q-64 73 -64 184q0 113 66.5 186t174.5 73q72 0 128 -36l53 70l53 -36zM143 251q0 -69 30 -118l210 280q-36 25 -83 25q-73 0 -115 -53
t-42 -134zM300 62q72 0 114 54t42 135q0 66 -29 115l-210 -280q37 -24 83 -24z" />
    <glyph glyph-name="uni0218" unicode="&#x218;" 
d="M527 182q0 -94 -64 -143t-166 -49q-108 0 -171 55.5t-70 154.5h90q8 -64 47 -97.5t105 -33.5q60 0 99.5 27.5t39.5 83.5q0 32 -12 55.5t-38 39.5t-45.5 24t-54.5 19l-26 8q-38 13 -64.5 25t-56.5 34t-46 55.5t-16 76.5q0 87 63.5 140t159.5 53q98 0 159.5 -55.5
t66.5 -142.5h-86q-6 52 -42 85.5t-97 33.5q-60 0 -97 -31.5t-37 -80.5q0 -22 10 -40.5t19.5 -28.5t34.5 -21.5t34 -14.5l39 -13l23 -8q22 -7 33.5 -11t35.5 -15t38.5 -21t34 -27t30.5 -35.5t19 -45t8 -56.5zM306 -60q31 0 48 -21.5t17 -54.5q0 -52 -30 -91.5t-72 -63.5
l-26 27q58 48 59 88q-26 -2 -42 14t-16 42q0 27 17.5 43.5t44.5 16.5z" />
    <glyph glyph-name="uni0219" unicode="&#x219;" 
d="M502 135q0 -71 -56.5 -108t-143.5 -37q-105 0 -159.5 44t-58.5 118h86q10 -93 132 -93q51 0 85 18t34 56q0 30 -27 50.5t-89 34.5l-46 10q-78 17 -117.5 48t-39.5 88q0 68 55 107t136 39q92 0 143 -42t54 -101h-85q-4 33 -35 53.5t-77 20.5t-77 -18.5t-31 -54.5
q0 -33 25.5 -47t87.5 -28l42 -9q83 -19 122.5 -54.5t39.5 -94.5zM299 -60q31 0 48 -21.5t17 -54.5q0 -52 -30 -91.5t-72 -63.5l-26 27q58 48 59 88q-26 -2 -42 14t-16 42q0 27 17.5 43.5t44.5 16.5z" />
    <glyph glyph-name="uni021A" unicode="&#x21a;" 
d="M52 700h496v-82h-203v-618h-90v618h-203v82zM298 -60q31 0 48 -21.5t17 -54.5q0 -52 -30 -91.5t-72 -63.5l-26 27q58 48 59 88q-26 -2 -42 14t-16 42q0 27 17.5 43.5t44.5 16.5z" />
    <glyph glyph-name="uni021B" unicode="&#x21b;" 
d="M321 170q0 -106 111 -106q38 0 68 8v-71q-44 -11 -87 -11q-179 0 -179 166v273h-162v71h83q48 0 67.5 19.5t19.5 70.5v46h79v-136h208v-71h-208v-259zM370 -60q31 0 48 -21.5t17 -54.5q0 -52 -30 -91.5t-72 -63.5l-26 27q58 48 59 88q-26 -2 -42 14t-16 42
q0 27 17.5 43.5t44.5 16.5z" />
    <glyph glyph-name="uni021E" unicode="&#x21e;" 
d="M361 900h79l-101 -141h-78l-102 141h79l60 -86h5zM435 700h91v-700h-91v313h-270v-313h-91v700h91v-305h270v305z" />
    <glyph glyph-name="uni0226" unicode="&#x226;" 
d="M301 780q-24 0 -41.5 17t-17.5 41t17.5 40.5t41.5 16.5q23 0 40 -16.5t17 -40.5t-17 -41t-40 -17zM479 0l-57 191h-244l-57 -191h-95l218 700h112l218 -700h-95zM201 269h198l-96 320h-7z" />
    <glyph glyph-name="uni0227" unicode="&#x227;" 
d="M294 580q-24 0 -41.5 17t-17.5 41t17.5 40.5t41.5 16.5q23 0 40 -16.5t17 -40.5t-17 -41t-40 -17zM531 68h13v-68h-40q-74 0 -89 65q-57 -75 -169 -75q-75 0 -122 36t-47 106q0 69 47.5 108t126.5 46l153 15v27q0 51 -28.5 80.5t-79.5 29.5q-93 0 -112 -95h-87
q8 74 60.5 120.5t139.5 46.5q88 0 141.5 -48t53.5 -136v-217q0 -41 39 -41zM404 192v43l-125 -12q-115 -10 -115 -87q0 -39 26.5 -57.5t67.5 -18.5q58 0 102 32.5t44 99.5z" />
    <glyph glyph-name="uni0228" unicode="&#x228;" 
d="M515 0h-184l-31 -44q38 2 68.5 -20t30.5 -63q0 -38 -27 -60.5t-74 -22.5q-43 0 -72 21l18 40q28 -16 52 -16q23 0 36.5 11.5t13.5 29.5q0 42 -52 42q-15 0 -35 -8l-29 25l44 65h-184v700h415v-81h-327v-224h285v-80h-285v-234h337v-81z" />
    <glyph glyph-name="uni0229" unicode="&#x229;" 
d="M527 260q0 -7 -2 -31h-375q4 -75 46.5 -121t110.5 -46q50 0 84.5 21.5t47.5 62.5h85q-16 -70 -68.5 -110.5t-130.5 -44.5l-24 -35q38 2 68.5 -20t30.5 -63q0 -38 -27 -60.5t-74 -22.5q-43 0 -72 21l18 40q28 -16 52 -16q23 0 36.5 11.5t13.5 29.5q0 42 -52 42
q-15 0 -35 -8l-29 25l39 57q-92 13 -148.5 81t-56.5 172q0 119 67.5 192t170.5 73q97 0 160.5 -65t63.5 -185zM303 438q-62 0 -103.5 -41.5t-48.5 -103.5h290q0 65 -38.5 105t-99.5 40z" />
    <glyph glyph-name="uni022E" unicode="&#x22e;" 
d="M301 780q-24 0 -41.5 17t-17.5 41t17.5 40.5t41.5 16.5q23 0 40 -16.5t17 -40.5t-17 -41t-40 -17zM301 -10q-114 0 -181 95t-67 265q0 168 66.5 264t181.5 96q113 0 180 -96t67 -264t-67 -264t-180 -96zM301 74q73 0 114.5 71.5t41.5 204.5t-41.5 204.5t-114.5 71.5
q-74 0 -116 -71.5t-42 -204.5t42 -204.5t116 -71.5z" />
    <glyph glyph-name="uni022F" unicode="&#x22f;" 
d="M301 580q-24 0 -41.5 17t-17.5 41t17.5 40.5t41.5 16.5q23 0 40 -16.5t17 -40.5t-17 -41t-40 -17zM300 -10q-107 0 -174 74t-67 187t66.5 186t174.5 73q106 0 173 -73.5t67 -185.5q0 -114 -66.5 -187.5t-173.5 -73.5zM300 66q70 0 111 52.5t41 132.5q0 79 -41.5 131
t-110.5 52q-72 0 -112.5 -51.5t-40.5 -131.5t41 -132.5t112 -52.5z" />
    <glyph glyph-name="uni0232" unicode="&#x232;" 
d="M151 845h301v-64h-301v64zM466 700h108l-228 -353v-347h-90v347l-230 353h108l163 -251h7z" />
    <glyph glyph-name="uni0233" unicode="&#x233;" 
d="M150 645h301v-64h-301v64zM544 500l-200 -578q-21 -62 -62 -97t-117 -35q-36 0 -76 11v68q29 -8 63 -8q79 0 110 74l25 65h-30l-202 500h92l164 -409h6l136 409h91z" />
    <glyph glyph-name="uni0237" unicode="&#x237;" 
d="M135 500h278v-524q0 -186 -186 -186q-44 0 -90 11v70q32 -9 69 -9q34 0 58.5 10t36 22.5t18 33t7 31.5t0.5 28v444h-191v69z" />
    <glyph glyph-name="circumflex" unicode="&#x2c6;" 
d="M239 559h-79l101 141h78l102 -141h-79l-60 86h-5z" />
    <glyph glyph-name="caron" unicode="&#x2c7;" 
d="M361 700h79l-101 -141h-78l-102 141h79l60 -86h5z" />
    <glyph glyph-name="breve" unicode="&#x2d8;" 
d="M432 700q0 -51 -36.5 -90t-94.5 -39t-95.5 39t-37.5 90h70q0 -31 17 -51t46 -20q28 0 44.5 20t16.5 51h70z" />
    <glyph glyph-name="dotaccent" unicode="&#x2d9;" 
d="M301 580q-24 0 -41.5 17t-17.5 41t17.5 40.5t41.5 16.5q23 0 40 -16.5t17 -40.5t-17 -41t-40 -17z" />
    <glyph glyph-name="ring" unicode="&#x2da;" 
d="M300 541q-39 0 -67.5 28.5t-28.5 66.5q0 39 28.5 67t67.5 28t67.5 -28t28.5 -67q0 -38 -28.5 -66.5t-67.5 -28.5zM301 592q17 0 29 13t12 31q0 17 -12.5 30t-28.5 13q-18 0 -30.5 -12.5t-12.5 -30.5t12.5 -31t30.5 -13z" />
    <glyph glyph-name="ogonek" unicode="&#x2db;" 
d="M321 20l26 -20q-70 -25 -70 -74q0 -43 58 -43q21 0 44 6v-55q-18 -7 -52 -7q-50 0 -81 22.5t-31 66.5q0 40 29 63t77 41z" />
    <glyph glyph-name="tilde" unicode="&#x2dc;" 
d="M472 667q-3 -49 -29 -83.5t-71 -34.5q-25 0 -46 10t-32.5 21.5t-26.5 21.5t-30 10q-40 0 -46 -55h-63q5 52 30.5 85.5t70.5 33.5q26 0 47 -10t32 -22t25.5 -22t29.5 -10q41 0 47 55h62z" />
    <glyph glyph-name="hungarumlaut" unicode="&#x2dd;" 
d="M213 700h77l-63 -145h-72zM367 700h77l-64 -145h-71z" />
    <glyph glyph-name="uni1E02" unicode="&#x1e02;" 
d="M294 780q-24 0 -41.5 17t-17.5 41t17.5 40.5t41.5 16.5q23 0 40 -16.5t17 -40.5t-17 -41t-40 -17zM425 365q116 -43 116 -175q0 -90 -56 -140t-157 -50h-252v700h248q97 0 148.5 -47t51.5 -127q0 -110 -99 -156v-5zM164 625v-227h152q56 0 87 31.5t31 85.5q0 52 -31 81
t-84 29h-155zM321 75q60 0 94.5 33t34.5 88q0 56 -35 91.5t-94 35.5h-157v-248h157z" />
    <glyph glyph-name="uni1E03" unicode="&#x1e03;" 
d="M113 780q-24 0 -41.5 17t-17.5 41t17.5 40.5t41.5 16.5q23 0 40 -16.5t17 -40.5t-17 -41t-40 -17zM317 510q100 0 165 -71t65 -188q0 -116 -64.5 -188.5t-165.5 -72.5q-105 0 -161 81h-7l-8 -71h-72v710h88v-276q53 76 160 76zM306 66q68 0 110.5 51t42.5 134
q0 82 -42.5 132.5t-110.5 50.5t-108.5 -50t-40.5 -133q0 -84 40.5 -134.5t108.5 -50.5z" />
    <glyph glyph-name="uni1E0A" unicode="&#x1e0a;" 
d="M284 780q-24 0 -41.5 17t-17.5 41t17.5 40.5t41.5 16.5q23 0 40 -16.5t17 -40.5t-17 -41t-40 -17zM242 700q150 0 225.5 -94t75.5 -255t-75 -256t-226 -95h-168v700h168zM237 82q105 0 159.5 68t54.5 201q0 267 -214 267h-72v-536h72z" />
    <glyph glyph-name="uni1E0B" unicode="&#x1e0b;" 
d="M488 780q-24 0 -41.5 17t-17.5 41t17.5 40.5t41.5 16.5q23 0 40 -16.5t17 -40.5t-17 -41t-40 -17zM443 434v276h88v-710h-72l-8 71h-7q-56 -81 -161 -81q-101 0 -165.5 72.5t-64.5 188.5q0 117 65 188t165 71q107 0 160 -76zM294 66q68 0 108.5 50.5t40.5 134.5
q0 83 -40.5 133t-108.5 50t-110.5 -50.5t-42.5 -132.5q0 -83 42.5 -134t110.5 -51z" />
    <glyph glyph-name="uni1E10" unicode="&#x1e10;" 
d="M242 700q150 0 225.5 -94t75.5 -255t-75 -256t-226 -95h-168v700h168zM237 82q105 0 159.5 68t54.5 201q0 267 -214 267h-72v-536h72zM281 -60q31 0 48 -21.5t17 -54.5q0 -52 -30 -91.5t-72 -63.5l-26 27q58 48 59 88q-26 -2 -42 14t-16 42q0 27 17.5 43.5t44.5 16.5z
" />
    <glyph glyph-name="uni1E11" unicode="&#x1e11;" 
d="M443 710h88v-710h-72l-8 71h-7q-56 -81 -161 -81q-101 0 -165.5 72.5t-64.5 188.5q0 117 65 188t165 71q107 0 160 -76v276zM294 66q68 0 108.5 50.5t40.5 134.5q0 83 -40.5 133t-108.5 50t-110.5 -50.5t-42.5 -132.5q0 -83 42.5 -134t110.5 -51zM299 -60q31 0 48 -21.5
t17 -54.5q0 -52 -30 -91.5t-72 -63.5l-26 27q58 48 59 88q-26 -2 -42 14t-16 42q0 27 17.5 43.5t44.5 16.5z" />
    <glyph glyph-name="uni1E1E" unicode="&#x1e1e;" 
d="M307 780q-24 0 -41.5 17t-17.5 41t17.5 40.5t41.5 16.5q23 0 40 -16.5t17 -40.5t-17 -41t-40 -17zM508 618h-313v-233h271v-80h-271v-305h-91v700h404v-82z" />
    <glyph glyph-name="uni1E1F" unicode="&#x1e1f;" 
d="M363 780q-24 0 -41.5 17t-17.5 41t17.5 40.5t41.5 16.5q23 0 40 -16.5t17 -40.5t-17 -41t-40 -17zM529 500v-71h-220v-429h-87v429h-150v71h150v40q0 86 50.5 128t125.5 42q54 0 103 -22l-18 -65q-42 14 -72 14q-50 0 -76 -28.5t-26 -78.5v-30h220z" />
    <glyph glyph-name="uni1E20" unicode="&#x1e20;" 
d="M141 845h301v-64h-301v64zM304 364h230v-364h-70l-11 64h-7q-10 -25 -49.5 -49.5t-103.5 -24.5q-115 0 -178 90.5t-63 257.5q0 174 69 273t190 99q91 0 148.5 -55t70.5 -154h-95q-28 125 -124 125q-79 0 -122.5 -75t-43.5 -213q0 -133 42 -200t120 -67q63 0 101 41
t38 116v63h-142v73z" />
    <glyph glyph-name="uni1E22" unicode="&#x1e22;" 
d="M301 780q-24 0 -41.5 17t-17.5 41t17.5 40.5t41.5 16.5q23 0 40 -16.5t17 -40.5t-17 -41t-40 -17zM435 700h91v-700h-91v313h-270v-313h-91v700h91v-305h270v305z" />
    <glyph glyph-name="uni1E23" unicode="&#x1e23;" 
d="M130 780q-24 0 -41.5 17t-17.5 41t17.5 40.5t41.5 16.5q23 0 40 -16.5t17 -40.5t-17 -41t-40 -17zM331 510q84 0 135 -50.5t51 -143.5v-316h-88v299q0 68 -34 101.5t-89 33.5q-59 0 -96.5 -36t-37.5 -108v-290h-88v710h88v-273h6q52 73 153 73z" />
    <glyph glyph-name="uni1E26" unicode="&#x1e26;" 
d="M186 766q-25 0 -43 17.5t-18 42.5t18 42.5t43 17.5t42.5 -17.5t17.5 -42.5t-17.5 -42.5t-42.5 -17.5zM415 766q-24 0 -41.5 17.5t-17.5 42.5t17.5 42.5t41.5 17.5q25 0 43 -17.5t18 -42.5t-18 -42.5t-43 -17.5zM435 700h91v-700h-91v313h-270v-313h-91v700h91v-305h270
v305z" />
    <glyph glyph-name="uni1E27" unicode="&#x1e27;" 
d="M39 758q-23 0 -39 16t-16 39t16 39t39 16t38.5 -16t15.5 -39t-16 -39t-38 -16zM221 758q-22 0 -38 16.5t-16 38.5q0 23 16 39t38 16q23 0 38.5 -16t15.5 -39t-16 -39t-38 -16zM331 510q84 0 135 -50.5t51 -143.5v-316h-88v299q0 68 -34 101.5t-89 33.5q-59 0 -96.5 -36
t-37.5 -108v-290h-88v710h88v-273h6q52 73 153 73z" />
    <glyph glyph-name="uni1E28" unicode="&#x1e28;" 
d="M435 700h91v-700h-91v313h-270v-313h-17l-31 -44q38 2 68.5 -20t30.5 -63q0 -38 -27 -60.5t-74 -22.5q-43 0 -72 21l18 40q28 -16 52 -16q23 0 36.5 11.5t13.5 29.5q0 42 -52 42q-15 0 -35 -8l-29 25l44 65h-17v700h91v-305h270v305z" />
    <glyph glyph-name="uni1E29" unicode="&#x1e29;" 
d="M331 510q84 0 135 -50.5t51 -143.5v-316h-88v299q0 68 -34 101.5t-89 33.5q-59 0 -96.5 -36t-37.5 -108v-290h-14l-31 -44q38 2 68.5 -20t30.5 -63q0 -38 -27 -60.5t-74 -22.5q-43 0 -72 21l18 40q28 -16 52 -16q23 0 36.5 11.5t13.5 29.5q0 42 -52 42q-15 0 -35 -8
l-29 25l44 65h-17v710h88v-273h6q52 73 153 73z" />
    <glyph glyph-name="uni1E40" unicode="&#x1e40;" 
d="M301 780q-24 0 -41.5 17t-17.5 41t17.5 40.5t41.5 16.5q23 0 40 -16.5t17 -40.5t-17 -41t-40 -17zM526 700v-700h-82v528h-7l-94 -253h-84l-96 253h-7v-528h-82v700h107l116 -319h7l116 319h106z" />
    <glyph glyph-name="uni1E41" unicode="&#x1e41;" 
d="M301 580q-24 0 -41.5 17t-17.5 41t17.5 40.5t41.5 16.5q23 0 40 -16.5t17 -40.5t-17 -41t-40 -17zM439 510q52 0 83.5 -34t31.5 -101v-375h-83v363q0 32 -16 52t-43 20q-31 0 -50.5 -23.5t-19.5 -63.5v-348h-83v357q0 35 -17 56t-44 21q-29 0 -49 -22t-20 -61v-351h-82
v500h74l8 -38h7q33 48 92 48q38 0 63 -19t34 -42h7q33 61 107 61z" />
    <glyph glyph-name="uni1E44" unicode="&#x1e44;" 
d="M301 780q-24 0 -41.5 17t-17.5 41t17.5 40.5t41.5 16.5q23 0 40 -16.5t17 -40.5t-17 -41t-40 -17zM440 700h86v-700h-94l-266 529h-6v-529h-86v700h95l265 -529h6v529z" />
    <glyph glyph-name="uni1E45" unicode="&#x1e45;" 
d="M301 580q-24 0 -41.5 17t-17.5 41t17.5 40.5t41.5 16.5q23 0 40 -16.5t17 -40.5t-17 -41t-40 -17zM331 510q84 0 135 -50.5t51 -143.5v-316h-88v299q0 68 -34 101.5t-89 33.5q-59 0 -96.5 -36t-37.5 -108v-290h-88v500h79l9 -63h6q52 73 153 73z" />
    <glyph glyph-name="uni1E56" unicode="&#x1e56;" 
d="M290 780q-24 0 -41.5 17t-17.5 41t17.5 40.5t41.5 16.5q23 0 40 -16.5t17 -40.5t-17 -41t-40 -17zM326 700q97 0 155 -58t58 -152q0 -98 -59.5 -155.5t-160.5 -57.5h-157v-277h-87v700h251zM305 358q68 0 105 35t37 97q0 60 -37.5 94.5t-98.5 34.5h-149v-261h143z" />
    <glyph glyph-name="uni1E57" unicode="&#x1e57;" 
d="M299 580q-24 0 -41.5 17t-17.5 41t17.5 40.5t41.5 16.5q23 0 40 -16.5t17 -40.5t-17 -41t-40 -17zM317 510q101 0 165.5 -72.5t64.5 -188.5q0 -117 -65 -188t-165 -71q-107 0 -160 76v-266h-88v700h72l8 -71h7q56 81 161 81zM306 66q68 0 110.5 50.5t42.5 132.5
q0 83 -42.5 134t-110.5 51t-108.5 -50.5t-40.5 -134.5q0 -83 40.5 -133t108.5 -50z" />
    <glyph glyph-name="uni1E58" unicode="&#x1e58;" 
d="M289 780q-24 0 -41.5 17t-17.5 41t17.5 40.5t41.5 16.5q23 0 40 -16.5t17 -40.5t-17 -41t-40 -17zM557 0h-99l-173 294h-122v-294h-89v700h234q100 0 159 -54t59 -144q0 -75 -40 -124.5t-112 -68.5zM163 621v-248h132q66 0 103 34t37 91q0 59 -37.5 91t-102.5 32h-132z
" />
    <glyph glyph-name="uni1E59" unicode="&#x1e59;" 
d="M310 580q-24 0 -41.5 17t-17.5 41t17.5 40.5t41.5 16.5q23 0 40 -16.5t17 -40.5t-17 -41t-40 -17zM488 424q-81 0 -131.5 -43.5t-50.5 -122.5v-191h193v-67h-430v67h149v366h-144v67h222l9 -84h7q27 47 70.5 70.5t125.5 23.5h37v-88q-20 2 -57 2z" />
    <glyph glyph-name="uni1E60" unicode="&#x1e60;" 
d="M290 780q-24 0 -41.5 17t-17.5 41t17.5 40.5t41.5 16.5q23 0 40 -16.5t17 -40.5t-17 -41t-40 -17zM527 182q0 -94 -64 -143t-166 -49q-108 0 -171 55.5t-70 154.5h90q8 -64 47 -97.5t105 -33.5q60 0 99.5 27.5t39.5 83.5q0 32 -12 55.5t-38 39.5t-45.5 24t-54.5 19l-26 8
q-38 13 -64.5 25t-56.5 34t-46 55.5t-16 76.5q0 87 63.5 140t159.5 53q98 0 159.5 -55.5t66.5 -142.5h-86q-6 52 -42 85.5t-97 33.5q-60 0 -97 -31.5t-37 -80.5q0 -22 10 -40.5t19.5 -28.5t34.5 -21.5t34 -14.5l39 -13l23 -8q22 -7 33.5 -11t35.5 -15t38.5 -21t34 -27
t30.5 -35.5t19 -45t8 -56.5z" />
    <glyph glyph-name="uni1E61" unicode="&#x1e61;" 
d="M288 580q-24 0 -41.5 17t-17.5 41t17.5 40.5t41.5 16.5q23 0 40 -16.5t17 -40.5t-17 -41t-40 -17zM502 135q0 -71 -56.5 -108t-143.5 -37q-105 0 -159.5 44t-58.5 118h86q10 -93 132 -93q51 0 85 18t34 56q0 30 -27 50.5t-89 34.5l-46 10q-78 17 -117.5 48t-39.5 88
q0 68 55 107t136 39q92 0 143 -42t54 -101h-85q-4 33 -35 53.5t-77 20.5t-77 -18.5t-31 -54.5q0 -33 25.5 -47t87.5 -28l42 -9q83 -19 122.5 -54.5t39.5 -94.5z" />
    <glyph glyph-name="uni1E7C" unicode="&#x1e7c;" 
d="M472 867q-3 -49 -29 -83.5t-71 -34.5q-25 0 -46 10t-32.5 21.5t-26.5 21.5t-30 10q-40 0 -46 -55h-63q5 52 30.5 85.5t70.5 33.5q26 0 47 -10t32 -22t25.5 -22t29.5 -10q41 0 47 55h62zM476 700h98l-219 -700h-112l-217 700h98l172 -570h8z" />
    <glyph glyph-name="uni1E7D" unicode="&#x1e7d;" 
d="M472 667q-3 -49 -29 -83.5t-71 -34.5q-25 0 -46 10t-32.5 21.5t-26.5 21.5t-30 10q-40 0 -46 -55h-63q5 52 30.5 85.5t70.5 33.5q26 0 47 -10t32 -22t25.5 -22t29.5 -10q41 0 47 55h62zM455 500h89l-190 -500h-108l-191 500h90l152 -409h7z" />
    <glyph glyph-name="Wgrave" unicode="&#x1e80;" 
d="M266 900l69 -145h-70l-77 145h78zM489 700h84l-84 -700h-98l-88 426h-7l-87 -426h-98l-85 700h87l54 -527h7l79 377h94l77 -377h7z" />
    <glyph glyph-name="wgrave" unicode="&#x1e81;" 
d="M266 700l69 -145h-70l-77 145h78zM496 500h79l-92 -500h-98l-81 354h-7l-84 -354h-97l-91 500h80l62 -385h7l78 349h97l77 -349h6z" />
    <glyph glyph-name="Wacute" unicode="&#x1e82;" 
d="M334 900h78l-77 -145h-70zM489 700h84l-84 -700h-98l-88 426h-7l-87 -426h-98l-85 700h87l54 -527h7l79 377h94l77 -377h7z" />
    <glyph glyph-name="wacute" unicode="&#x1e83;" 
d="M334 700h78l-77 -145h-70zM496 500h79l-92 -500h-98l-81 354h-7l-84 -354h-97l-91 500h80l62 -385h7l78 349h97l77 -349h6z" />
    <glyph glyph-name="Wdieresis" unicode="&#x1e84;" 
d="M186 766q-25 0 -43 17.5t-18 42.5t18 42.5t43 17.5t42.5 -17.5t17.5 -42.5t-17.5 -42.5t-42.5 -17.5zM415 766q-24 0 -41.5 17.5t-17.5 42.5t17.5 42.5t41.5 17.5q25 0 43 -17.5t18 -42.5t-18 -42.5t-43 -17.5zM489 700h84l-84 -700h-98l-88 426h-7l-87 -426h-98l-85 700
h87l54 -527h7l79 377h94l77 -377h7z" />
    <glyph glyph-name="wdieresis" unicode="&#x1e85;" 
d="M210 558q-22 0 -38.5 16t-16.5 39t16 39t39 16t38.5 -16t15.5 -39t-16 -39t-38 -16zM392 558q-22 0 -38 16.5t-16 38.5q0 23 16 39t38 16q23 0 38.5 -16t15.5 -39t-16 -39t-38 -16zM496 500h79l-92 -500h-98l-81 354h-7l-84 -354h-97l-91 500h80l62 -385h7l78 349h97
l77 -349h6z" />
    <glyph glyph-name="uni1E8C" unicode="&#x1e8c;" 
d="M186 766q-25 0 -43 17.5t-18 42.5t18 42.5t43 17.5t42.5 -17.5t17.5 -42.5t-17.5 -42.5t-42.5 -17.5zM415 766q-24 0 -41.5 17.5t-17.5 42.5t17.5 42.5t41.5 17.5q25 0 43 -17.5t18 -42.5t-18 -42.5t-43 -17.5zM462 0l-157 284h-6l-158 -284h-106l205 361l-195 339h106
l148 -264h6l147 264h103l-194 -339l205 -361h-104z" />
    <glyph glyph-name="uni1E8D" unicode="&#x1e8d;" 
d="M209 558q-23 0 -39 16t-16 39t16 39t39 16t38.5 -16t15.5 -39t-16 -39t-38 -16zM391 558q-22 0 -38 16.5t-16 38.5q0 23 16 39t38 16q23 0 38.5 -16t15.5 -39t-16 -39t-38 -16zM444 0l-140 194h-7l-142 -194h-103l190 260l-173 240h101l127 -173h7l125 173h101l-171 -240
l188 -260h-103z" />
    <glyph glyph-name="uni1E90" unicode="&#x1e90;" 
d="M242 759h-79l101 141h78l102 -141h-79l-60 86h-5zM186 82h349v-82h-481v51l352 562v5h-332v82h459v-51l-347 -562v-5z" />
    <glyph glyph-name="uni1E97" unicode="&#x1e97;" 
d="M191 694q-23 0 -39 16t-16 39t16 39t39 16t38.5 -16t15.5 -39t-16 -39t-38 -16zM373 694q-22 0 -38 16.5t-16 38.5q0 23 16 39t38 16q23 0 38.5 -16t15.5 -39t-16 -39t-38 -16zM321 170q0 -106 111 -106q38 0 68 8v-71q-44 -11 -87 -11q-179 0 -179 166v273h-162v71h83
q48 0 67.5 19.5t19.5 70.5v46h79v-136h208v-71h-208v-259z" />
    <glyph glyph-name="uni1E98" unicode="&#x1e98;" 
d="M300 541q-39 0 -67.5 28.5t-28.5 66.5q0 39 28.5 67t67.5 28t67.5 -28t28.5 -67q0 -38 -28.5 -66.5t-67.5 -28.5zM301 592q17 0 29 13t12 31q0 17 -12.5 30t-28.5 13q-18 0 -30.5 -12.5t-12.5 -30.5t12.5 -31t30.5 -13zM496 500h79l-92 -500h-98l-81 354h-7l-84 -354h-97
l-91 500h80l62 -385h7l78 349h97l77 -349h6z" />
    <glyph glyph-name="uni1E99" unicode="&#x1e99;" 
d="M300 541q-39 0 -67.5 28.5t-28.5 66.5q0 39 28.5 67t67.5 28t67.5 -28t28.5 -67q0 -38 -28.5 -66.5t-67.5 -28.5zM301 592q17 0 29 13t12 31q0 17 -12.5 30t-28.5 13q-18 0 -30.5 -12.5t-12.5 -30.5t12.5 -31t30.5 -13zM544 500l-200 -578q-21 -62 -62 -97t-117 -35
q-36 0 -76 11v68q29 -8 63 -8q79 0 110 74l25 65h-30l-202 500h92l164 -409h6l136 409h91z" />
    <glyph glyph-name="uni1E9E" unicode="&#x1e9e;" horiz-adv-x="1200" 
d="M527 182q0 -94 -64 -143t-166 -49q-108 0 -171 55.5t-70 154.5h90q8 -64 47 -97.5t105 -33.5q60 0 99.5 27.5t39.5 83.5q0 32 -12 55.5t-38 39.5t-45.5 24t-54.5 19l-26 8q-38 13 -64.5 25t-56.5 34t-46 55.5t-16 76.5q0 87 63.5 140t159.5 53q98 0 159.5 -55.5
t66.5 -142.5h-86q-6 52 -42 85.5t-97 33.5q-60 0 -97 -31.5t-37 -80.5q0 -22 10 -40.5t19.5 -28.5t34.5 -21.5t34 -14.5l39 -13l23 -8q22 -7 33.5 -11t35.5 -15t38.5 -21t34 -27t30.5 -35.5t19 -45t8 -56.5zM1127 182q0 -94 -64 -143t-166 -49q-108 0 -171 55.5t-70 154.5
h90q8 -64 47 -97.5t105 -33.5q60 0 99.5 27.5t39.5 83.5q0 32 -12 55.5t-38 39.5t-45.5 24t-54.5 19l-26 8q-38 13 -64.5 25t-56.5 34t-46 55.5t-16 76.5q0 87 63.5 140t159.5 53q98 0 159.5 -55.5t66.5 -142.5h-86q-6 52 -42 85.5t-97 33.5q-60 0 -97 -31.5t-37 -80.5
q0 -22 10 -40.5t19.5 -28.5t34.5 -21.5t34 -14.5l39 -13l23 -8q22 -7 33.5 -11t35.5 -15t38.5 -21t34 -27t30.5 -35.5t19 -45t8 -56.5z" />
    <glyph glyph-name="uni1EA0" unicode="&#x1ea0;" 
d="M574 0h-95l-57 191h-244l-57 -191h-95l218 700h112zM201 269h198l-96 320h-7zM301 -80q23 0 40 -16.5t17 -40.5t-17 -41t-40 -17q-24 0 -41.5 17t-17.5 41t17.5 40.5t41.5 16.5z" />
    <glyph glyph-name="uni1EA1" unicode="&#x1ea1;" 
d="M531 68h13v-68h-40q-74 0 -89 65q-57 -75 -169 -75q-75 0 -122 36t-47 106q0 69 47.5 108t126.5 46l153 15v27q0 51 -28.5 80.5t-79.5 29.5q-93 0 -112 -95h-87q8 74 60.5 120.5t139.5 46.5q88 0 141.5 -48t53.5 -136v-217q0 -41 39 -41zM404 192v43l-125 -12
q-115 -10 -115 -87q0 -39 26.5 -57.5t67.5 -18.5q58 0 102 32.5t44 99.5zM309 -80q23 0 40 -16.5t17 -40.5t-17 -41t-40 -17q-24 0 -41.5 17t-17.5 41t17.5 40.5t41.5 16.5z" />
    <glyph glyph-name="uni1EB8" unicode="&#x1eb8;" 
d="M178 81h337v-81h-425v700h415v-81h-327v-224h285v-80h-285v-234zM303 -195q-24 0 -41.5 17t-17.5 41t17.5 40.5t41.5 16.5q23 0 40 -16.5t17 -40.5t-17 -41t-40 -17z" />
    <glyph glyph-name="uni1EB9" unicode="&#x1eb9;" 
d="M527 260q0 -7 -2 -31h-375q4 -75 46.5 -121t110.5 -46q50 0 84.5 21.5t47.5 62.5h85q-16 -74 -74 -115t-143 -41q-107 0 -174.5 70t-67.5 185q0 119 67.5 192t170.5 73q97 0 160.5 -65t63.5 -185zM303 438q-62 0 -103.5 -41.5t-48.5 -103.5h290q0 65 -38.5 105t-99.5 40z
M304 -80q23 0 40 -16.5t17 -40.5t-17 -41t-40 -17q-24 0 -41.5 17t-17.5 41t17.5 40.5t41.5 16.5z" />
    <glyph glyph-name="uni1EBC" unicode="&#x1ebc;" 
d="M469 867q-3 -49 -29 -83.5t-71 -34.5q-25 0 -46 10t-32.5 21.5t-26.5 21.5t-30 10q-40 0 -46 -55h-63q5 52 30.5 85.5t70.5 33.5q26 0 47 -10t32 -22t25.5 -22t29.5 -10q41 0 47 55h62zM178 81h337v-81h-425v700h415v-81h-327v-224h285v-80h-285v-234z" />
    <glyph glyph-name="uni1EBD" unicode="&#x1ebd;" 
d="M239 612q-40 0 -46 -55h-63q5 52 30.5 85.5t70.5 33.5q26 0 47 -10t32 -22t25.5 -22t29.5 -10q41 0 47 55h62q-3 -49 -29 -83.5t-71 -34.5q-25 0 -46 10t-32.5 21.5t-26.5 21.5t-30 10zM527 260q0 -7 -2 -31h-375q4 -75 46.5 -121t110.5 -46q50 0 84.5 21.5t47.5 62.5h85
q-16 -74 -74 -115t-143 -41q-107 0 -174.5 70t-67.5 185q0 119 67.5 192t170.5 73q97 0 160.5 -65t63.5 -185zM303 438q-62 0 -103.5 -41.5t-48.5 -103.5h290q0 65 -38.5 105t-99.5 40z" />
    <glyph glyph-name="uni1ECA" unicode="&#x1eca;" 
d="M345 81h179v-81h-449v81h180v538h-175v81h439v-81h-174v-538zM301 -80q23 0 40 -16.5t17 -40.5t-17 -41t-40 -17q-24 0 -41.5 17t-17.5 41t17.5 40.5t41.5 16.5z" />
    <glyph glyph-name="uni1ECB" unicode="&#x1ecb;" 
d="M302 580q-24 0 -41.5 17t-17.5 41t17.5 40.5t41.5 16.5q23 0 40 -16.5t17 -40.5t-17 -41t-40 -17zM344 69h177v-69h-442v69h178v362h-168v69h255v-431zM302 -195q-24 0 -41.5 17t-17.5 41t17.5 40.5t41.5 16.5q23 0 40 -16.5t17 -40.5t-17 -41t-40 -17z" />
    <glyph glyph-name="uni1ECC" unicode="&#x1ecc;" 
d="M301 -10q-114 0 -181 95t-67 265q0 168 66.5 264t181.5 96q113 0 180 -96t67 -264t-67 -264t-180 -96zM301 74q73 0 114.5 71.5t41.5 204.5t-41.5 204.5t-114.5 71.5q-74 0 -116 -71.5t-42 -204.5t42 -204.5t116 -71.5zM301 -195q-24 0 -41.5 17t-17.5 41t17.5 40.5
t41.5 16.5q23 0 40 -16.5t17 -40.5t-17 -41t-40 -17z" />
    <glyph glyph-name="uni1ECD" unicode="&#x1ecd;" 
d="M300 -10q-107 0 -174 74t-67 187t66.5 186t174.5 73q106 0 173 -73.5t67 -185.5q0 -114 -66.5 -187.5t-173.5 -73.5zM300 66q70 0 111 52.5t41 132.5q0 79 -41.5 131t-110.5 52q-72 0 -112.5 -51.5t-40.5 -131.5t41 -132.5t112 -52.5zM301 -195q-24 0 -41.5 17t-17.5 41
t17.5 40.5t41.5 16.5q23 0 40 -16.5t17 -40.5t-17 -41t-40 -17z" />
    <glyph glyph-name="uni1EE4" unicode="&#x1ee4;" 
d="M524 700v-466q0 -116 -60.5 -180t-162.5 -64q-103 0 -164 64t-61 180v466h91v-476q0 -72 37.5 -111t96.5 -39t95.5 39t36.5 111v476h91zM301 -195q-24 0 -41.5 17t-17.5 41t17.5 40.5t41.5 16.5q23 0 40 -16.5t17 -40.5t-17 -41t-40 -17z" />
    <glyph glyph-name="uni1EE5" unicode="&#x1ee5;" 
d="M269 -10q-84 0 -135 50.5t-51 143.5v316h88v-299q0 -68 34 -101.5t89 -33.5q59 0 96.5 36t37.5 108v290h88v-500h-79l-9 63h-6q-52 -73 -153 -73zM301 -195q-24 0 -41.5 17t-17.5 41t17.5 40.5t41.5 16.5q23 0 40 -16.5t17 -40.5t-17 -41t-40 -17z" />
    <glyph glyph-name="Ygrave" unicode="&#x1ef2;" 
d="M267 900l69 -145h-70l-77 145h78zM466 700h108l-228 -353v-347h-90v347l-230 353h108l163 -251h7z" />
    <glyph glyph-name="ygrave" unicode="&#x1ef3;" 
d="M266 700l69 -145h-70l-77 145h78zM544 500l-200 -578q-21 -62 -62 -97t-117 -35q-36 0 -76 11v68q29 -8 63 -8q79 0 110 74l25 65h-30l-202 500h92l164 -409h6l136 409h91z" />
    <glyph glyph-name="uni1EF8" unicode="&#x1ef8;" 
d="M472 867q-3 -49 -29 -83.5t-71 -34.5q-25 0 -46 10t-32.5 21.5t-26.5 21.5t-30 10q-40 0 -46 -55h-63q5 52 30.5 85.5t70.5 33.5q26 0 47 -10t32 -22t25.5 -22t29.5 -10q41 0 47 55h62zM466 700h108l-228 -353v-347h-90v347l-230 353h108l163 -251h7z" />
    <glyph glyph-name="uni1EF9" unicode="&#x1ef9;" 
d="M472 667q-3 -49 -29 -83.5t-71 -34.5q-25 0 -46 10t-32.5 21.5t-26.5 21.5t-30 10q-40 0 -46 -55h-63q5 52 30.5 85.5t70.5 33.5q26 0 47 -10t32 -22t25.5 -22t29.5 -10q41 0 47 55h62zM544 500l-200 -578q-21 -62 -62 -97t-117 -35q-36 0 -76 11v68q29 -8 63 -8
q79 0 110 74l25 65h-30l-202 500h92l164 -409h6l136 409h91z" />
    <glyph glyph-name="uni200B" unicode="&#x200b;" horiz-adv-x="0" 
 />
    <glyph glyph-name="endash" unicode="&#x2013;" 
d="M75 347h450v-72h-450v72z" />
    <glyph glyph-name="emdash" unicode="&#x2014;" 
d="M23 345h554v-68h-554v68z" />
    <glyph glyph-name="quoteleft" unicode="&#x2018;" 
d="M305 460q-31 0 -48 23t-17 59q0 57 30 100.5t71 68.5l26 -32q-57 -47 -58 -94q25 2 41.5 -15t16.5 -45q0 -29 -17.5 -47t-44.5 -18z" />
    <glyph glyph-name="quoteright" unicode="&#x2019;" 
d="M295 712q31 0 48 -23.5t17 -59.5q0 -105 -101 -169l-26 32q57 49 58 94q-25 -2 -41.5 15t-16.5 45q0 30 17.5 48t44.5 18z" />
    <glyph glyph-name="quotesinglbase" unicode="&#x201a;" 
d="M295 120q31 0 48 -23.5t17 -59.5q0 -105 -101 -169l-26 32q57 49 58 94q-25 -2 -41.5 15.5t-16.5 45.5q0 29 17.5 47t44.5 18z" />
    <glyph glyph-name="quotedblleft" unicode="&#x201c;" 
d="M198 460q-30 0 -47 23t-17 59q0 57 30 100.5t71 68.5l26 -32q-57 -46 -58 -94q25 2 41 -15t16 -45q0 -30 -17.5 -47.5t-44.5 -17.5zM401 460q-31 0 -48 23t-17 59q0 57 30 100.5t72 68.5l26 -32q-58 -46 -59 -94q25 2 41.5 -15t16.5 -45q0 -30 -17.5 -47.5t-44.5 -17.5z
" />
    <glyph glyph-name="quotedblright" unicode="&#x201d;" 
d="M199 712q31 0 48 -23.5t17 -59.5q0 -105 -102 -169l-26 32q58 48 59 94q-25 -2 -41.5 15t-16.5 45q0 30 17.5 48t44.5 18zM402 712q31 0 48 -23.5t17 -59.5q0 -104 -101 -169l-27 32q58 48 59 94q-25 -2 -41.5 15t-16.5 45q0 30 17.5 48t44.5 18z" />
    <glyph glyph-name="quotedblbase" unicode="&#x201e;" 
d="M199 120q31 0 48 -23.5t17 -59.5q0 -105 -102 -169l-26 32q58 48 59 94q-25 -2 -41.5 15.5t-16.5 45.5q0 30 17.5 47.5t44.5 17.5zM402 120q30 0 47 -23.5t17 -59.5q0 -105 -101 -169l-26 32q57 47 58 94q-25 -2 -41 15.5t-16 45.5q0 30 17.5 47.5t44.5 17.5z" />
    <glyph glyph-name="dagger" unicode="&#x2020;" 
d="M510 514v-75h-169v-439h-82v439h-169v75h169v186h82v-186h169z" />
    <glyph glyph-name="daggerdbl" unicode="&#x2021;" 
d="M510 439h-169v-178h169v-75h-169v-186h-82v186h-169v75h169v178h-169v75h169v186h82v-186h169v-75z" />
    <glyph glyph-name="bullet" unicode="&#x2022;" 
d="M301 251q-27 0 -46.5 19.5t-19.5 45.5q0 27 19.5 46t46.5 19q26 0 45 -19t19 -46q0 -26 -19 -45.5t-45 -19.5z" />
    <glyph glyph-name="ellipsis" unicode="&#x2026;" 
d="M112 -5q-22 0 -38.5 16t-16.5 37q0 23 16 39t39 16q22 0 37.5 -16t15.5 -39q0 -21 -15.5 -37t-37.5 -16zM301 -5q-22 0 -38.5 16t-16.5 37q0 23 16 39t39 16q22 0 37.5 -16t15.5 -39q0 -21 -15.5 -37t-37.5 -16zM489 -5q-22 0 -38 16t-16 37q0 23 16 39t38 16
q23 0 38.5 -16t15.5 -39q0 -21 -16 -37t-38 -16z" />
    <glyph glyph-name="perthousand" unicode="&#x2030;" 
d="M173 347q-62 0 -106.5 44.5t-44.5 106.5t44.5 107t106.5 45t107 -45t45 -107t-45 -106.5t-107 -44.5zM556 579v-84l-514 -435v84zM173 578q-34 0 -56.5 -23t-22.5 -57t22.5 -56.5t56.5 -22.5q35 0 57 22.5t22 56.5q0 35 -22.5 57.5t-56.5 22.5zM658 293q62 0 107 -44.5
t45 -106.5t-45 -107t-107 -45q-70 0 -116 54q-46 -54 -115 -54q-62 0 -107 45t-45 107t45 106.5t107 44.5q69 0 115 -54q46 54 116 54zM427 62q34 0 56.5 22.5t22.5 57.5q0 34 -22 56.5t-57 22.5q-34 0 -56.5 -22.5t-22.5 -56.5t22.5 -57t56.5 -23zM657 62q35 0 57.5 22.5
t22.5 57.5t-22.5 57t-57.5 22q-33 0 -55.5 -22.5t-22.5 -56.5t22.5 -57t55.5 -23z" />
    <glyph glyph-name="guilsinglleft" unicode="&#x2039;" 
d="M327 97l-157 202l157 202h103l-159 -202l159 -202h-103z" />
    <glyph glyph-name="guilsinglright" unicode="&#x203a;" 
d="M273 97h-103l159 202l-159 202h103l157 -202z" />
    <glyph glyph-name="uni2042" unicode="&#x2042;" 
d="M397 402l-75 47l3 -87h-50l3 87l-75 -47l-25 45l77 41l-77 41l25 43l75 -47l-3 88h50l-4 -88l76 47l24 -43l-77 -41l77 -41zM244 298l25 -45l-78 -40l78 -42l-25 -43l-74 46l3 -87h-51l3 88l-75 -47l-25 43l78 41l-78 41l25 45l76 -47l-4 87h51l-4 -87zM573 253l-77 -41
l77 -41l-24 -43l-75 46l3 -87h-50l3 87l-74 -46l-26 43l78 41l-78 41l26 45l74 -47l-3 87h50l-3 -87l75 47z" />
    <glyph glyph-name="fraction" unicode="&#x2044;" 
d="M586 700l-498 -700h-74l498 700h74z" />
    <glyph glyph-name="uni2051" unicode="&#x2051;" 
d="M458 612l-106 -57l106 -57l-29 -51l-103 63l3 -120h-59l4 120l-103 -63l-29 51l106 57l-106 57l29 51l103 -63l-4 120h59l-3 -120l103 63zM429 254l29 -51l-106 -57l106 -57l-29 -52l-103 64l3 -121h-59l4 120l-103 -63l-29 52l106 57l-106 57l29 51l103 -63l-4 120h59
l-3 -120z" />
    <glyph glyph-name="uni2070" unicode="&#x2070;" 
d="M301 335q-66 0 -106 50.5t-40 147.5q0 96 39.5 146.5t106.5 50.5q66 0 105 -51t39 -148q0 -96 -38.5 -146t-105.5 -50zM301 388q37 0 59 36t22 108t-22 108t-59 36t-59 -35.5t-22 -108.5t22 -108.5t59 -35.5z" />
    <glyph glyph-name="uni2074" unicode="&#x2074;" 
d="M451 474v-48h-70v-86h-58v86h-181v31l177 268h62v-251h70zM213 474h110v169h-4z" />
    <glyph glyph-name="uni2075" unicode="&#x2075;" 
d="M308 589q55 0 89 -36t34 -90q0 -58 -38.5 -93t-99.5 -35q-58 0 -93.5 31.5t-38.5 85.5h59q3 -31 23 -49t50 -18q35 0 56 20.5t21 55.5t-20.5 58t-54.5 23q-51 0 -71 -40l-55 13l20 210h226v-52h-173l-11 -110q28 26 77 26z" />
    <glyph glyph-name="uni2076" unicode="&#x2076;" 
d="M315 585q52 0 87 -34.5t35 -88.5q0 -57 -38 -92t-98 -35q-61 0 -98.5 36t-37.5 96q0 57 49 131l87 127h74l-109 -151q22 11 49 11zM301 386q34 0 54.5 22t20.5 55q0 32 -20 53.5t-54 21.5q-35 0 -55 -21.5t-20 -53.5q0 -33 20 -55t54 -22z" />
    <glyph glyph-name="uni2077" unicode="&#x2077;" 
d="M169 725h267v-36q-132 -149 -146 -349h-63q16 198 122 330v3h-180v52z" />
    <glyph glyph-name="uni2078" unicode="&#x2078;" 
d="M366 543q28 -10 48 -36t20 -63q0 -48 -37 -78.5t-100 -30.5q-64 0 -102 30.5t-38 79.5q0 37 21 63t48 35v3q-55 25 -55 82q0 45 35.5 73.5t90.5 28.5q54 0 88.5 -27.5t34.5 -73.5q0 -59 -54 -83v-3zM297 684q-29 0 -47.5 -15.5t-18.5 -42.5t19 -43t46 -16q28 0 46 16
t18 43q0 26 -17.5 42t-45.5 16zM297 382q31 0 52.5 18.5t21.5 47.5q0 30 -20.5 50t-54.5 20q-35 0 -55 -20t-20 -49q0 -30 21.5 -48.5t54.5 -18.5z" />
    <glyph glyph-name="uni2079" unicode="&#x2079;" 
d="M285 480q-52 0 -87 34.5t-35 88.5q0 57 38 92t98 35q61 0 98.5 -36t37.5 -96q0 -58 -49 -131l-87 -127h-74l109 151q-22 -11 -49 -11zM299 679q-34 0 -54.5 -22t-20.5 -55q0 -32 20 -53.5t54 -21.5q35 0 55 21.5t20 53.5q0 33 -20 55t-54 22z" />
    <glyph glyph-name="uni2080" unicode="&#x2080;" 
d="M301 -105q-66 0 -106 50.5t-40 147.5q0 96 39.5 146.5t106.5 50.5q66 0 105 -51t39 -148q0 -96 -38.5 -146t-105.5 -50zM301 -52q37 0 59 36t22 108t-22 108t-59 36t-59 -35.5t-22 -108.5t22 -108.5t59 -35.5z" />
    <glyph glyph-name="uni2081" unicode="&#x2081;" 
d="M277 -100v266h-79v50h37q49 0 49 49v20h55v-385h-62z" />
    <glyph glyph-name="uni2082" unicode="&#x2082;" 
d="M297 30q-51 -33 -55 -78h187v-52h-259v23q0 90 82 145l61 38q54 35 54 73q0 26 -17 42t-44 16q-33 0 -51.5 -21.5t-19.5 -48.5h-64q3 48 39 85.5t99 37.5q54 0 88 -29.5t34 -78.5q0 -30 -14 -54.5t-25.5 -33.5t-29.5 -21z" />
    <glyph glyph-name="uni2083" unicode="&#x2083;" 
d="M368 98q65 -22 65 -91q0 -48 -39.5 -80t-101.5 -32q-60 0 -95.5 30.5t-40.5 84.5h62q9 -62 74 -62q34 0 55.5 17t21.5 45t-20 45.5t-53 17.5h-38v48h35q29 0 47 16t18 43t-18.5 43t-47.5 16q-27 0 -46 -14.5t-25 -40.5h-59q3 47 42 76.5t91 29.5t88.5 -29.5t36.5 -77.5
q0 -53 -52 -82v-3z" />
    <glyph glyph-name="uni2084" unicode="&#x2084;" 
d="M451 34v-48h-70v-86h-58v86h-181v31l177 268h62v-251h70zM213 34h110v169h-4z" />
    <glyph glyph-name="uni2085" unicode="&#x2085;" 
d="M308 149q55 0 89 -36t34 -90q0 -58 -38.5 -93t-99.5 -35q-58 0 -93.5 31.5t-38.5 85.5h59q3 -31 23 -49t50 -18q35 0 56 20.5t21 55.5t-20.5 58t-54.5 23q-51 0 -71 -40l-55 13l20 210h226v-52h-173l-11 -110q28 26 77 26z" />
    <glyph glyph-name="uni2086" unicode="&#x2086;" 
d="M315 145q52 0 87 -34.5t35 -88.5q0 -57 -38 -92t-98 -35q-61 0 -98.5 36t-37.5 96q0 57 49 131l87 127h74l-109 -151q22 11 49 11zM301 -54q34 0 54.5 22t20.5 55q0 32 -20 53.5t-54 21.5q-35 0 -55 -21.5t-20 -53.5q0 -33 20 -55t54 -22z" />
    <glyph glyph-name="uni2087" unicode="&#x2087;" 
d="M169 285h267v-36q-132 -149 -146 -349h-63q16 198 122 330v3h-180v52z" />
    <glyph glyph-name="uni2088" unicode="&#x2088;" 
d="M366 103q28 -10 48 -36t20 -63q0 -48 -37 -78.5t-100 -30.5q-64 0 -102 30.5t-38 79.5q0 37 21 63t48 35v3q-55 25 -55 82q0 45 35.5 73.5t90.5 28.5q54 0 88.5 -27.5t34.5 -73.5q0 -59 -54 -83v-3zM297 244q-29 0 -47.5 -15.5t-18.5 -42.5t19 -43t46 -16q28 0 46 16
t18 43q0 26 -17.5 42t-45.5 16zM297 -58q31 0 52.5 18.5t21.5 47.5q0 30 -20.5 50t-54.5 20q-35 0 -55 -20t-20 -49q0 -30 21.5 -48.5t54.5 -18.5z" />
    <glyph glyph-name="uni2089" unicode="&#x2089;" 
d="M285 40q-52 0 -87 34.5t-35 88.5q0 57 38 92t98 35q61 0 98.5 -36t37.5 -96q0 -58 -49 -131l-87 -127h-74l109 151q-22 -11 -49 -11zM299 239q-34 0 -54.5 -22t-20.5 -55q0 -32 20 -53.5t54 -21.5q35 0 55 21.5t20 53.5q0 33 -20 55t-54 22z" />
    <glyph glyph-name="Euro" unicode="&#x20ac;" 
d="M534 109l21 -68q-68 -51 -167 -51q-102 0 -170.5 56.5t-93.5 156.5h-76v67h64q-2 32 -2 48q0 30 3 57h-65v68h79q28 96 96 151.5t166 55.5q96 0 160 -46l-25 -66q-67 38 -131 38q-136 0 -182 -133h268l-14 -68h-269q-3 -27 -3 -55q0 -26 3 -50h236l-13 -67h-210
q42 -137 184 -137q84 0 141 43z" />
    <glyph glyph-name="uni2113" unicode="&#x2113;" 
d="M265 168q0 -107 110 -107q40 0 75 14v-69q-32 -16 -92 -16q-76 0 -121.5 43.5t-45.5 126.5v77q-45 -12 -85 -17v69q42 9 85 21v180q0 72 35 116t101 44q64 0 99.5 -40.5t35.5 -101.5q0 -170 -197 -248v-92zM265 480v-141q126 60 126 165q0 34 -17 57t-47 23
q-62 0 -62 -104z" />
    <glyph glyph-name="trademark" unicode="&#x2122;" 
d="M14 649v51h240v-51h-93v-299h-54v299h-93zM516 700h64v-350h-53v259h-4l-57 -97h-52l-57 97h-4v-259h-53v350h64l75 -128h4z" />
    <glyph glyph-name="uni2153" unicode="&#x2153;" 
d="M269 405v266h-79v50h37q49 0 49 49v20h55v-385h-62zM87 337h426v-52h-426v52zM375 48q65 -22 65 -91q0 -48 -39.5 -80t-101.5 -32q-60 0 -95.5 30.5t-40.5 84.5h62q9 -62 74 -62q34 0 55.5 17t21.5 45t-20 45.5t-53 17.5h-38v48h35q29 0 47 16t18 43t-18.5 43t-47.5 16
q-27 0 -46 -14.5t-25 -40.5h-59q3 47 42 76.5t91 29.5t88.5 -29.5t36.5 -77.5q0 -53 -52 -82v-3z" />
    <glyph glyph-name="uni2154" unicode="&#x2154;" 
d="M296 535q-51 -33 -55 -78h187v-52h-259v23q0 90 82 145l61 38q54 35 54 73q0 26 -17 42t-44 16q-33 0 -51.5 -21.5t-20.5 -48.5h-63q3 48 39 85.5t99 37.5q54 0 88 -29.5t34 -78.5q0 -30 -14 -54.5t-25.5 -33.5t-29.5 -21zM87 337h426v-52h-426v52zM375 48q65 -22 65 -91
q0 -48 -39.5 -80t-101.5 -32q-60 0 -95.5 30.5t-40.5 84.5h62q9 -62 74 -62q34 0 55.5 17t21.5 45t-20 45.5t-53 17.5h-38v48h35q29 0 47 16t18 43t-18.5 43t-47.5 16q-27 0 -46 -14.5t-25 -40.5h-59q3 47 42 76.5t91 29.5t88.5 -29.5t36.5 -77.5q0 -53 -52 -82v-3z" />
    <glyph glyph-name="arrowup" unicode="&#x2191;" 
d="M565 481l-56 -55l-170 172v-605h-78v605l-170 -172l-56 55l261 252h8z" />
    <glyph glyph-name="arrowdown" unicode="&#x2193;" 
d="M509 267l56 -55l-261 -252h-8l-261 252l56 55l170 -172v605h78v-605z" />
    <glyph glyph-name="arrowboth" unicode="&#x2194;" 
d="M412 609l183 -255v-8l-183 -255l-63 40l132 180h-362l132 -180l-63 -40l-183 255v8l183 255l63 -40l-132 -180h362l-132 180z" />
    <glyph glyph-name="arrowupdn" unicode="&#x2195;" 
d="M339 65l170 172l56 -55l-261 -252h-8l-261 252l56 55l170 -172v551l-170 -172l-56 55l261 252h8l261 -252l-56 -55l-170 172v-551z" />
    <glyph glyph-name="uni2196" unicode="&#x2196;" 
d="M554 158l-55 -55l-380 380v-249h-73v370l6 6h371v-73h-248z" />
    <glyph glyph-name="uni2197" unicode="&#x2197;" 
d="M548 610l6 -6v-370h-73v249l-380 -380l-55 55l379 379h-248v73h371z" />
    <glyph glyph-name="uni2198" unicode="&#x2198;" 
d="M480 466h73v-370l-6 -6h-370v73h248l-379 380l55 55l379 -378v246z" />
    <glyph glyph-name="uni2199" unicode="&#x2199;" 
d="M554 543l-379 -380h248v-73h-370l-6 6v370h73v-246l379 378z" />
    <glyph glyph-name="partialdiff" unicode="&#x2202;" 
d="M542 318q0 -167 -66.5 -247.5t-183.5 -80.5q-98 0 -167 65t-69 168t64 166.5t163 63.5q59 0 109 -27.5t70 -66.5h7q-10 137 -51 206t-127 69q-55 0 -90.5 -31.5t-45.5 -68.5h-80q9 69 68 122.5t148 53.5q251 0 251 -392zM294 64q68 0 111 47t43 116q0 67 -45 109.5
t-113 42.5q-69 0 -111 -44t-42 -113t45 -113.5t112 -44.5z" />
    <glyph glyph-name="emptyset" unicode="&#x2205;" 
d="M563 608l-65 -85q48 -86 48 -203q0 -147 -71 -238.5t-175 -91.5q-88 0 -153 68l-52 -68l-57 42l65 86q-48 86 -48 202q0 147 70.5 238.5t174.5 91.5q89 0 155 -68l51 68zM133 320q0 -73 22 -133l252 332q-46 55 -108 55q-69 0 -117.5 -71t-48.5 -183zM467 320
q0 74 -22 132l-251 -332q43 -54 105 -54q70 0 119 71t49 183z" />
    <glyph glyph-name="product" unicode="&#x220f;" 
d="M526 700v-700h-92v620h-268v-620h-92v700h452z" />
    <glyph glyph-name="summation" unicode="&#x2211;" 
d="M77 649v51h443v-73h-314v-5l216 -246v-52l-218 -246v-5h326v-73h-458v51l264 297v5z" />
    <glyph glyph-name="minus" unicode="&#x2212;" 
d="M90 317h420v-74h-420v74z" />
    <glyph glyph-name="radical" unicode="&#x221a;" 
d="M585 700v-75h-109l-195 -625h-112l-148 500h94l107 -380h7l177 580h179z" />
    <glyph glyph-name="infinity" unicode="&#x221e;" 
d="M438 513q50 0 88.5 -49.5t38.5 -127.5t-38.5 -127.5t-88.5 -49.5q-87 0 -135 107h-6q-48 -107 -135 -107q-50 0 -88.5 49.5t-38.5 127.5t38.5 127.5t88.5 49.5q83 0 135 -106h6q48 106 135 106zM175 230q53 0 92 106q-39 106 -92 106q-27 0 -47 -29.5t-20 -76.5t20 -76.5
t47 -29.5zM425 230q27 0 47.5 29.5t20.5 76.5t-20.5 76.5t-47.5 29.5q-52 0 -91 -106q39 -106 91 -106z" />
    <glyph glyph-name="integral" unicode="&#x222b;" 
d="M433 710q61 0 101 -42l-31 -61q-27 29 -62 29q-28 0 -47 -17t-23 -51l-69 -645q-7 -65 -47 -99t-99 -34t-101 42l31 61q26 -29 62 -29q28 0 47.5 17t23.5 51l68 645q8 66 48 99.5t98 33.5z" />
    <glyph glyph-name="approxequal" unicode="&#x2248;" 
d="M554 466q-7 -71 -43.5 -118.5t-101.5 -47.5q-40 0 -72 16.5t-49.5 36t-41.5 36t-49 16.5q-35 0 -54.5 -26t-23.5 -67h-72q7 71 44 118.5t102 47.5q39 0 71 -16.5t49.5 -36t41.5 -36t49 -16.5q35 0 54.5 26t23.5 67h72zM554 247q-7 -71 -43.5 -118.5t-101.5 -47.5
q-40 0 -72 16.5t-49.5 36t-41.5 36t-49 16.5q-35 0 -54.5 -26t-23.5 -67h-72q7 71 44 118.5t102 47.5q39 0 71 -16.5t49.5 -36t41.5 -36t49 -16.5q35 0 54.5 26t23.5 67h72z" />
    <glyph glyph-name="notequal" unicode="&#x2260;" 
d="M520 353h-140l-92 -146h232v-74h-278l-65 -103l-51 31l45 72h-91v74h138l91 146h-229v75h276l66 105l51 -32l-46 -73h93v-75z" />
    <glyph glyph-name="lessequal" unicode="&#x2264;" 
d="M519 583v-82l-353 -145v-6l353 -146v-82l-438 180v100zM519 0h-438v73h438v-73z" />
    <glyph glyph-name="greaterequal" unicode="&#x2265;" 
d="M81 583l438 -181v-100l-438 -180v82l353 146v6l-353 145v82zM81 0v73h438v-73h-438z" />
    <glyph glyph-name="lozenge" unicode="&#x25ca;" 
d="M300 570l277 -290l-277 -290l-277 290zM300 461l-167 -181l167 -181l168 181z" />
    <glyph glyph-name="smileface" unicode="&#x263a;" 
d="M560 250q0 -108 -76 -184t-184 -76q-109 0 -184.5 76.5t-75.5 183.5q0 108 76 184t184 76q109 0 184.5 -76.5t75.5 -183.5zM164 382v-32h32v-93h33v93h32v32h-97zM339 382v-32h33v-93h32v93h33v32h-98zM300 56q79 0 135.5 54.5t58.5 132.5l-34 6q0 -67 -46.5 -113.5
t-113.5 -46.5q-66 0 -113 46.5t-47 113.5l-33 -6q2 -78 58.5 -132.5t134.5 -54.5z" />
    <glyph glyph-name="uni2731" unicode="&#x2731;" 
d="M501 360l-143 -80l143 -80l-34 -60l-141 84l2 -164h-69l2 164l-141 -84l-34 60l144 80l-144 80l34 60l141 -84l-2 164h69l-2 -164l141 84z" />
    <glyph glyph-name="uni2780" unicode="&#x2780;" 
d="M300 -10q-120 0 -195 96t-75 264t75 264t195 96t195 -96.5t75 -263.5t-75 -263.5t-195 -96.5zM299 48q95 0 153.5 80t58.5 222t-58.5 222t-153.5 80q-93 0 -151.5 -80.5t-58.5 -221.5t58.5 -221.5t151.5 -80.5zM275 157v266h-79v50h37q49 0 49 49v20h55v-385h-62z" />
    <glyph glyph-name="uni2781" unicode="&#x2781;" 
d="M300 -10q-120 0 -195 96t-75 264t75 264t195 96t195 -96.5t75 -263.5t-75 -263.5t-195 -96.5zM299 48q95 0 153.5 80t58.5 222t-58.5 222t-153.5 80q-93 0 -151.5 -80.5t-58.5 -221.5t58.5 -221.5t151.5 -80.5zM295 295q-51 -33 -55 -78h187v-52h-259v23q0 90 82 145
l61 38q54 35 54 73q0 26 -17 42t-44 16q-33 0 -51.5 -21.5t-19.5 -48.5h-64q3 48 39 85.5t99 37.5q54 0 88 -29.5t34 -78.5q0 -30 -14 -54.5t-25.5 -33.5t-29.5 -21z" />
    <glyph glyph-name="uni2782" unicode="&#x2782;" 
d="M300 -10q-120 0 -195 96t-75 264t75 264t195 96t195 -96.5t75 -263.5t-75 -263.5t-195 -96.5zM299 48q95 0 153.5 80t58.5 222t-58.5 222t-153.5 80q-93 0 -151.5 -80.5t-58.5 -221.5t58.5 -221.5t151.5 -80.5zM373 355q65 -22 65 -91q0 -48 -39.5 -80t-101.5 -32
q-60 0 -95.5 30.5t-40.5 84.5h62q9 -62 74 -62q34 0 55.5 17t21.5 45t-20 45.5t-53 17.5h-38v48h35q29 0 47 16t18 43t-18.5 43t-47.5 16q-27 0 -46 -14.5t-25 -40.5h-59q3 47 42 76.5t91 29.5t88.5 -29.5t36.5 -77.5q0 -53 -52 -82v-3z" />
    <glyph glyph-name="uni2783" unicode="&#x2783;" 
d="M300 -10q-120 0 -195 96t-75 264t75 264t195 96t195 -96.5t75 -263.5t-75 -263.5t-195 -96.5zM299 48q95 0 153.5 80t58.5 222t-58.5 222t-153.5 80q-93 0 -151.5 -80.5t-58.5 -221.5t58.5 -221.5t151.5 -80.5zM444 293v-48h-70v-86h-58v86h-181v31l177 268h62v-251h70z
M206 293h110v169h-4z" />
    <glyph glyph-name="uni2784" unicode="&#x2784;" 
d="M300 -10q-120 0 -195 96t-75 264t75 264t195 96t195 -96.5t75 -263.5t-75 -263.5t-195 -96.5zM299 48q95 0 153.5 80t58.5 222t-58.5 222t-153.5 80q-93 0 -151.5 -80.5t-58.5 -221.5t58.5 -221.5t151.5 -80.5zM308 398q55 0 89 -36t34 -90q0 -58 -38.5 -93t-99.5 -35
q-58 0 -93.5 31.5t-38.5 85.5h59q3 -31 23 -49t50 -18q35 0 56 20.5t21 55.5t-20.5 58t-54.5 23q-51 0 -71 -40l-55 13l20 210h226v-52h-173l-11 -110q28 26 77 26z" />
    <glyph glyph-name="uni2785" unicode="&#x2785;" 
d="M300 -10q-120 0 -195 96t-75 264t75 264t195 96t195 -96.5t75 -263.5t-75 -263.5t-195 -96.5zM299 48q95 0 153.5 80t58.5 222t-58.5 222t-153.5 80q-93 0 -151.5 -80.5t-58.5 -221.5t58.5 -221.5t151.5 -80.5zM311 402q52 0 87 -34.5t35 -88.5q0 -57 -38 -92t-98 -35
q-61 0 -98.5 36t-37.5 96q0 57 49 131l87 127h74l-109 -151q22 11 49 11zM297 203q34 0 54.5 22t20.5 55q0 32 -20 53.5t-54 21.5q-35 0 -55 -21.5t-20 -53.5q0 -33 20 -55t54 -22z" />
    <glyph glyph-name="uni2786" unicode="&#x2786;" 
d="M300 -10q-120 0 -195 96t-75 264t75 264t195 96t195 -96.5t75 -263.5t-75 -263.5t-195 -96.5zM299 48q95 0 153.5 80t58.5 222t-58.5 222t-153.5 80q-93 0 -151.5 -80.5t-58.5 -221.5t58.5 -221.5t151.5 -80.5zM170 531h267v-36q-132 -149 -146 -349h-63q16 198 122 330
v3h-180v52z" />
    <glyph glyph-name="uni2787" unicode="&#x2787;" 
d="M300 -10q-120 0 -195 96t-75 264t75 264t195 96t195 -96.5t75 -263.5t-75 -263.5t-195 -96.5zM299 48q95 0 153.5 80t58.5 222t-58.5 222t-153.5 80q-93 0 -151.5 -80.5t-58.5 -221.5t58.5 -221.5t151.5 -80.5zM370 360q28 -10 48 -36t20 -63q0 -48 -37 -78.5t-100 -30.5
q-64 0 -102 30.5t-38 79.5q0 37 21 63t48 35v3q-55 25 -55 82q0 45 35.5 73.5t90.5 28.5q54 0 88.5 -27.5t34.5 -73.5q0 -59 -54 -83v-3zM301 501q-29 0 -47.5 -15.5t-18.5 -42.5t19 -43t46 -16q28 0 46 16t18 43t-17.5 42.5t-45.5 15.5zM301 199q31 0 52.5 18.5t21.5 47.5
q0 30 -20.5 50t-54.5 20q-35 0 -55 -20t-20 -49q0 -30 21.5 -48.5t54.5 -18.5z" />
    <glyph glyph-name="uni2788" unicode="&#x2788;" 
d="M300 -10q-120 0 -195 96t-75 264t75 264t195 96t195 -96.5t75 -263.5t-75 -263.5t-195 -96.5zM299 48q95 0 153.5 80t58.5 222t-58.5 222t-153.5 80q-93 0 -151.5 -80.5t-58.5 -221.5t58.5 -221.5t151.5 -80.5zM289 298q-52 0 -87 34.5t-35 88.5q0 57 38 92t98 35
q61 0 98.5 -36t37.5 -96q0 -58 -49 -131l-87 -127h-74l109 151q-22 -11 -49 -11zM303 497q-34 0 -54.5 -22t-20.5 -55q0 -32 20 -53.5t54 -21.5q35 0 55 21.5t20 53.5q0 33 -20 55t-54 22z" />
    <glyph glyph-name="uni2789" unicode="&#x2789;" 
d="M300 -10q-120 0 -195 96t-75 264t75 264t195 96t195 -96.5t75 -263.5t-75 -263.5t-195 -96.5zM299 48q95 0 153.5 80t58.5 222t-58.5 222t-153.5 80q-93 0 -151.5 -80.5t-58.5 -221.5t58.5 -221.5t151.5 -80.5zM373 172q-44 0 -69 44.5t-25 134.5q0 88 25 132.5t68 44.5
q92 0 92 -178t-91 -178zM187 177v237h-47v50h20q33 0 33 43v17h45v-347h-51zM372 224q42 0 42 126q0 127 -41 127q-43 0 -43 -127q0 -126 42 -126z" />
    <glyph glyph-name="uni278A" unicode="&#x278a;" 
d="M300 -10q120 0 195 96.5t75 263.5t-75 263.5t-195 96.5t-195 -96t-75 -264t75 -264t195 -96zM275 157v266h-79v50h37q49 0 49 49v20h55v-385h-62z" />
    <glyph glyph-name="uni278B" unicode="&#x278b;" 
d="M300 -10q120 0 195 96.5t75 263.5t-75 263.5t-195 96.5t-195 -96t-75 -264t75 -264t195 -96zM295 295q-51 -33 -55 -78h187v-52h-259v23q0 90 82 145l61 38q54 35 54 73q0 26 -17 42t-44 16q-33 0 -51.5 -21.5t-19.5 -48.5h-64q3 48 39 85.5t99 37.5q54 0 88 -29.5
t34 -78.5q0 -30 -14 -54.5t-25.5 -33.5t-29.5 -21z" />
    <glyph glyph-name="uni278C" unicode="&#x278c;" 
d="M300 -10q120 0 195 96.5t75 263.5t-75 263.5t-195 96.5t-195 -96t-75 -264t75 -264t195 -96zM373 355q65 -22 65 -91q0 -48 -39.5 -80t-101.5 -32q-60 0 -95.5 30.5t-40.5 84.5h62q9 -62 74 -62q34 0 55.5 17t21.5 45t-20 45.5t-53 17.5h-38v48h35q29 0 47 16t18 43
t-18.5 43t-47.5 16q-27 0 -46 -14.5t-25 -40.5h-59q3 47 42 76.5t91 29.5t88.5 -29.5t36.5 -77.5q0 -53 -52 -82v-3z" />
    <glyph glyph-name="uni278D" unicode="&#x278d;" 
d="M300 -10q120 0 195 96.5t75 263.5t-75 263.5t-195 96.5t-195 -96t-75 -264t75 -264t195 -96zM444 293v-48h-70v-86h-58v86h-181v31l177 268h62v-251h70zM206 293h110v169h-4z" />
    <glyph glyph-name="uni278E" unicode="&#x278e;" 
d="M300 -10q120 0 195 96.5t75 263.5t-75 263.5t-195 96.5t-195 -96t-75 -264t75 -264t195 -96zM308 398q55 0 89 -36t34 -90q0 -58 -38.5 -93t-99.5 -35q-58 0 -93.5 31.5t-38.5 85.5h59q3 -31 23 -49t50 -18q35 0 56 20.5t21 55.5t-20.5 58t-54.5 23q-51 0 -71 -40l-55 13
l20 210h226v-52h-173l-11 -110q28 26 77 26z" />
    <glyph glyph-name="uni278F" unicode="&#x278f;" 
d="M300 -10q120 0 195 96.5t75 263.5t-75 263.5t-195 96.5t-195 -96t-75 -264t75 -264t195 -96zM311 402q52 0 87 -34.5t35 -88.5q0 -57 -38 -92t-98 -35q-61 0 -98.5 36t-37.5 96q0 57 49 131l87 127h74l-109 -151q22 11 49 11zM297 203q34 0 54.5 22t20.5 55
q0 32 -20 53.5t-54 21.5q-35 0 -55 -21.5t-20 -53.5q0 -33 20 -55t54 -22z" />
    <glyph glyph-name="uni2790" unicode="&#x2790;" 
d="M300 -10q120 0 195 96.5t75 263.5t-75 263.5t-195 96.5t-195 -96t-75 -264t75 -264t195 -96zM170 531h267v-36q-132 -149 -146 -349h-63q16 198 122 330v3h-180v52z" />
    <glyph glyph-name="uni2791" unicode="&#x2791;" 
d="M300 -10q120 0 195 96.5t75 263.5t-75 263.5t-195 96.5t-195 -96t-75 -264t75 -264t195 -96zM370 360q28 -10 48 -36t20 -63q0 -48 -37 -78.5t-100 -30.5q-64 0 -102 30.5t-38 79.5q0 37 21 63t48 35v3q-55 25 -55 82q0 45 35.5 73.5t90.5 28.5q54 0 88.5 -27.5
t34.5 -73.5q0 -59 -54 -83v-3zM301 501q-29 0 -47.5 -15.5t-18.5 -42.5t19 -43t46 -16q28 0 46 16t18 43t-17.5 42.5t-45.5 15.5zM301 199q31 0 52.5 18.5t21.5 47.5q0 30 -20.5 50t-54.5 20q-35 0 -55 -20t-20 -49q0 -30 21.5 -48.5t54.5 -18.5z" />
    <glyph glyph-name="uni2792" unicode="&#x2792;" 
d="M300 -10q120 0 195 96.5t75 263.5t-75 263.5t-195 96.5t-195 -96t-75 -264t75 -264t195 -96zM289 298q-52 0 -87 34.5t-35 88.5q0 57 38 92t98 35q61 0 98.5 -36t37.5 -96q0 -58 -49 -131l-87 -127h-74l109 151q-22 -11 -49 -11zM303 497q-34 0 -54.5 -22t-20.5 -55
q0 -32 20 -53.5t54 -21.5q35 0 55 21.5t20 53.5q0 33 -20 55t-54 22z" />
    <glyph glyph-name="uni2793" unicode="&#x2793;" 
d="M300 -10q120 0 195 96.5t75 263.5t-75 263.5t-195 96.5t-195 -96t-75 -264t75 -264t195 -96zM373 172q-44 0 -69 44.5t-25 134.5q0 88 25 132.5t68 44.5q92 0 92 -178t-91 -178zM187 177v237h-47v50h20q33 0 33 43v17h45v-347h-51zM372 224q42 0 42 126q0 127 -41 127
q-43 0 -43 -127q0 -126 42 -126z" />
    <glyph glyph-name="Aacute.ss01" 
d="M388 900l-66 -145h-45l62 145h49zM479 0l-57 191h-244l-57 -191h-95l218 700h112l218 -700h-95zM201 269h198l-96 320h-7z" />
    <glyph glyph-name="Abreve.ss01" 
d="M300 777q-57 0 -88.5 38.5t-31.5 84.5h45q0 -38 20.5 -61t54.5 -23q33 0 53 23t20 61h45q0 -46 -30.5 -84.5t-87.5 -38.5zM479 0l-57 191h-244l-57 -191h-95l218 700h112l218 -700h-95zM201 269h198l-96 320h-7z" />
    <glyph glyph-name="uni01CD.ss01" 
d="M325 768h-49l-103 132h53l73 -94h3l72 94h53zM479 0l-57 191h-244l-57 -191h-95l218 700h112l218 -700h-95zM201 269h198l-96 320h-7z" />
    <glyph glyph-name="Acircumflex.ss01" 
d="M298 862l-72 -94h-53l102 132h49l103 -132h-53l-73 94h-3zM479 0l-57 191h-244l-57 -191h-95l218 700h112l218 -700h-95zM201 269h198l-96 320h-7z" />
    <glyph glyph-name="Agrave.ss01" 
d="M323 755h-45l-66 145h49zM479 0l-57 191h-244l-57 -191h-95l218 700h112l218 -700h-95zM201 269h198l-96 320h-7z" />
    <glyph glyph-name="Amacron.ss01" 
d="M449 833v-39h-297v39h297zM479 0l-57 191h-244l-57 -191h-95l218 700h112l218 -700h-95zM201 269h198l-96 320h-7z" />
    <glyph glyph-name="Aogonek.ss01" 
d="M559 -128q23 0 45 6v-38q-19 -7 -46 -7q-45 0 -74.5 20.5t-29.5 63.5q0 53 66 83h-41l-57 191h-244l-57 -191h-95l218 700h112l218 -700h-1q-74 -28 -74 -82q0 -46 60 -46zM201 269h198l-96 320h-7z" />
    <glyph glyph-name="Aring.ss01" 
d="M301 750q-37 0 -64.5 26t-27.5 64t27.5 64t64.5 26t63.5 -26t26.5 -64t-26.5 -64t-63.5 -26zM301 894q-23 0 -38 -15.5t-15 -38.5t15 -38.5t38 -15.5q21 0 36.5 15.5t15.5 38.5t-15.5 38.5t-36.5 15.5zM479 0l-57 191h-244l-57 -191h-95l218 700h112l218 -700h-95z
M201 269h198l-96 320h-7z" />
    <glyph glyph-name="Atilde.ss01" 
d="M236 823q-43 0 -51 -59h-41q5 42 27.5 70.5t61.5 28.5q31 0 53 -16.5t40 -32.5t38 -16q23 0 36 16.5t16 41.5h40q-4 -41 -27 -69.5t-61 -28.5q-24 0 -44 10t-31 22.5t-26 22.5t-31 10zM479 0l-57 191h-244l-57 -191h-95l218 700h112l218 -700h-95zM201 269h198l-96 320
h-7z" />
    <glyph glyph-name="AEacute.ss01" 
d="M446 900h49l-66 -145h-45zM396 77h181v-77h-267v193h-142l-66 -193h-85l229 700h321v-77h-171v-229h142v-78h-142v-239zM187 267h123v333h-6z" />
    <glyph glyph-name="uni01E2.ss01" 
d="M259 833h297v-39h-297v39zM396 77h181v-77h-267v193h-142l-66 -193h-85l229 700h321v-77h-171v-229h142v-78h-142v-239zM187 267h123v333h-6z" />
    <glyph glyph-name="Cacute.ss01" 
d="M352 900h49l-66 -145h-45zM550 213q-14 -109 -76 -166t-157 -57q-125 0 -192.5 94.5t-67.5 262.5q0 169 68.5 266t191.5 97q93 0 152 -56.5t73 -172.5h-93q-22 145 -132 145q-80 0 -124 -74t-44 -205q0 -132 44.5 -202.5t123.5 -70.5q113 0 140 139h93z" />
    <glyph glyph-name="Ccaron.ss01" 
d="M387 900h53l-102 -132h-49l-103 132h53l73 -94h3zM550 213q-14 -109 -76 -166t-157 -57q-125 0 -192.5 94.5t-67.5 262.5q0 169 68.5 266t191.5 97q93 0 152 -56.5t73 -172.5h-93q-22 145 -132 145q-80 0 -124 -74t-44 -205q0 -132 44.5 -202.5t123.5 -70.5
q113 0 140 139h93z" />
    <glyph glyph-name="Ccedilla.ss01" 
d="M550 213q-13 -104 -71 -161t-147 -62l-27 -35q38 3 69 -19t31 -64q0 -38 -25.5 -60t-70.5 -22q-41 0 -66 19l14 30q26 -14 49 -14q27 0 43 13.5t16 36.5q0 50 -63 50q-18 0 -38 -9l-19 17l43 58q-111 11 -171 104.5t-60 251.5q0 169 68.5 266t191.5 97q93 0 152 -56.5
t73 -172.5h-93q-22 145 -132 145q-80 0 -124 -74t-44 -205q0 -132 44.5 -202.5t123.5 -70.5q113 0 140 139h93z" />
    <glyph glyph-name="Ccircumflex.ss01" 
d="M239 768h-53l102 132h49l103 -132h-53l-73 94h-3zM550 213q-14 -109 -76 -166t-157 -57q-125 0 -192.5 94.5t-67.5 262.5q0 169 68.5 266t191.5 97q93 0 152 -56.5t73 -172.5h-93q-22 145 -132 145q-80 0 -124 -74t-44 -205q0 -132 44.5 -202.5t123.5 -70.5
q113 0 140 139h93z" />
    <glyph glyph-name="Eth.ss01" 
d="M242 700q150 0 225.5 -94t75.5 -255t-75 -256t-226 -95h-168v329h-112v40h112v331h168zM237 82q105 0 159.5 68t54.5 201q0 267 -214 267h-72v-249h144v-40h-144v-247h72z" />
    <glyph glyph-name="Dcaron.ss01" 
d="M357 900h53l-102 -132h-49l-103 132h53l73 -94h3zM242 700q150 0 225.5 -94t75.5 -255t-75 -256t-226 -95h-168v700h168zM237 82q105 0 159.5 68t54.5 201q0 267 -214 267h-72v-536h72z" />
    <glyph glyph-name="Dcroat.ss01" 
d="M242 700q150 0 225.5 -94t75.5 -255t-75 -256t-226 -95h-168v329h-112v40h112v331h168zM237 82q105 0 159.5 68t54.5 201q0 267 -214 267h-72v-249h144v-40h-144v-247h72z" />
    <glyph glyph-name="Eacute.ss01" 
d="M337 900h49l-66 -145h-45zM178 81h337v-81h-425v700h415v-81h-327v-224h285v-80h-285v-234z" />
    <glyph glyph-name="Ebreve.ss01" 
d="M415 900q0 -46 -30.5 -84.5t-87.5 -38.5t-88.5 38.5t-31.5 84.5h45q0 -38 20.5 -61t54.5 -23q33 0 53 23t20 61h45zM178 81h337v-81h-425v700h415v-81h-327v-224h285v-80h-285v-234z" />
    <glyph glyph-name="Ecaron.ss01" 
d="M372 900h53l-102 -132h-49l-103 132h53l73 -94h3zM178 81h337v-81h-425v700h415v-81h-327v-224h285v-80h-285v-234z" />
    <glyph glyph-name="uni0228.ss01" 
d="M515 0h-190l-34 -45q38 3 69 -19t31 -64q0 -38 -25.5 -60t-70.5 -22q-41 0 -66 19l14 30q26 -14 49 -14q27 0 43 13.5t16 36.5q0 50 -63 50q-18 0 -38 -9l-19 17l50 67h-191v700h415v-81h-327v-224h285v-80h-285v-234h337v-81z" />
    <glyph glyph-name="Ecircumflex.ss01" 
d="M224 768h-53l102 132h49l103 -132h-53l-73 94h-3zM178 81h337v-81h-425v700h415v-81h-327v-224h285v-80h-285v-234z" />
    <glyph glyph-name="Egrave.ss01" 
d="M258 900l62 -145h-45l-66 145h49zM178 81h337v-81h-425v700h415v-81h-327v-224h285v-80h-285v-234z" />
    <glyph glyph-name="Emacron.ss01" 
d="M150 833h297v-39h-297v39zM178 81h337v-81h-425v700h415v-81h-327v-224h285v-80h-285v-234z" />
    <glyph glyph-name="Eogonek.ss01" 
d="M500 -128q22 0 45 6v-38q-19 -7 -46 -7q-45 0 -74.5 20.5t-29.5 63.5q0 53 66 83h-371v700h415v-81h-327v-224h285v-80h-285v-234h337v-81h-1q-74 -28 -74 -82q0 -46 60 -46z" />
    <glyph glyph-name="uni1EBC.ss01" 
d="M454 856q-4 -41 -27 -69.5t-61 -28.5q-24 0 -44 10t-31 22.5t-26 22.5t-31 10q-43 0 -51 -59h-41q5 42 27.5 70.5t61.5 28.5q31 0 53 -16.5t40 -32.5t38 -16q23 0 36 16.5t16 41.5h40zM178 81h337v-81h-425v700h415v-81h-327v-224h285v-80h-285v-234z" />
    <glyph glyph-name="uni01F4.ss01" 
d="M330 900h49l-66 -145h-45zM304 364h230v-364h-70l-11 64h-7q-10 -25 -49.5 -49.5t-103.5 -24.5q-115 0 -178 90.5t-63 257.5q0 174 69 273t190 99q91 0 148.5 -55t70.5 -154h-95q-28 125 -124 125q-79 0 -122.5 -75t-43.5 -213q0 -133 42 -200t120 -67q63 0 101 41
t38 116v63h-142v73z" />
    <glyph glyph-name="Gbreve.ss01" 
d="M408 900q0 -46 -30.5 -84.5t-87.5 -38.5t-88.5 38.5t-31.5 84.5h45q0 -38 20.5 -61t54.5 -23q33 0 53 23t20 61h45zM304 364h230v-364h-70l-11 64h-7q-10 -25 -49.5 -49.5t-103.5 -24.5q-115 0 -178 90.5t-63 257.5q0 174 69 273t190 99q91 0 148.5 -55t70.5 -154h-95
q-28 125 -124 125q-79 0 -122.5 -75t-43.5 -213q0 -133 42 -200t120 -67q63 0 101 41t38 116v63h-142v73z" />
    <glyph glyph-name="Gcaron.ss01" 
d="M364 900h53l-102 -132h-49l-103 132h53l73 -94h3zM304 364h230v-364h-70l-11 64h-7q-10 -25 -49.5 -49.5t-103.5 -24.5q-115 0 -178 90.5t-63 257.5q0 174 69 273t190 99q91 0 148.5 -55t70.5 -154h-95q-28 125 -124 125q-79 0 -122.5 -75t-43.5 -213q0 -133 42 -200
t120 -67q63 0 101 41t38 116v63h-142v73z" />
    <glyph glyph-name="Gcircumflex.ss01" 
d="M216 768h-53l102 132h49l103 -132h-53l-73 94h-3zM304 364h230v-364h-70l-11 64h-7q-10 -25 -49.5 -49.5t-103.5 -24.5q-115 0 -178 90.5t-63 257.5q0 174 69 273t190 99q91 0 148.5 -55t70.5 -154h-95q-28 125 -124 125q-79 0 -122.5 -75t-43.5 -213q0 -133 42 -200
t120 -67q63 0 101 41t38 116v63h-142v73z" />
    <glyph glyph-name="uni0122.ss01" 
d="M304 364h230v-364h-70l-11 64h-7q-10 -25 -49.5 -49.5t-103.5 -24.5q-115 0 -178 90.5t-63 257.5q0 174 69 273t190 99q91 0 148.5 -55t70.5 -154h-95q-28 125 -124 125q-79 0 -122.5 -75t-43.5 -213q0 -133 42 -200t120 -67q63 0 101 41t38 116v63h-142v73zM301 -60
q30 0 47 -21t17 -55q0 -91 -104 -152l-20 28q22 16 33.5 25t25 26t18.5 34q-9 -3 -21 -3q-27 0 -42.5 17.5t-15.5 40.5q0 27 17.5 43.5t44.5 16.5z" />
    <glyph glyph-name="uni1E20.ss01" 
d="M142 833h297v-39h-297v39zM304 364h230v-364h-70l-11 64h-7q-10 -25 -49.5 -49.5t-103.5 -24.5q-115 0 -178 90.5t-63 257.5q0 174 69 273t190 99q91 0 148.5 -55t70.5 -154h-95q-28 125 -124 125q-79 0 -122.5 -75t-43.5 -213q0 -133 42 -200t120 -67q63 0 101 41
t38 116v63h-142v73z" />
    <glyph glyph-name="Hbar.ss01" 
d="M435 700h91v-700h-91v313h-270v-313h-91v700h91v-133h270v133zM165 395h270v130h-270v-130z" />
    <glyph glyph-name="uni021E.ss01" 
d="M374 900h53l-102 -132h-49l-103 132h53l73 -94h3zM435 700h91v-700h-91v313h-270v-313h-91v700h91v-305h270v305z" />
    <glyph glyph-name="uni1E28.ss01" 
d="M435 700h91v-700h-91v313h-270v-313h-23l-34 -45q38 3 69 -19t31 -64q0 -38 -25.5 -60t-70.5 -22q-41 0 -66 19l14 30q26 -14 49 -14q27 0 43 13.5t16 36.5q0 50 -63 50q-18 0 -38 -9l-19 17l50 67h-24v700h91v-305h270v305z" />
    <glyph glyph-name="Hcircumflex.ss01" 
d="M226 768h-53l102 132h49l103 -132h-53l-73 94h-3zM435 700h91v-700h-91v313h-270v-313h-91v700h91v-305h270v305z" />
    <glyph glyph-name="Iacute.ss01" 
d="M389 900l-66 -145h-45l62 145h49zM345 81h179v-81h-449v81h180v538h-175v81h439v-81h-174v-538z" />
    <glyph glyph-name="Ibreve.ss01" 
d="M300 777q-57 0 -88.5 38.5t-31.5 84.5h45q0 -38 20.5 -61t54.5 -23q33 0 53 23t20 61h45q0 -46 -30.5 -84.5t-87.5 -38.5zM345 81h179v-81h-449v81h180v538h-175v81h439v-81h-174v-538z" />
    <glyph glyph-name="uni01CF.ss01" 
d="M325 768h-49l-103 132h53l73 -94h3l72 94h53zM345 81h179v-81h-449v81h180v538h-175v81h439v-81h-174v-538z" />
    <glyph glyph-name="Icircumflex.ss01" 
d="M298 862l-72 -94h-53l102 132h49l103 -132h-53l-73 94h-3zM345 81h179v-81h-449v81h180v538h-175v81h439v-81h-174v-538z" />
    <glyph glyph-name="Igrave.ss01" 
d="M323 755h-45l-66 145h49zM345 81h179v-81h-449v81h180v538h-175v81h439v-81h-174v-538z" />
    <glyph glyph-name="Imacron.ss01" 
d="M449 833v-39h-297v39h297zM345 81h179v-81h-449v81h180v538h-175v81h439v-81h-174v-538z" />
    <glyph glyph-name="Iogonek.ss01" 
d="M510 -128q22 0 45 6v-38q-19 -7 -46 -7q-45 0 -74.5 20.5t-29.5 63.5q0 53 66 83h-396v81h180v538h-175v81h439v-81h-174v-538h179v-81q-74 -28 -74 -82q0 -46 60 -46z" />
    <glyph glyph-name="Itilde.ss01" 
d="M236 823q-43 0 -51 -59h-41q5 42 27.5 70.5t61.5 28.5q31 0 53 -16.5t40 -32.5t38 -16q23 0 36 16.5t16 41.5h40q-4 -41 -27 -69.5t-61 -28.5q-24 0 -44 10t-31 22.5t-26 22.5t-31 10zM345 81h179v-81h-449v81h180v538h-175v81h439v-81h-174v-538z" />
    <glyph glyph-name="Jcircumflex.ss01" 
d="M393 768h-53l102 132h49l103 -132h-53l-73 94h-3zM162 201q3 -56 36 -91.5t94 -35.5q62 0 96 36t34 110v480h91v-485q0 -112 -59.5 -168.5t-161.5 -56.5q-105 0 -161.5 57t-60.5 154h92z" />
    <glyph glyph-name="uni0136.ss01" 
d="M446 0l-231 318h-50v-318h-91v700h91v-300h50l208 300h105l-230 -336v-5l253 -359h-105zM321 -60q30 0 47 -21t17 -55q0 -91 -104 -152l-20 28q22 16 33.5 25t25 26t18.5 34q-9 -3 -21 -3q-27 0 -42.5 17.5t-15.5 40.5q0 27 17.5 43.5t44.5 16.5z" />
    <glyph glyph-name="Lacute.ss01" 
d="M170 900h49l-66 -145h-45zM177 82h343v-82h-436v700h93v-618z" />
    <glyph glyph-name="Lcaron.ss01" 
d="M343 710q29 0 45.5 -22.5t16.5 -56.5q0 -96 -100 -160l-20 26q63 49 75 94q-9 -3 -21 -3q-26 0 -40.5 17.5t-14.5 41.5q0 29 16.5 46t42.5 17zM177 82h343v-82h-436v700h93v-618z" />
    <glyph glyph-name="uni013B.ss01" 
d="M177 82h343v-82h-436v700h93v-618zM300 -60q30 0 47 -21t17 -55q0 -91 -104 -152l-20 28q22 16 33.5 25t25 26t18.5 34q-9 -3 -21 -3q-27 0 -42.5 17.5t-15.5 40.5q0 27 17.5 43.5t44.5 16.5z" />
    <glyph glyph-name="Lslash.ss01" 
d="M177 82h343v-82h-436v288l-122 -61v49l122 61v363h93v-316l169 85v-49l-169 -85v-253z" />
    <glyph glyph-name="Nacute.ss01" 
d="M339 900h49l-66 -145h-45zM440 700h86v-700h-94l-266 529h-6v-529h-86v700h95l265 -529h6v529z" />
    <glyph glyph-name="Ncaron.ss01" 
d="M374 900h53l-102 -132h-49l-103 132h53l73 -94h3zM440 700h86v-700h-94l-266 529h-6v-529h-86v700h95l265 -529h6v529z" />
    <glyph glyph-name="uni0145.ss01" 
d="M440 700h86v-700h-94l-266 529h-6v-529h-86v700h95l265 -529h6v529zM298 -60q30 0 47 -21t17 -55q0 -91 -104 -152l-20 28q22 16 33.5 25t25 26t18.5 34q-9 -3 -21 -3q-27 0 -42.5 17.5t-15.5 40.5q0 27 17.5 43.5t44.5 16.5z" />
    <glyph glyph-name="uni01F8.ss01" 
d="M261 900l62 -145h-45l-66 145h49zM440 700h86v-700h-94l-266 529h-6v-529h-86v700h95l265 -529h6v529z" />
    <glyph glyph-name="Ntilde.ss01" 
d="M456 856q-4 -41 -27 -69.5t-61 -28.5q-24 0 -44 10t-31 22.5t-26 22.5t-31 10q-43 0 -51 -59h-41q5 42 27.5 70.5t61.5 28.5q31 0 53 -16.5t40 -32.5t38 -16q23 0 36 16.5t16 41.5h40zM440 700h86v-700h-94l-266 529h-6v-529h-86v700h95l265 -529h6v529z" />
    <glyph glyph-name="Oacute.ss01" 
d="M340 900h49l-66 -145h-45zM301 -10q-114 0 -181 95t-67 265q0 168 66.5 264t181.5 96q113 0 180 -96t67 -264t-67 -264t-180 -96zM301 74q73 0 114.5 71.5t41.5 204.5t-41.5 204.5t-114.5 71.5q-74 0 -116 -71.5t-42 -204.5t42 -204.5t116 -71.5z" />
    <glyph glyph-name="Obreve.ss01" 
d="M418 900q0 -46 -30.5 -84.5t-87.5 -38.5t-88.5 38.5t-31.5 84.5h45q0 -38 20.5 -61t54.5 -23q33 0 53 23t20 61h45zM301 -10q-114 0 -181 95t-67 265q0 168 66.5 264t181.5 96q113 0 180 -96t67 -264t-67 -264t-180 -96zM301 74q73 0 114.5 71.5t41.5 204.5t-41.5 204.5
t-114.5 71.5q-74 0 -116 -71.5t-42 -204.5t42 -204.5t116 -71.5z" />
    <glyph glyph-name="uni01D1.ss01" 
d="M375 900h53l-102 -132h-49l-103 132h53l73 -94h3zM301 -10q-114 0 -181 95t-67 265q0 168 66.5 264t181.5 96q113 0 180 -96t67 -264t-67 -264t-180 -96zM301 74q73 0 114.5 71.5t41.5 204.5t-41.5 204.5t-114.5 71.5q-74 0 -116 -71.5t-42 -204.5t42 -204.5t116 -71.5z
" />
    <glyph glyph-name="Ocircumflex.ss01" 
d="M227 768h-53l102 132h49l103 -132h-53l-73 94h-3zM301 -10q-114 0 -181 95t-67 265q0 168 66.5 264t181.5 96q113 0 180 -96t67 -264t-67 -264t-180 -96zM301 74q73 0 114.5 71.5t41.5 204.5t-41.5 204.5t-114.5 71.5q-74 0 -116 -71.5t-42 -204.5t42 -204.5t116 -71.5z
" />
    <glyph glyph-name="Ograve.ss01" 
d="M261 900l62 -145h-45l-66 145h49zM301 -10q-114 0 -181 95t-67 265q0 168 66.5 264t181.5 96q113 0 180 -96t67 -264t-67 -264t-180 -96zM301 74q73 0 114.5 71.5t41.5 204.5t-41.5 204.5t-114.5 71.5q-74 0 -116 -71.5t-42 -204.5t42 -204.5t116 -71.5z" />
    <glyph glyph-name="Ohungarumlaut.ss01" 
d="M267 900h50l-62 -145h-45zM404 900h49l-63 -145h-43zM301 -10q-114 0 -181 95t-67 265q0 168 66.5 264t181.5 96q113 0 180 -96t67 -264t-67 -264t-180 -96zM301 74q73 0 114.5 71.5t41.5 204.5t-41.5 204.5t-114.5 71.5q-74 0 -116 -71.5t-42 -204.5t42 -204.5
t116 -71.5z" />
    <glyph glyph-name="Omacron.ss01" 
d="M153 833h297v-39h-297v39zM301 -10q-114 0 -181 95t-67 265q0 168 66.5 264t181.5 96q113 0 180 -96t67 -264t-67 -264t-180 -96zM301 74q73 0 114.5 71.5t41.5 204.5t-41.5 204.5t-114.5 71.5q-74 0 -116 -71.5t-42 -204.5t42 -204.5t116 -71.5z" />
    <glyph glyph-name="uni01EA.ss01" 
d="M363 -2q-70 -28 -70 -80q0 -46 60 -46q23 0 45 6v-38q-19 -7 -46 -7q-45 0 -74.5 20.5t-29.5 63.5q0 44 47 73q-112 3 -177 97.5t-65 262.5t66.5 264t181.5 96q113 0 180 -96t67 -264q0 -143 -49.5 -235t-135.5 -117zM143 350q0 -133 42 -204.5t116 -71.5
q73 0 114.5 71.5t41.5 204.5t-41.5 204.5t-114.5 71.5q-74 0 -116 -71.5t-42 -204.5z" />
    <glyph glyph-name="Oslash.ss01" 
d="M476 621q72 -97 72 -271q0 -168 -67 -264t-180 -96q-86 0 -146 55l-46 -82l-37 21l52 95q-71 96 -71 271q0 168 66.5 264t181.5 96q84 0 144 -54l45 81l39 -21zM143 350q0 -112 31 -182l227 408q-39 50 -100 50q-74 0 -116 -71.5t-42 -204.5zM301 74q73 0 114.5 71.5
t41.5 204.5q0 112 -31 182l-227 -407q39 -51 102 -51z" />
    <glyph glyph-name="Oslashacute.ss01" 
d="M389 900l-66 -145h-45l62 145h49zM476 621q72 -97 72 -271q0 -168 -67 -264t-180 -96q-86 0 -146 55l-46 -82l-37 21l52 95q-71 96 -71 271q0 168 66.5 264t181.5 96q84 0 144 -54l45 81l39 -21zM143 350q0 -112 31 -182l227 408q-39 50 -100 50q-74 0 -116 -71.5
t-42 -204.5zM301 74q73 0 114.5 71.5t41.5 204.5q0 112 -31 182l-227 -407q39 -51 102 -51z" />
    <glyph glyph-name="Otilde.ss01" 
d="M457 856q-4 -41 -27 -69.5t-61 -28.5q-24 0 -44 10t-31 22.5t-26 22.5t-31 10q-43 0 -51 -59h-41q5 42 27.5 70.5t61.5 28.5q31 0 53 -16.5t40 -32.5t38 -16q23 0 36 16.5t16 41.5h40zM301 -10q-114 0 -181 95t-67 265q0 168 66.5 264t181.5 96q113 0 180 -96t67 -264
t-67 -264t-180 -96zM301 74q73 0 114.5 71.5t41.5 204.5t-41.5 204.5t-114.5 71.5q-74 0 -116 -71.5t-42 -204.5t42 -204.5t116 -71.5z" />
    <glyph glyph-name="Racute.ss01" 
d="M377 900l-66 -145h-45l62 145h49zM557 0h-99l-173 294h-122v-294h-89v700h234q100 0 159 -54t59 -144q0 -75 -40 -124.5t-112 -68.5zM163 621v-248h132q66 0 103 34t37 91q0 59 -37.5 91t-102.5 32h-132z" />
    <glyph glyph-name="Rcaron.ss01" 
d="M314 768h-49l-103 132h53l73 -94h3l72 94h53zM557 0h-99l-173 294h-122v-294h-89v700h234q100 0 159 -54t59 -144q0 -75 -40 -124.5t-112 -68.5zM163 621v-248h132q66 0 103 34t37 91q0 59 -37.5 91t-102.5 32h-132z" />
    <glyph glyph-name="uni0156.ss01" 
d="M374 309l183 -309h-99l-173 294h-122v-294h-89v700h234q100 0 159 -54t59 -144q0 -75 -40 -124.5t-112 -68.5zM163 621v-248h132q66 0 103 34t37 91q0 59 -37.5 91t-102.5 32h-132zM309 -60q30 0 47 -21t17 -55q0 -91 -104 -152l-20 28q22 16 33.5 25t25 26t18.5 34
q-9 -3 -21 -3q-27 0 -42.5 17.5t-15.5 40.5q0 27 17.5 43.5t44.5 16.5z" />
    <glyph glyph-name="Sacute.ss01" 
d="M329 900h49l-66 -145h-45zM527 182q0 -94 -64 -143t-166 -49q-108 0 -171 55.5t-70 154.5h90q8 -64 47 -97.5t105 -33.5q60 0 99.5 27.5t39.5 83.5q0 32 -12 55.5t-38 39.5t-45.5 24t-54.5 19l-26 8q-38 13 -64.5 25t-56.5 34t-46 55.5t-16 76.5q0 87 63.5 140t159.5 53
q98 0 159.5 -55.5t66.5 -142.5h-86q-6 52 -42 85.5t-97 33.5q-60 0 -97 -31.5t-37 -80.5q0 -22 10 -40.5t19.5 -28.5t34.5 -21.5t34 -14.5l39 -13l23 -8q22 -7 33.5 -11t35.5 -15t38.5 -21t34 -27t30.5 -35.5t19 -45t8 -56.5z" />
    <glyph glyph-name="Scaron.ss01" 
d="M363 900h53l-102 -132h-49l-103 132h53l73 -94h3zM527 182q0 -94 -64 -143t-166 -49q-108 0 -171 55.5t-70 154.5h90q8 -64 47 -97.5t105 -33.5q60 0 99.5 27.5t39.5 83.5q0 32 -12 55.5t-38 39.5t-45.5 24t-54.5 19l-26 8q-38 13 -64.5 25t-56.5 34t-46 55.5t-16 76.5
q0 87 63.5 140t159.5 53q98 0 159.5 -55.5t66.5 -142.5h-86q-6 52 -42 85.5t-97 33.5q-60 0 -97 -31.5t-37 -80.5q0 -22 10 -40.5t19.5 -28.5t34.5 -21.5t34 -14.5l39 -13l23 -8q22 -7 33.5 -11t35.5 -15t38.5 -21t34 -27t30.5 -35.5t19 -45t8 -56.5z" />
    <glyph glyph-name="Scedilla.ss01" 
d="M328 393q22 -7 33.5 -11t35.5 -15t38.5 -21t34 -27t30.5 -35.5t19 -45t8 -56.5q0 -87 -55.5 -136t-147.5 -55l-27 -36q38 3 69 -19t31 -64q0 -38 -25.5 -60t-70.5 -22q-41 0 -66 19l14 30q26 -14 49 -14q27 0 43 13.5t16 36.5q0 50 -63 50q-18 0 -38 -9l-19 17l42 57
q-100 5 -158 60t-65 150h90q8 -64 47 -97.5t105 -33.5q60 0 99.5 27.5t39.5 83.5q0 32 -12 55.5t-38 39.5t-45.5 24t-54.5 19l-26 8q-38 13 -64.5 25t-56.5 34t-46 55.5t-16 76.5q0 87 63.5 140t159.5 53q98 0 159.5 -55.5t66.5 -142.5h-86q-6 52 -42 85.5t-97 33.5
q-60 0 -97 -31.5t-37 -80.5q0 -22 10 -40.5t19.5 -28.5t34.5 -21.5t34 -14.5l39 -13z" />
    <glyph glyph-name="Scircumflex.ss01" 
d="M215 768h-53l102 132h49l103 -132h-53l-73 94h-3zM527 182q0 -94 -64 -143t-166 -49q-108 0 -171 55.5t-70 154.5h90q8 -64 47 -97.5t105 -33.5q60 0 99.5 27.5t39.5 83.5q0 32 -12 55.5t-38 39.5t-45.5 24t-54.5 19l-26 8q-38 13 -64.5 25t-56.5 34t-46 55.5t-16 76.5
q0 87 63.5 140t159.5 53q98 0 159.5 -55.5t66.5 -142.5h-86q-6 52 -42 85.5t-97 33.5q-60 0 -97 -31.5t-37 -80.5q0 -22 10 -40.5t19.5 -28.5t34.5 -21.5t34 -14.5l39 -13l23 -8q22 -7 33.5 -11t35.5 -15t38.5 -21t34 -27t30.5 -35.5t19 -45t8 -56.5z" />
    <glyph glyph-name="uni0218.ss01" 
d="M527 182q0 -94 -64 -143t-166 -49q-108 0 -171 55.5t-70 154.5h90q8 -64 47 -97.5t105 -33.5q60 0 99.5 27.5t39.5 83.5q0 32 -12 55.5t-38 39.5t-45.5 24t-54.5 19l-26 8q-38 13 -64.5 25t-56.5 34t-46 55.5t-16 76.5q0 87 63.5 140t159.5 53q98 0 159.5 -55.5
t66.5 -142.5h-86q-6 52 -42 85.5t-97 33.5q-60 0 -97 -31.5t-37 -80.5q0 -22 10 -40.5t19.5 -28.5t34.5 -21.5t34 -14.5l39 -13l23 -8q22 -7 33.5 -11t35.5 -15t38.5 -21t34 -27t30.5 -35.5t19 -45t8 -56.5zM306 -60q30 0 47 -21t17 -55q0 -91 -104 -152l-20 28
q22 16 33.5 25t25 26t18.5 34q-9 -3 -21 -3q-27 0 -42.5 17.5t-15.5 40.5q0 27 17.5 43.5t44.5 16.5z" />
    <glyph glyph-name="Tbar.ss01" 
d="M548 618h-203v-253h129v-40h-129v-325h-90v325h-128v40h128v253h-203v82h496v-82z" />
    <glyph glyph-name="Tcaron.ss01" 
d="M325 768h-49l-103 132h53l73 -94h3l72 94h53zM548 700v-82h-203v-618h-90v618h-203v82h496z" />
    <glyph glyph-name="uni0162.ss01" 
d="M345 0h-22l-34 -45q38 3 69 -19t31 -64q0 -38 -25.5 -60t-70.5 -22q-41 0 -66 19l14 30q26 -14 49 -14q27 0 43 13.5t16 36.5q0 50 -63 50q-18 0 -38 -9l-19 17l50 67h-24v618h-203v82h496v-82h-203v-618z" />
    <glyph glyph-name="uni021A.ss01" 
d="M52 700h496v-82h-203v-618h-90v618h-203v82zM298 -60q30 0 47 -21t17 -55q0 -91 -104 -152l-20 28q22 16 33.5 25t25 26t18.5 34q-9 -3 -21 -3q-27 0 -42.5 17.5t-15.5 40.5q0 27 17.5 43.5t44.5 16.5z" />
    <glyph glyph-name="Uacute.ss01" 
d="M339 900h49l-66 -145h-45zM524 700v-466q0 -116 -60.5 -180t-162.5 -64q-103 0 -164 64t-61 180v466h91v-476q0 -72 37.5 -111t96.5 -39t95.5 39t36.5 111v476h91z" />
    <glyph glyph-name="Ubreve.ss01" 
d="M418 900q0 -46 -30.5 -84.5t-87.5 -38.5t-88.5 38.5t-31.5 84.5h45q0 -38 20.5 -61t54.5 -23q33 0 53 23t20 61h45zM524 700v-466q0 -116 -60.5 -180t-162.5 -64q-103 0 -164 64t-61 180v466h91v-476q0 -72 37.5 -111t96.5 -39t95.5 39t36.5 111v476h91z" />
    <glyph glyph-name="uni01D3.ss01" 
d="M374 900h53l-102 -132h-49l-103 132h53l73 -94h3zM524 700v-466q0 -116 -60.5 -180t-162.5 -64q-103 0 -164 64t-61 180v466h91v-476q0 -72 37.5 -111t96.5 -39t95.5 39t36.5 111v476h91z" />
    <glyph glyph-name="Ucircumflex.ss01" 
d="M226 768h-53l102 132h49l103 -132h-53l-73 94h-3zM524 700v-466q0 -116 -60.5 -180t-162.5 -64q-103 0 -164 64t-61 180v466h91v-476q0 -72 37.5 -111t96.5 -39t95.5 39t36.5 111v476h91z" />
    <glyph glyph-name="Ugrave.ss01" 
d="M261 900l62 -145h-45l-66 145h49zM524 700v-466q0 -116 -60.5 -180t-162.5 -64q-103 0 -164 64t-61 180v466h91v-476q0 -72 37.5 -111t96.5 -39t95.5 39t36.5 111v476h91z" />
    <glyph glyph-name="Uhungarumlaut.ss01" 
d="M266 900h50l-62 -145h-45zM403 900h49l-63 -145h-43zM524 700v-466q0 -116 -60.5 -180t-162.5 -64q-103 0 -164 64t-61 180v466h91v-476q0 -72 37.5 -111t96.5 -39t95.5 39t36.5 111v476h91z" />
    <glyph glyph-name="Umacron.ss01" 
d="M152 833h297v-39h-297v39zM524 700v-466q0 -116 -60.5 -180t-162.5 -64q-103 0 -164 64t-61 180v466h91v-476q0 -72 37.5 -111t96.5 -39t95.5 39t36.5 111v476h91z" />
    <glyph glyph-name="Uogonek.ss01" 
d="M433 700h91v-466q0 -94 -40.5 -154.5t-112.5 -80.5q-71 -28 -71 -81q0 -46 60 -46q22 0 45 6v-38q-19 -7 -46 -7q-45 0 -74.5 20.5t-29.5 63.5q0 44 47 73h-1q-103 0 -164 64t-61 180v466h91v-476q0 -72 37.5 -111t96.5 -39t95.5 39t36.5 111v476z" />
    <glyph glyph-name="Uring.ss01" 
d="M301 750q-37 0 -64.5 26t-27.5 64t27.5 64t64.5 26t63.5 -26t26.5 -64t-26.5 -64t-63.5 -26zM301 786q21 0 36.5 15.5t15.5 38.5t-15.5 38.5t-36.5 15.5q-23 0 -38 -15.5t-15 -38.5t15 -38.5t38 -15.5zM524 700v-466q0 -116 -60.5 -180t-162.5 -64q-103 0 -164 64
t-61 180v466h91v-476q0 -72 37.5 -111t96.5 -39t95.5 39t36.5 111v476h91z" />
    <glyph glyph-name="Utilde.ss01" 
d="M456 856q-4 -41 -27 -69.5t-61 -28.5q-24 0 -44 10t-31 22.5t-26 22.5t-31 10q-43 0 -51 -59h-41q5 42 27.5 70.5t61.5 28.5q31 0 53 -16.5t40 -32.5t38 -16q23 0 36 16.5t16 41.5h40zM524 700v-466q0 -116 -60.5 -180t-162.5 -64q-103 0 -164 64t-61 180v466h91v-476
q0 -72 37.5 -111t96.5 -39t95.5 39t36.5 111v476h91z" />
    <glyph glyph-name="uni1E7C.ss01" 
d="M456 856q-4 -41 -27 -69.5t-61 -28.5q-24 0 -44 10t-31 22.5t-26 22.5t-31 10q-43 0 -51 -59h-41q5 42 27.5 70.5t61.5 28.5q31 0 53 -16.5t40 -32.5t38 -16q23 0 36 16.5t16 41.5h40zM476 700h98l-219 -700h-112l-217 700h98l172 -570h8z" />
    <glyph glyph-name="Wacute.ss01" 
d="M339 900h49l-66 -145h-45zM489 700h84l-84 -700h-98l-88 426h-7l-87 -426h-98l-85 700h87l54 -527h7l79 377h94l77 -377h7z" />
    <glyph glyph-name="Wcircumflex.ss01" 
d="M226 768h-53l102 132h49l103 -132h-53l-73 94h-3zM489 700h84l-84 -700h-98l-88 426h-7l-87 -426h-98l-85 700h87l54 -527h7l79 377h94l77 -377h7z" />
    <glyph glyph-name="Wgrave.ss01" 
d="M261 900l62 -145h-45l-66 145h49zM489 700h84l-84 -700h-98l-88 426h-7l-87 -426h-98l-85 700h87l54 -527h7l79 377h94l77 -377h7z" />
    <glyph glyph-name="Yacute.ss01" 
d="M340 900h49l-66 -145h-45zM466 700h108l-228 -353v-347h-90v347l-230 353h108l163 -251h7z" />
    <glyph glyph-name="Ycircumflex.ss01" 
d="M227 768h-53l102 132h49l103 -132h-53l-73 94h-3zM466 700h108l-228 -353v-347h-90v347l-230 353h108l163 -251h7z" />
    <glyph glyph-name="Ygrave.ss01" 
d="M261 900l62 -145h-45l-66 145h49zM466 700h108l-228 -353v-347h-90v347l-230 353h108l163 -251h7z" />
    <glyph glyph-name="uni0232.ss01" 
d="M153 833h297v-39h-297v39zM466 700h108l-228 -353v-347h-90v347l-230 353h108l163 -251h7z" />
    <glyph glyph-name="uni1EF8.ss01" 
d="M457 856q-4 -41 -27 -69.5t-61 -28.5q-24 0 -44 10t-31 22.5t-26 22.5t-31 10q-43 0 -51 -59h-41q5 42 27.5 70.5t61.5 28.5q31 0 53 -16.5t40 -32.5t38 -16q23 0 36 16.5t16 41.5h40zM466 700h108l-228 -353v-347h-90v347l-230 353h108l163 -251h7z" />
    <glyph glyph-name="Zacute.ss01" 
d="M343 900h49l-66 -145h-45zM186 82h349v-82h-481v51l352 562v5h-332v82h459v-51l-347 -562v-5z" />
    <glyph glyph-name="Zcaron.ss01" 
d="M377 900h53l-102 -132h-49l-103 132h53l73 -94h3zM186 82h349v-82h-481v51l352 562v5h-332v82h459v-51l-347 -562v-5z" />
    <glyph glyph-name="uni1E90.ss01" 
d="M229 768h-53l102 132h49l103 -132h-53l-73 94h-3zM186 82h349v-82h-481v51l352 562v5h-332v82h459v-51l-347 -562v-5z" />
    <glyph glyph-name="i.loclTRK" 
d="M302 580q-24 0 -41.5 17t-17.5 41t17.5 40.5t41.5 16.5q23 0 40 -16.5t17 -40.5t-17 -41t-40 -17zM344 69h177v-69h-442v69h178v362h-168v69h255v-431z" />
    <glyph glyph-name="a.fina" 
d="M542 61q16 0 37 8v-63q-29 -11 -58 -11q-86 0 -104 71q-58 -76 -171 -76q-75 0 -122 36t-47 106q0 69 47.5 108t126.5 46l153 15v27q0 51 -28.5 80.5t-79.5 29.5q-93 0 -112 -95h-87q8 74 60.5 120.5t139.5 46.5q88 0 141.5 -48t53.5 -136v-210q0 -55 50 -55zM404 192v43
l-125 -12q-115 -10 -115 -87q0 -39 26.5 -57.5t67.5 -18.5q58 0 102 32.5t44 99.5z" />
    <glyph glyph-name="aacute.fina" 
d="M405 700l-77 -145h-70l69 145h78zM542 61q16 0 37 8v-63q-29 -11 -58 -11q-86 0 -104 71q-58 -76 -171 -76q-75 0 -122 36t-47 106q0 69 47.5 108t126.5 46l153 15v27q0 51 -28.5 80.5t-79.5 29.5q-93 0 -112 -95h-87q8 74 60.5 120.5t139.5 46.5q88 0 141.5 -48
t53.5 -136v-210q0 -55 50 -55zM404 192v43l-125 -12q-115 -10 -115 -87q0 -39 26.5 -57.5t67.5 -18.5q58 0 102 32.5t44 99.5z" />
    <glyph glyph-name="abreve.fina" 
d="M293 571q-58 0 -95.5 39t-37.5 90h70q0 -31 17 -51t46 -20q28 0 44.5 20t16.5 51h70q0 -51 -36.5 -90t-94.5 -39zM542 61q16 0 37 8v-63q-29 -11 -58 -11q-86 0 -104 71q-58 -76 -171 -76q-75 0 -122 36t-47 106q0 69 47.5 108t126.5 46l153 15v27q0 51 -28.5 80.5
t-79.5 29.5q-93 0 -112 -95h-87q8 74 60.5 120.5t139.5 46.5q88 0 141.5 -48t53.5 -136v-210q0 -55 50 -55zM404 192v43l-125 -12q-115 -10 -115 -87q0 -39 26.5 -57.5t67.5 -18.5q58 0 102 32.5t44 99.5z" />
    <glyph glyph-name="uni01CE.fina" 
d="M332 559h-78l-102 141h79l60 -86h5l58 86h79zM542 61q16 0 37 8v-63q-29 -11 -58 -11q-86 0 -104 71q-58 -76 -171 -76q-75 0 -122 36t-47 106q0 69 47.5 108t126.5 46l153 15v27q0 51 -28.5 80.5t-79.5 29.5q-93 0 -112 -95h-87q8 74 60.5 120.5t139.5 46.5
q88 0 141.5 -48t53.5 -136v-210q0 -55 50 -55zM404 192v43l-125 -12q-115 -10 -115 -87q0 -39 26.5 -57.5t67.5 -18.5q58 0 102 32.5t44 99.5z" />
    <glyph glyph-name="acircumflex.fina" 
d="M290 645l-58 -86h-79l101 141h78l102 -141h-79l-60 86h-5zM542 61q16 0 37 8v-63q-29 -11 -58 -11q-86 0 -104 71q-58 -76 -171 -76q-75 0 -122 36t-47 106q0 69 47.5 108t126.5 46l153 15v27q0 51 -28.5 80.5t-79.5 29.5q-93 0 -112 -95h-87q8 74 60.5 120.5t139.5 46.5
q88 0 141.5 -48t53.5 -136v-210q0 -55 50 -55zM404 192v43l-125 -12q-115 -10 -115 -87q0 -39 26.5 -57.5t67.5 -18.5q58 0 102 32.5t44 99.5z" />
    <glyph glyph-name="adieresis.fina" 
d="M203 558q-23 0 -39 16t-16 39t16 39t39 16t38.5 -16t15.5 -39t-16 -39t-38 -16zM385 558q-22 0 -38 16.5t-16 38.5q0 23 16 39t38 16q23 0 38.5 -16t15.5 -39t-16 -39t-38 -16zM542 61q16 0 37 8v-63q-29 -11 -58 -11q-86 0 -104 71q-58 -76 -171 -76q-75 0 -122 36
t-47 106q0 69 47.5 108t126.5 46l153 15v27q0 51 -28.5 80.5t-79.5 29.5q-93 0 -112 -95h-87q8 74 60.5 120.5t139.5 46.5q88 0 141.5 -48t53.5 -136v-210q0 -55 50 -55zM404 192v43l-125 -12q-115 -10 -115 -87q0 -39 26.5 -57.5t67.5 -18.5q58 0 102 32.5t44 99.5z" />
    <glyph glyph-name="uni0227.fina" 
d="M294 580q-24 0 -41.5 17t-17.5 41t17.5 40.5t41.5 16.5q23 0 40 -16.5t17 -40.5t-17 -41t-40 -17zM542 61q16 0 37 8v-63q-29 -11 -58 -11q-86 0 -104 71q-58 -76 -171 -76q-75 0 -122 36t-47 106q0 69 47.5 108t126.5 46l153 15v27q0 51 -28.5 80.5t-79.5 29.5
q-93 0 -112 -95h-87q8 74 60.5 120.5t139.5 46.5q88 0 141.5 -48t53.5 -136v-210q0 -55 50 -55zM404 192v43l-125 -12q-115 -10 -115 -87q0 -39 26.5 -57.5t67.5 -18.5q58 0 102 32.5t44 99.5z" />
    <glyph glyph-name="uni1EA1.fina" 
d="M542 61q16 0 37 8v-63q-29 -11 -58 -11q-86 0 -104 71q-58 -76 -171 -76q-75 0 -122 36t-47 106q0 69 47.5 108t126.5 46l153 15v27q0 51 -28.5 80.5t-79.5 29.5q-93 0 -112 -95h-87q8 74 60.5 120.5t139.5 46.5q88 0 141.5 -48t53.5 -136v-210q0 -55 50 -55zM404 192v43
l-125 -12q-115 -10 -115 -87q0 -39 26.5 -57.5t67.5 -18.5q58 0 102 32.5t44 99.5zM309 -80q23 0 40 -16.5t17 -40.5t-17 -41t-40 -17q-24 0 -41.5 17t-17.5 41t17.5 40.5t41.5 16.5z" />
    <glyph glyph-name="agrave.fina" 
d="M328 555h-70l-77 145h78zM542 61q16 0 37 8v-63q-29 -11 -58 -11q-86 0 -104 71q-58 -76 -171 -76q-75 0 -122 36t-47 106q0 69 47.5 108t126.5 46l153 15v27q0 51 -28.5 80.5t-79.5 29.5q-93 0 -112 -95h-87q8 74 60.5 120.5t139.5 46.5q88 0 141.5 -48t53.5 -136v-210
q0 -55 50 -55zM404 192v43l-125 -12q-115 -10 -115 -87q0 -39 26.5 -57.5t67.5 -18.5q58 0 102 32.5t44 99.5z" />
    <glyph glyph-name="amacron.fina" 
d="M444 645v-64h-301v64h301zM542 61q16 0 37 8v-63q-29 -11 -58 -11q-86 0 -104 71q-58 -76 -171 -76q-75 0 -122 36t-47 106q0 69 47.5 108t126.5 46l153 15v27q0 51 -28.5 80.5t-79.5 29.5q-93 0 -112 -95h-87q8 74 60.5 120.5t139.5 46.5q88 0 141.5 -48t53.5 -136v-210
q0 -55 50 -55zM404 192v43l-125 -12q-115 -10 -115 -87q0 -39 26.5 -57.5t67.5 -18.5q58 0 102 32.5t44 99.5z" />
    <glyph glyph-name="aring.fina" 
d="M293 541q-39 0 -67.5 28.5t-28.5 66.5q0 39 28.5 67t67.5 28t67.5 -28t28.5 -67q0 -38 -28.5 -66.5t-67.5 -28.5zM294 679q-18 0 -30.5 -12.5t-12.5 -30.5t12.5 -31t30.5 -13q17 0 29 13t12 31q0 17 -12.5 30t-28.5 13zM542 61q16 0 37 8v-63q-29 -11 -58 -11
q-86 0 -104 71q-58 -76 -171 -76q-75 0 -122 36t-47 106q0 69 47.5 108t126.5 46l153 15v27q0 51 -28.5 80.5t-79.5 29.5q-93 0 -112 -95h-87q8 74 60.5 120.5t139.5 46.5q88 0 141.5 -48t53.5 -136v-210q0 -55 50 -55zM404 192v43l-125 -12q-115 -10 -115 -87
q0 -39 26.5 -57.5t67.5 -18.5q58 0 102 32.5t44 99.5z" />
    <glyph glyph-name="atilde.fina" 
d="M230 612q-40 0 -46 -55h-63q5 52 30.5 85.5t70.5 33.5q26 0 47 -10t32 -22t25.5 -22t29.5 -10q41 0 47 55h62q-3 -49 -29 -83.5t-71 -34.5q-25 0 -46 10t-32.5 21.5t-26.5 21.5t-30 10zM542 61q16 0 37 8v-63q-29 -11 -58 -11q-86 0 -104 71q-58 -76 -171 -76
q-75 0 -122 36t-47 106q0 69 47.5 108t126.5 46l153 15v27q0 51 -28.5 80.5t-79.5 29.5q-93 0 -112 -95h-87q8 74 60.5 120.5t139.5 46.5q88 0 141.5 -48t53.5 -136v-210q0 -55 50 -55zM404 192v43l-125 -12q-115 -10 -115 -87q0 -39 26.5 -57.5t67.5 -18.5q58 0 102 32.5
t44 99.5z" />
    <glyph glyph-name="aacute.ss01" 
d="M381 700l-66 -145h-45l62 145h49zM531 68h13v-68h-40q-74 0 -89 65q-57 -75 -169 -75q-75 0 -122 36t-47 106q0 69 47.5 108t126.5 46l153 15v27q0 51 -28.5 80.5t-79.5 29.5q-93 0 -112 -95h-87q8 74 60.5 120.5t139.5 46.5q88 0 141.5 -48t53.5 -136v-217q0 -41 39 -41
zM404 192v43l-125 -12q-115 -10 -115 -87q0 -39 26.5 -57.5t67.5 -18.5q58 0 102 32.5t44 99.5z" />
    <glyph glyph-name="abreve.ss01" 
d="M293 577q-57 0 -88.5 38.5t-31.5 84.5h45q0 -38 20.5 -61t54.5 -23q33 0 53 23t20 61h45q0 -46 -30.5 -84.5t-87.5 -38.5zM531 68h13v-68h-40q-74 0 -89 65q-57 -75 -169 -75q-75 0 -122 36t-47 106q0 69 47.5 108t126.5 46l153 15v27q0 51 -28.5 80.5t-79.5 29.5
q-93 0 -112 -95h-87q8 74 60.5 120.5t139.5 46.5q88 0 141.5 -48t53.5 -136v-217q0 -41 39 -41zM404 192v43l-125 -12q-115 -10 -115 -87q0 -39 26.5 -57.5t67.5 -18.5q58 0 102 32.5t44 99.5z" />
    <glyph glyph-name="uni01CE.ss01" 
d="M318 568h-49l-103 132h53l73 -94h3l72 94h53zM531 68h13v-68h-40q-74 0 -89 65q-57 -75 -169 -75q-75 0 -122 36t-47 106q0 69 47.5 108t126.5 46l153 15v27q0 51 -28.5 80.5t-79.5 29.5q-93 0 -112 -95h-87q8 74 60.5 120.5t139.5 46.5q88 0 141.5 -48t53.5 -136v-217
q0 -41 39 -41zM404 192v43l-125 -12q-115 -10 -115 -87q0 -39 26.5 -57.5t67.5 -18.5q58 0 102 32.5t44 99.5z" />
    <glyph glyph-name="acircumflex.ss01" 
d="M291 662l-72 -94h-53l102 132h49l103 -132h-53l-73 94h-3zM531 68h13v-68h-40q-74 0 -89 65q-57 -75 -169 -75q-75 0 -122 36t-47 106q0 69 47.5 108t126.5 46l153 15v27q0 51 -28.5 80.5t-79.5 29.5q-93 0 -112 -95h-87q8 74 60.5 120.5t139.5 46.5q88 0 141.5 -48
t53.5 -136v-217q0 -41 39 -41zM404 192v43l-125 -12q-115 -10 -115 -87q0 -39 26.5 -57.5t67.5 -18.5q58 0 102 32.5t44 99.5z" />
    <glyph glyph-name="agrave.ss01" 
d="M316 555h-45l-66 145h49zM531 68h13v-68h-40q-74 0 -89 65q-57 -75 -169 -75q-75 0 -122 36t-47 106q0 69 47.5 108t126.5 46l153 15v27q0 51 -28.5 80.5t-79.5 29.5q-93 0 -112 -95h-87q8 74 60.5 120.5t139.5 46.5q88 0 141.5 -48t53.5 -136v-217q0 -41 39 -41z
M404 192v43l-125 -12q-115 -10 -115 -87q0 -39 26.5 -57.5t67.5 -18.5q58 0 102 32.5t44 99.5z" />
    <glyph glyph-name="amacron.ss01" 
d="M442 633v-39h-297v39h297zM531 68h13v-68h-40q-74 0 -89 65q-57 -75 -169 -75q-75 0 -122 36t-47 106q0 69 47.5 108t126.5 46l153 15v27q0 51 -28.5 80.5t-79.5 29.5q-93 0 -112 -95h-87q8 74 60.5 120.5t139.5 46.5q88 0 141.5 -48t53.5 -136v-217q0 -41 39 -41z
M404 192v43l-125 -12q-115 -10 -115 -87q0 -39 26.5 -57.5t67.5 -18.5q58 0 102 32.5t44 99.5z" />
    <glyph glyph-name="aogonek.ss01" 
d="M530 -128q22 0 45 6v-38q-19 -7 -46 -7q-45 0 -74.5 20.5t-29.5 63.5q0 54 67 83q-63 5 -77 65q-57 -75 -169 -75q-75 0 -122 36t-47 106q0 69 47.5 108t126.5 46l153 15v27q0 51 -28.5 80.5t-79.5 29.5q-93 0 -112 -95h-87q8 74 60.5 120.5t139.5 46.5q88 0 141.5 -48
t53.5 -136v-217q0 -41 39 -41h13v-68q-74 -28 -74 -82q0 -46 60 -46zM404 192v43l-125 -12q-115 -10 -115 -87q0 -39 26.5 -57.5t67.5 -18.5q58 0 102 32.5t44 99.5z" />
    <glyph glyph-name="aring.ss01" 
d="M294 550q-37 0 -64.5 26t-27.5 64t27.5 64t64.5 26t63.5 -26t26.5 -64t-26.5 -64t-63.5 -26zM294 694q-23 0 -38 -15.5t-15 -38.5t15 -38.5t38 -15.5q21 0 36.5 15.5t15.5 38.5t-15.5 38.5t-36.5 15.5zM531 68h13v-68h-40q-74 0 -89 65q-57 -75 -169 -75q-75 0 -122 36
t-47 106q0 69 47.5 108t126.5 46l153 15v27q0 51 -28.5 80.5t-79.5 29.5q-93 0 -112 -95h-87q8 74 60.5 120.5t139.5 46.5q88 0 141.5 -48t53.5 -136v-217q0 -41 39 -41zM404 192v43l-125 -12q-115 -10 -115 -87q0 -39 26.5 -57.5t67.5 -18.5q58 0 102 32.5t44 99.5z" />
    <glyph glyph-name="atilde.ss01" 
d="M229 623q-43 0 -51 -59h-41q5 42 27.5 70.5t61.5 28.5q31 0 53 -16.5t40 -32.5t38 -16q23 0 36 16.5t16 41.5h40q-4 -41 -27 -69.5t-61 -28.5q-24 0 -44 10t-31 22.5t-26 22.5t-31 10zM531 68h13v-68h-40q-74 0 -89 65q-57 -75 -169 -75q-75 0 -122 36t-47 106
q0 69 47.5 108t126.5 46l153 15v27q0 51 -28.5 80.5t-79.5 29.5q-93 0 -112 -95h-87q8 74 60.5 120.5t139.5 46.5q88 0 141.5 -48t53.5 -136v-217q0 -41 39 -41zM404 192v43l-125 -12q-115 -10 -115 -87q0 -39 26.5 -57.5t67.5 -18.5q58 0 102 32.5t44 99.5z" />
    <glyph glyph-name="aeacute.ss01" 
d="M388 700l-66 -145h-45l62 145h49zM414 59q27 0 48.5 20t25.5 66h82q-7 -78 -50 -116.5t-104 -38.5q-88 0 -126 72q-32 -72 -127 -72q-63 0 -100.5 35t-37.5 102q0 85 52.5 125t141.5 40h31v64q0 83 -64 83q-68 0 -71 -85l-84 2q4 76 44 115t108 39q81 0 118 -60
q40 60 115 60q68 0 111 -58t43 -191q0 -21 -1 -34h-235q0 -168 80 -168zM415 441q-35 0 -57 -36.5t-24 -112.5h157q-3 149 -76 149zM173 59q32 0 54.5 24.5t22.5 79.5v64h-22q-57 0 -88 -20.5t-31 -73.5q0 -36 17.5 -55t46.5 -19z" />
    <glyph glyph-name="uni01E3.ss01" 
d="M449 633v-39h-297v39h297zM414 59q27 0 48.5 20t25.5 66h82q-7 -78 -50 -116.5t-104 -38.5q-88 0 -126 72q-32 -72 -127 -72q-63 0 -100.5 35t-37.5 102q0 85 52.5 125t141.5 40h31v64q0 83 -64 83q-68 0 -71 -85l-84 2q4 76 44 115t108 39q81 0 118 -60q40 60 115 60
q68 0 111 -58t43 -191q0 -21 -1 -34h-235q0 -168 80 -168zM415 441q-35 0 -57 -36.5t-24 -112.5h157q-3 149 -76 149zM173 59q32 0 54.5 24.5t22.5 79.5v64h-22q-57 0 -88 -20.5t-31 -73.5q0 -36 17.5 -55t46.5 -19z" />
    <glyph glyph-name="cacute.ss01" 
d="M339 700h49l-66 -145h-45zM533 163q-14 -79 -76 -126t-152 -47q-111 0 -179.5 73t-68.5 184q0 114 70 188.5t178 74.5q87 0 150 -47.5t75 -131.5h-88q-9 45 -45.5 74t-91.5 29q-71 0 -115.5 -53t-44.5 -134q0 -79 43.5 -130t116.5 -51q110 0 140 97h88z" />
    <glyph glyph-name="ccaron.ss01" 
d="M373 700h53l-102 -132h-49l-103 132h53l73 -94h3zM533 163q-14 -79 -76 -126t-152 -47q-111 0 -179.5 73t-68.5 184q0 114 70 188.5t178 74.5q87 0 150 -47.5t75 -131.5h-88q-9 45 -45.5 74t-91.5 29q-71 0 -115.5 -53t-44.5 -134q0 -79 43.5 -130t116.5 -51
q110 0 140 97h88z" />
    <glyph glyph-name="ccedilla.ss01" 
d="M533 163q-13 -76 -70.5 -122t-142.5 -51l-27 -35q38 3 69 -19t31 -64q0 -38 -25.5 -60t-70.5 -22q-41 0 -66 19l14 30q26 -14 49 -14q27 0 43 13.5t16 36.5q0 50 -63 50q-18 0 -38 -9l-19 17l43 58q-100 10 -159.5 81t-59.5 175q0 114 70 188.5t178 74.5q87 0 150 -47.5
t75 -131.5h-88q-9 45 -45.5 74t-91.5 29q-71 0 -115.5 -53t-44.5 -134q0 -79 43.5 -130t116.5 -51q110 0 140 97h88z" />
    <glyph glyph-name="ccircumflex.ss01" 
d="M225 568h-53l102 132h49l103 -132h-53l-73 94h-3zM533 163q-14 -79 -76 -126t-152 -47q-111 0 -179.5 73t-68.5 184q0 114 70 188.5t178 74.5q87 0 150 -47.5t75 -131.5h-88q-9 45 -45.5 74t-91.5 29q-71 0 -115.5 -53t-44.5 -134q0 -79 43.5 -130t116.5 -51
q110 0 140 97h88z" />
    <glyph glyph-name="eth.ss01" 
d="M405 589q127 -149 127 -328q0 -126 -65 -198.5t-177 -72.5q-98 0 -167 65t-69 168t64 166.5t163 63.5q48 0 88 -19t61 -47h7q-28 94 -103 179l-156 -50l-13 36l140 45q-47 49 -123 103h102q54 -39 93 -80l95 31l13 -36zM292 64q68 0 111 47t43 116q0 67 -45 109.5
t-113 42.5q-69 0 -111 -44t-42 -113t45 -113.5t112 -44.5z" />
    <glyph glyph-name="dcaron.ss01" 
d="M443 434v276h88v-710h-72l-8 71h-7q-56 -81 -161 -81q-101 0 -165.5 72.5t-64.5 188.5q0 117 65 188t165 71q107 0 160 -76zM697 710q29 0 45.5 -22.5t16.5 -56.5q0 -96 -100 -160l-20 26q63 49 75 94q-9 -3 -21 -3q-26 0 -40.5 17.5t-14.5 41.5q0 29 16.5 46t42.5 17z
M294 66q68 0 108.5 50.5t40.5 134.5q0 83 -40.5 133t-108.5 50t-110.5 -50.5t-42.5 -132.5q0 -83 42.5 -134t110.5 -51z" />
    <glyph glyph-name="dcroat.ss01" 
d="M632 621v-40h-101v-581h-72l-8 71h-7q-56 -81 -161 -81q-101 0 -165.5 72.5t-64.5 188.5q0 117 65 188t165 71q107 0 160 -76v147h-175v40h175v89h88v-89h101zM294 66q68 0 108.5 50.5t40.5 134.5q0 83 -40.5 133t-108.5 50t-110.5 -50.5t-42.5 -132.5q0 -83 42.5 -134
t110.5 -51z" />
    <glyph glyph-name="eacute.ss01" 
d="M390 700l-66 -145h-45l62 145h49zM527 260q0 -7 -2 -31h-375q4 -75 46.5 -121t110.5 -46q50 0 84.5 21.5t47.5 62.5h85q-16 -74 -74 -115t-143 -41q-107 0 -174.5 70t-67.5 185q0 119 67.5 192t170.5 73q97 0 160.5 -65t63.5 -185zM303 438q-62 0 -103.5 -41.5
t-48.5 -103.5h290q0 65 -38.5 105t-99.5 40z" />
    <glyph glyph-name="ebreve.ss01" 
d="M302 577q-57 0 -88.5 38.5t-31.5 84.5h45q0 -38 20.5 -61t54.5 -23q33 0 53 23t20 61h45q0 -46 -30.5 -84.5t-87.5 -38.5zM527 260q0 -7 -2 -31h-375q4 -75 46.5 -121t110.5 -46q50 0 84.5 21.5t47.5 62.5h85q-16 -74 -74 -115t-143 -41q-107 0 -174.5 70t-67.5 185
q0 119 67.5 192t170.5 73q97 0 160.5 -65t63.5 -185zM303 438q-62 0 -103.5 -41.5t-48.5 -103.5h290q0 65 -38.5 105t-99.5 40z" />
    <glyph glyph-name="ecaron.ss01" 
d="M327 568h-49l-103 132h53l73 -94h3l72 94h53zM527 260q0 -7 -2 -31h-375q4 -75 46.5 -121t110.5 -46q50 0 84.5 21.5t47.5 62.5h85q-16 -74 -74 -115t-143 -41q-107 0 -174.5 70t-67.5 185q0 119 67.5 192t170.5 73q97 0 160.5 -65t63.5 -185zM303 438
q-62 0 -103.5 -41.5t-48.5 -103.5h290q0 65 -38.5 105t-99.5 40z" />
    <glyph glyph-name="uni0229.ss01" 
d="M527 260q0 -7 -2 -31h-375q4 -75 46.5 -121t110.5 -46q50 0 84.5 21.5t47.5 62.5h85q-16 -71 -70.5 -112t-134.5 -44l-27 -35q38 3 69 -19t31 -64q0 -38 -25.5 -60t-70.5 -22q-41 0 -66 19l14 30q26 -14 49 -14q27 0 43 13.5t16 36.5q0 50 -63 50q-18 0 -38 -9l-19 17
l43 59q-94 11 -152 79.5t-58 173.5q0 119 67.5 192t170.5 73q97 0 160.5 -65t63.5 -185zM303 438q-62 0 -103.5 -41.5t-48.5 -103.5h290q0 65 -38.5 105t-99.5 40z" />
    <glyph glyph-name="ecircumflex.ss01" 
d="M300 662l-72 -94h-53l102 132h49l103 -132h-53l-73 94h-3zM527 260q0 -7 -2 -31h-375q4 -75 46.5 -121t110.5 -46q50 0 84.5 21.5t47.5 62.5h85q-16 -74 -74 -115t-143 -41q-107 0 -174.5 70t-67.5 185q0 119 67.5 192t170.5 73q97 0 160.5 -65t63.5 -185zM303 438
q-62 0 -103.5 -41.5t-48.5 -103.5h290q0 65 -38.5 105t-99.5 40z" />
    <glyph glyph-name="egrave.ss01" 
d="M325 555h-45l-66 145h49zM527 260q0 -7 -2 -31h-375q4 -75 46.5 -121t110.5 -46q50 0 84.5 21.5t47.5 62.5h85q-16 -74 -74 -115t-143 -41q-107 0 -174.5 70t-67.5 185q0 119 67.5 192t170.5 73q97 0 160.5 -65t63.5 -185zM303 438q-62 0 -103.5 -41.5t-48.5 -103.5h290
q0 65 -38.5 105t-99.5 40z" />
    <glyph glyph-name="emacron.ss01" 
d="M451 633v-39h-297v39h297zM527 260q0 -7 -2 -31h-375q4 -75 46.5 -121t110.5 -46q50 0 84.5 21.5t47.5 62.5h85q-16 -74 -74 -115t-143 -41q-107 0 -174.5 70t-67.5 185q0 119 67.5 192t170.5 73q97 0 160.5 -65t63.5 -185zM303 438q-62 0 -103.5 -41.5t-48.5 -103.5h290
q0 65 -38.5 105t-99.5 40z" />
    <glyph glyph-name="eogonek.ss01" 
d="M527 260q0 -7 -2 -31h-375q4 -75 46.5 -121t110.5 -46q50 0 84.5 21.5t47.5 62.5h85q-13 -57 -50.5 -95t-94.5 -52q-71 -28 -71 -81q0 -46 60 -46q22 0 45 6v-38q-19 -7 -46 -7q-45 0 -74.5 20.5t-29.5 63.5q0 44 47 73h-3q-107 0 -174.5 70t-67.5 185q0 119 67.5 192
t170.5 73q97 0 160.5 -65t63.5 -185zM303 438q-62 0 -103.5 -41.5t-48.5 -103.5h290q0 65 -38.5 105t-99.5 40z" />
    <glyph glyph-name="uni1EBD.ss01" 
d="M238 623q-43 0 -51 -59h-41q5 42 27.5 70.5t61.5 28.5q31 0 53 -16.5t40 -32.5t38 -16q23 0 36 16.5t16 41.5h40q-4 -41 -27 -69.5t-61 -28.5q-24 0 -44 10t-31 22.5t-26 22.5t-31 10zM527 260q0 -7 -2 -31h-375q4 -75 46.5 -121t110.5 -46q50 0 84.5 21.5t47.5 62.5h85
q-16 -74 -74 -115t-143 -41q-107 0 -174.5 70t-67.5 185q0 119 67.5 192t170.5 73q97 0 160.5 -65t63.5 -185zM303 438q-62 0 -103.5 -41.5t-48.5 -103.5h290q0 65 -38.5 105t-99.5 40z" />
    <glyph glyph-name="aacute.fina.ss01" 
d="M381 700l-66 -145h-45l62 145h49zM542 61q16 0 37 8v-63q-29 -11 -58 -11q-86 0 -104 71q-58 -76 -171 -76q-75 0 -122 36t-47 106q0 69 47.5 108t126.5 46l153 15v27q0 51 -28.5 80.5t-79.5 29.5q-93 0 -112 -95h-87q8 74 60.5 120.5t139.5 46.5q88 0 141.5 -48
t53.5 -136v-210q0 -55 50 -55zM404 192v43l-125 -12q-115 -10 -115 -87q0 -39 26.5 -57.5t67.5 -18.5q58 0 102 32.5t44 99.5z" />
    <glyph glyph-name="abreve.fina.ss01" 
d="M293 577q-57 0 -88.5 38.5t-31.5 84.5h45q0 -38 20.5 -61t54.5 -23q33 0 53 23t20 61h45q0 -46 -30.5 -84.5t-87.5 -38.5zM542 61q16 0 37 8v-63q-29 -11 -58 -11q-86 0 -104 71q-58 -76 -171 -76q-75 0 -122 36t-47 106q0 69 47.5 108t126.5 46l153 15v27
q0 51 -28.5 80.5t-79.5 29.5q-93 0 -112 -95h-87q8 74 60.5 120.5t139.5 46.5q88 0 141.5 -48t53.5 -136v-210q0 -55 50 -55zM404 192v43l-125 -12q-115 -10 -115 -87q0 -39 26.5 -57.5t67.5 -18.5q58 0 102 32.5t44 99.5z" />
    <glyph glyph-name="uni01CE.fina.ss01" 
d="M318 568h-49l-103 132h53l73 -94h3l72 94h53zM542 61q16 0 37 8v-63q-29 -11 -58 -11q-86 0 -104 71q-58 -76 -171 -76q-75 0 -122 36t-47 106q0 69 47.5 108t126.5 46l153 15v27q0 51 -28.5 80.5t-79.5 29.5q-93 0 -112 -95h-87q8 74 60.5 120.5t139.5 46.5
q88 0 141.5 -48t53.5 -136v-210q0 -55 50 -55zM404 192v43l-125 -12q-115 -10 -115 -87q0 -39 26.5 -57.5t67.5 -18.5q58 0 102 32.5t44 99.5z" />
    <glyph glyph-name="acircumflex.fina.ss01" 
d="M291 662l-72 -94h-53l102 132h49l103 -132h-53l-73 94h-3zM542 61q16 0 37 8v-63q-29 -11 -58 -11q-86 0 -104 71q-58 -76 -171 -76q-75 0 -122 36t-47 106q0 69 47.5 108t126.5 46l153 15v27q0 51 -28.5 80.5t-79.5 29.5q-93 0 -112 -95h-87q8 74 60.5 120.5t139.5 46.5
q88 0 141.5 -48t53.5 -136v-210q0 -55 50 -55zM404 192v43l-125 -12q-115 -10 -115 -87q0 -39 26.5 -57.5t67.5 -18.5q58 0 102 32.5t44 99.5z" />
    <glyph glyph-name="agrave.fina.ss01" 
d="M316 555h-45l-66 145h49zM542 61q16 0 37 8v-63q-29 -11 -58 -11q-86 0 -104 71q-58 -76 -171 -76q-75 0 -122 36t-47 106q0 69 47.5 108t126.5 46l153 15v27q0 51 -28.5 80.5t-79.5 29.5q-93 0 -112 -95h-87q8 74 60.5 120.5t139.5 46.5q88 0 141.5 -48t53.5 -136v-210
q0 -55 50 -55zM404 192v43l-125 -12q-115 -10 -115 -87q0 -39 26.5 -57.5t67.5 -18.5q58 0 102 32.5t44 99.5z" />
    <glyph glyph-name="amacron.fina.ss01" 
d="M442 633v-39h-297v39h297zM542 61q16 0 37 8v-63q-29 -11 -58 -11q-86 0 -104 71q-58 -76 -171 -76q-75 0 -122 36t-47 106q0 69 47.5 108t126.5 46l153 15v27q0 51 -28.5 80.5t-79.5 29.5q-93 0 -112 -95h-87q8 74 60.5 120.5t139.5 46.5q88 0 141.5 -48t53.5 -136v-210
q0 -55 50 -55zM404 192v43l-125 -12q-115 -10 -115 -87q0 -39 26.5 -57.5t67.5 -18.5q58 0 102 32.5t44 99.5z" />
    <glyph glyph-name="aring.fina.ss01" 
d="M294 550q-37 0 -64.5 26t-27.5 64t27.5 64t64.5 26t63.5 -26t26.5 -64t-26.5 -64t-63.5 -26zM294 694q-23 0 -38 -15.5t-15 -38.5t15 -38.5t38 -15.5q21 0 36.5 15.5t15.5 38.5t-15.5 38.5t-36.5 15.5zM542 61q16 0 37 8v-63q-29 -11 -58 -11q-86 0 -104 71
q-58 -76 -171 -76q-75 0 -122 36t-47 106q0 69 47.5 108t126.5 46l153 15v27q0 51 -28.5 80.5t-79.5 29.5q-93 0 -112 -95h-87q8 74 60.5 120.5t139.5 46.5q88 0 141.5 -48t53.5 -136v-210q0 -55 50 -55zM404 192v43l-125 -12q-115 -10 -115 -87q0 -39 26.5 -57.5
t67.5 -18.5q58 0 102 32.5t44 99.5z" />
    <glyph glyph-name="atilde.fina.ss01" 
d="M229 623q-43 0 -51 -59h-41q5 42 27.5 70.5t61.5 28.5q31 0 53 -16.5t40 -32.5t38 -16q23 0 36 16.5t16 41.5h40q-4 -41 -27 -69.5t-61 -28.5q-24 0 -44 10t-31 22.5t-26 22.5t-31 10zM542 61q16 0 37 8v-63q-29 -11 -58 -11q-86 0 -104 71q-58 -76 -171 -76
q-75 0 -122 36t-47 106q0 69 47.5 108t126.5 46l153 15v27q0 51 -28.5 80.5t-79.5 29.5q-93 0 -112 -95h-87q8 74 60.5 120.5t139.5 46.5q88 0 141.5 -48t53.5 -136v-210q0 -55 50 -55zM404 192v43l-125 -12q-115 -10 -115 -87q0 -39 26.5 -57.5t67.5 -18.5q58 0 102 32.5
t44 99.5z" />
    <glyph glyph-name="uni01F5.ss01" 
d="M387 700l-66 -145h-45l62 145h49zM356 94q91 0 138.5 -37t47.5 -105q0 -77 -65 -119.5t-168 -42.5q-117 0 -180 48t-72 123l93 71q-32 11 -51 35t-19 56q0 60 68 93q-57 48 -57 122q0 75 58 123.5t151 48.5q69 0 122 -32q56 27 90 70l52 -52q-39 -39 -92 -60
q34 -43 34 -98q0 -77 -58.5 -123.5t-147.5 -46.5q-56 0 -100 18q-40 -16 -40 -46q0 -46 82 -46h114zM300 443q-56 0 -90 -29.5t-34 -75.5q0 -44 34.5 -73.5t89.5 -29.5q54 0 87.5 29.5t33.5 73.5q0 46 -33 75.5t-88 29.5zM309 -141q61 0 105 23t44 67q0 36 -29 55t-81 19
h-107l-97 -71q12 -40 52.5 -66.5t112.5 -26.5z" />
    <glyph glyph-name="gbreve.ss01" 
d="M298 577q-57 0 -88.5 38.5t-31.5 84.5h45q0 -38 20.5 -61t54.5 -23q33 0 53 23t20 61h45q0 -46 -30.5 -84.5t-87.5 -38.5zM356 94q91 0 138.5 -37t47.5 -105q0 -77 -65 -119.5t-168 -42.5q-117 0 -180 48t-72 123l93 71q-32 11 -51 35t-19 56q0 60 68 93q-57 48 -57 122
q0 75 58 123.5t151 48.5q69 0 122 -32q56 27 90 70l52 -52q-39 -39 -92 -60q34 -43 34 -98q0 -77 -58.5 -123.5t-147.5 -46.5q-56 0 -100 18q-40 -16 -40 -46q0 -46 82 -46h114zM300 443q-56 0 -90 -29.5t-34 -75.5q0 -44 34.5 -73.5t89.5 -29.5q54 0 87.5 29.5t33.5 73.5
q0 46 -33 75.5t-88 29.5zM309 -141q61 0 105 23t44 67q0 36 -29 55t-81 19h-107l-97 -71q12 -40 52.5 -66.5t112.5 -26.5z" />
    <glyph glyph-name="gcaron.ss01" 
d="M324 568h-49l-103 132h53l73 -94h3l72 94h53zM356 94q91 0 138.5 -37t47.5 -105q0 -77 -65 -119.5t-168 -42.5q-117 0 -180 48t-72 123l93 71q-32 11 -51 35t-19 56q0 60 68 93q-57 48 -57 122q0 75 58 123.5t151 48.5q69 0 122 -32q56 27 90 70l52 -52q-39 -39 -92 -60
q34 -43 34 -98q0 -77 -58.5 -123.5t-147.5 -46.5q-56 0 -100 18q-40 -16 -40 -46q0 -46 82 -46h114zM300 443q-56 0 -90 -29.5t-34 -75.5q0 -44 34.5 -73.5t89.5 -29.5q54 0 87.5 29.5t33.5 73.5q0 46 -33 75.5t-88 29.5zM309 -141q61 0 105 23t44 67q0 36 -29 55t-81 19
h-107l-97 -71q12 -40 52.5 -66.5t112.5 -26.5z" />
    <glyph glyph-name="gcircumflex.ss01" 
d="M297 662l-72 -94h-53l102 132h49l103 -132h-53l-73 94h-3zM356 94q91 0 138.5 -37t47.5 -105q0 -77 -65 -119.5t-168 -42.5q-117 0 -180 48t-72 123l93 71q-32 11 -51 35t-19 56q0 60 68 93q-57 48 -57 122q0 75 58 123.5t151 48.5q69 0 122 -32q56 27 90 70l52 -52
q-39 -39 -92 -60q34 -43 34 -98q0 -77 -58.5 -123.5t-147.5 -46.5q-56 0 -100 18q-40 -16 -40 -46q0 -46 82 -46h114zM300 443q-56 0 -90 -29.5t-34 -75.5q0 -44 34.5 -73.5t89.5 -29.5q54 0 87.5 29.5t33.5 73.5q0 46 -33 75.5t-88 29.5zM309 -141q61 0 105 23t44 67
q0 36 -29 55t-81 19h-107l-97 -71q12 -40 52.5 -66.5t112.5 -26.5z" />
    <glyph glyph-name="uni0123.ss01" 
d="M300 560q-31 0 -48 21t-17 55q0 91 104 152l21 -28q-21 -15 -33.5 -25t-25.5 -26.5t-19 -33.5q9 3 22 3q27 0 42 -17.5t15 -40.5q0 -27 -17 -43.5t-44 -16.5zM356 94q91 0 138.5 -37t47.5 -105q0 -77 -65 -119.5t-168 -42.5q-117 0 -180 48t-72 123l93 71q-32 11 -51 35
t-19 56q0 60 68 93q-57 48 -57 122q0 75 58 123.5t151 48.5q69 0 122 -32q56 27 90 70l52 -52q-39 -39 -92 -60q34 -43 34 -98q0 -77 -58.5 -123.5t-147.5 -46.5q-56 0 -100 18q-40 -16 -40 -46q0 -46 82 -46h114zM300 443q-56 0 -90 -29.5t-34 -75.5q0 -44 34.5 -73.5
t89.5 -29.5q54 0 87.5 29.5t33.5 73.5q0 46 -33 75.5t-88 29.5zM309 -141q61 0 105 23t44 67q0 36 -29 55t-81 19h-107l-97 -71q12 -40 52.5 -66.5t112.5 -26.5z" />
    <glyph glyph-name="hbar.ss01" 
d="M331 510q84 0 135 -50.5t51 -143.5v-316h-88v299q0 68 -34 101.5t-89 33.5q-59 0 -96.5 -36t-37.5 -108v-290h-88v580h-99v40h99v90h88v-90h177v-40h-177v-143h6q52 73 153 73z" />
    <glyph glyph-name="uni1E29.ss01" 
d="M331 510q84 0 135 -50.5t51 -143.5v-316h-88v299q0 68 -34 101.5t-89 33.5q-59 0 -96.5 -36t-37.5 -108v-290h-20l-34 -45q38 3 69 -19t31 -64q0 -38 -25.5 -60t-70.5 -22q-41 0 -66 19l14 30q26 -14 49 -14q27 0 43 13.5t16 36.5q0 50 -63 50q-18 0 -38 -9l-19 17l50 67
h-24v710h88v-273h6q52 73 153 73z" />
    <glyph glyph-name="hcircumflex.ss01" 
d="M56 768h-53l102 132h49l103 -132h-53l-73 94h-3zM331 510q84 0 135 -50.5t51 -143.5v-316h-88v299q0 68 -34 101.5t-89 33.5q-59 0 -96.5 -36t-37.5 -108v-290h-88v710h88v-273h6q52 73 153 73z" />
    <glyph glyph-name="iacute.ss01" 
d="M340 700h49l-66 -145h-45zM344 69h177v-69h-442v69h178v362h-168v69h255v-431z" />
    <glyph glyph-name="ibreve.ss01" 
d="M419 700q0 -46 -30.5 -84.5t-87.5 -38.5t-88.5 38.5t-31.5 84.5h45q0 -38 20.5 -61t54.5 -23q33 0 53 23t20 61h45zM344 69h177v-69h-442v69h178v362h-168v69h255v-431z" />
    <glyph glyph-name="uni01D0.ss01" 
d="M375 700h53l-102 -132h-49l-103 132h53l73 -94h3zM344 69h177v-69h-442v69h178v362h-168v69h255v-431z" />
    <glyph glyph-name="icircumflex.ss01" 
d="M227 568h-53l102 132h49l103 -132h-53l-73 94h-3zM344 69h177v-69h-442v69h178v362h-168v69h255v-431z" />
    <glyph glyph-name="igrave.ss01" 
d="M262 700l62 -145h-45l-66 145h49zM344 69h177v-69h-442v69h178v362h-168v69h255v-431z" />
    <glyph glyph-name="imacron.ss01" 
d="M153 633h297v-39h-297v39zM344 69h177v-69h-442v69h178v362h-168v69h255v-431z" />
    <glyph glyph-name="iogonek.ss01" 
d="M302 580q-24 0 -41.5 17t-17.5 41t17.5 40.5t41.5 16.5q23 0 40 -16.5t17 -40.5t-17 -41t-40 -17zM398 0q-74 -28 -74 -82q0 -46 60 -46q22 0 45 6v-38q-19 -7 -46 -7q-45 0 -74.5 20.5t-29.5 63.5q0 53 66 83h-266v69h178v362h-168v69h255v-431h177v-69h-123z" />
    <glyph glyph-name="itilde.ss01" 
d="M457 656q-4 -41 -27 -69.5t-61 -28.5q-24 0 -44 10t-31 22.5t-26 22.5t-31 10q-43 0 -51 -59h-41q5 42 27.5 70.5t61.5 28.5q31 0 53 -16.5t40 -32.5t38 -16q23 0 36 16.5t16 41.5h40zM344 69h177v-69h-442v69h178v362h-168v69h255v-431z" />
    <glyph glyph-name="jcircumflex.ss01" 
d="M296 568h-53l102 132h49l103 -132h-53l-73 94h-3zM135 500h278v-524q0 -186 -186 -186q-44 0 -90 11v70q32 -9 69 -9q34 0 58.5 10t36 22.5t18 33t7 31.5t0.5 28v444h-191v69z" />
    <glyph glyph-name="uni0137.ss01" 
d="M535 500l-225 -206l225 -294h-100l-186 237l-69 -63v-174h-88v710h88v-428h6l241 218h108zM295 -60q30 0 47 -21t17 -55q0 -91 -104 -152l-20 28q22 16 33.5 25t25 26t18.5 34q-9 -3 -21 -3q-27 0 -42.5 17.5t-15.5 40.5q0 27 17.5 43.5t44.5 16.5z" />
    <glyph glyph-name="lacute.ss01" 
d="M327 900h49l-66 -145h-45zM336 69h177v-69h-442v69h177v562h-167v69h255v-631z" />
    <glyph glyph-name="lcaron.ss01" 
d="M501 710q29 0 45.5 -22.5t16.5 -56.5q0 -96 -100 -160l-20 26q63 49 75 94q-9 -3 -21 -3q-26 0 -40.5 17.5t-14.5 41.5q0 29 16.5 46t42.5 17zM336 69h177v-69h-442v69h177v562h-167v69h255v-631z" />
    <glyph glyph-name="uni013C.ss01" 
d="M336 69h177v-69h-442v69h177v562h-167v69h255v-631zM287 -60q30 0 47 -21t17 -55q0 -91 -104 -152l-20 28q22 16 33.5 25t25 26t18.5 34q-9 -3 -21 -3q-27 0 -42.5 17.5t-15.5 40.5q0 27 17.5 43.5t44.5 16.5z" />
    <glyph glyph-name="lslash.ss01" 
d="M336 69h177v-69h-442v69h177v238l-96 -52v49l96 52v275h-167v69h255v-296l89 49v-49l-89 -49v-286z" />
    <glyph glyph-name="nacute.ss01" 
d="M340 700h49l-66 -145h-45zM331 510q84 0 135 -50.5t51 -143.5v-316h-88v299q0 68 -34 101.5t-89 33.5q-59 0 -96.5 -36t-37.5 -108v-290h-88v500h79l9 -63h6q52 73 153 73z" />
    <glyph glyph-name="ncaron.ss01" 
d="M375 700h53l-102 -132h-49l-103 132h53l73 -94h3zM331 510q84 0 135 -50.5t51 -143.5v-316h-88v299q0 68 -34 101.5t-89 33.5q-59 0 -96.5 -36t-37.5 -108v-290h-88v500h79l9 -63h6q52 73 153 73z" />
    <glyph glyph-name="uni0146.ss01" 
d="M331 510q84 0 135 -50.5t51 -143.5v-316h-88v299q0 68 -34 101.5t-89 33.5q-59 0 -96.5 -36t-37.5 -108v-290h-88v500h79l9 -63h6q52 73 153 73zM299 -60q30 0 47 -21t17 -55q0 -91 -104 -152l-20 28q22 16 33.5 25t25 26t18.5 34q-9 -3 -21 -3q-27 0 -42.5 17.5
t-15.5 40.5q0 27 17.5 43.5t44.5 16.5z" />
    <glyph glyph-name="uni01F9.ss01" 
d="M261 700l62 -145h-45l-66 145h49zM331 510q84 0 135 -50.5t51 -143.5v-316h-88v299q0 68 -34 101.5t-89 33.5q-59 0 -96.5 -36t-37.5 -108v-290h-88v500h79l9 -63h6q52 73 153 73z" />
    <glyph glyph-name="ntilde.ss01" 
d="M457 656q-4 -41 -27 -69.5t-61 -28.5q-24 0 -44 10t-31 22.5t-26 22.5t-31 10q-43 0 -51 -59h-41q5 42 27.5 70.5t61.5 28.5q31 0 53 -16.5t40 -32.5t38 -16q23 0 36 16.5t16 41.5h40zM331 510q84 0 135 -50.5t51 -143.5v-316h-88v299q0 68 -34 101.5t-89 33.5
q-59 0 -96.5 -36t-37.5 -108v-290h-88v500h79l9 -63h6q52 73 153 73z" />
    <glyph glyph-name="oacute.ss01" 
d="M339 700h49l-66 -145h-45zM300 -10q-107 0 -174 74t-67 187t66.5 186t174.5 73q106 0 173 -73.5t67 -185.5q0 -114 -66.5 -187.5t-173.5 -73.5zM300 66q70 0 111 52.5t41 132.5q0 79 -41.5 131t-110.5 52q-72 0 -112.5 -51.5t-40.5 -131.5t41 -132.5t112 -52.5z" />
    <glyph glyph-name="obreve.ss01" 
d="M418 700q0 -46 -30.5 -84.5t-87.5 -38.5t-88.5 38.5t-31.5 84.5h45q0 -38 20.5 -61t54.5 -23q33 0 53 23t20 61h45zM300 -10q-107 0 -174 74t-67 187t66.5 186t174.5 73q106 0 173 -73.5t67 -185.5q0 -114 -66.5 -187.5t-173.5 -73.5zM300 66q70 0 111 52.5t41 132.5
q0 79 -41.5 131t-110.5 52q-72 0 -112.5 -51.5t-40.5 -131.5t41 -132.5t112 -52.5z" />
    <glyph glyph-name="uni01D2.ss01" 
d="M374 700h53l-102 -132h-49l-103 132h53l73 -94h3zM300 -10q-107 0 -174 74t-67 187t66.5 186t174.5 73q106 0 173 -73.5t67 -185.5q0 -114 -66.5 -187.5t-173.5 -73.5zM300 66q70 0 111 52.5t41 132.5q0 79 -41.5 131t-110.5 52q-72 0 -112.5 -51.5t-40.5 -131.5
t41 -132.5t112 -52.5z" />
    <glyph glyph-name="ocircumflex.ss01" 
d="M226 568h-53l102 132h49l103 -132h-53l-73 94h-3zM300 -10q-107 0 -174 74t-67 187t66.5 186t174.5 73q106 0 173 -73.5t67 -185.5q0 -114 -66.5 -187.5t-173.5 -73.5zM300 66q70 0 111 52.5t41 132.5q0 79 -41.5 131t-110.5 52q-72 0 -112.5 -51.5t-40.5 -131.5
t41 -132.5t112 -52.5z" />
    <glyph glyph-name="ograve.ss01" 
d="M261 700l62 -145h-45l-66 145h49zM300 -10q-107 0 -174 74t-67 187t66.5 186t174.5 73q106 0 173 -73.5t67 -185.5q0 -114 -66.5 -187.5t-173.5 -73.5zM300 66q70 0 111 52.5t41 132.5q0 79 -41.5 131t-110.5 52q-72 0 -112.5 -51.5t-40.5 -131.5t41 -132.5t112 -52.5z
" />
    <glyph glyph-name="ohungarumlaut.ss01" 
d="M266 700h50l-62 -145h-45zM403 700h49l-63 -145h-43zM300 -10q-107 0 -174 74t-67 187t66.5 186t174.5 73q106 0 173 -73.5t67 -185.5q0 -114 -66.5 -187.5t-173.5 -73.5zM300 66q70 0 111 52.5t41 132.5q0 79 -41.5 131t-110.5 52q-72 0 -112.5 -51.5t-40.5 -131.5
t41 -132.5t112 -52.5z" />
    <glyph glyph-name="omacron.ss01" 
d="M152 633h297v-39h-297v39zM300 -10q-107 0 -174 74t-67 187t66.5 186t174.5 73q106 0 173 -73.5t67 -185.5q0 -114 -66.5 -187.5t-173.5 -73.5zM300 66q70 0 111 52.5t41 132.5q0 79 -41.5 131t-110.5 52q-72 0 -112.5 -51.5t-40.5 -131.5t41 -132.5t112 -52.5z" />
    <glyph glyph-name="uni01EB.ss01" 
d="M363 -2q-68 -28 -68 -80q0 -46 60 -46q23 0 45 6v-38q-19 -7 -46 -7q-45 0 -74.5 20.5t-29.5 63.5q0 44 47 73q-106 1 -172 75t-66 186q0 113 66.5 186t174.5 73q106 0 173 -73.5t67 -185.5q0 -95 -48 -164t-129 -89zM147 251q0 -80 41 -132.5t112 -52.5q70 0 111 52.5
t41 132.5q0 79 -41.5 131t-110.5 52q-72 0 -112.5 -51.5t-40.5 -131.5z" />
    <glyph glyph-name="oslash.ss01" 
d="M470 440q70 -75 70 -189t-66.5 -187.5t-173.5 -73.5q-77 0 -137 41l-53 -70l-36 24l56 75q-71 74 -71 191q0 113 66.5 186t174.5 73q78 0 137 -42l53 70l36 -24zM147 251q0 -73 34 -124l208 277q-38 30 -89 30q-72 0 -112.5 -51.5t-40.5 -131.5zM300 66q70 0 111 52.5
t41 132.5q0 70 -33 120l-208 -276q39 -29 89 -29z" />
    <glyph glyph-name="oslashacute.ss01" 
d="M388 700l-66 -145h-45l62 145h49zM470 440q70 -75 70 -189t-66.5 -187.5t-173.5 -73.5q-77 0 -137 41l-53 -70l-36 24l56 75q-71 74 -71 191q0 113 66.5 186t174.5 73q78 0 137 -42l53 70l36 -24zM147 251q0 -73 34 -124l208 277q-38 30 -89 30q-72 0 -112.5 -51.5
t-40.5 -131.5zM300 66q70 0 111 52.5t41 132.5q0 70 -33 120l-208 -276q39 -29 89 -29z" />
    <glyph glyph-name="otilde.ss01" 
d="M456 656q-4 -41 -27 -69.5t-61 -28.5q-24 0 -44 10t-31 22.5t-26 22.5t-31 10q-43 0 -51 -59h-41q5 42 27.5 70.5t61.5 28.5q31 0 53 -16.5t40 -32.5t38 -16q23 0 36 16.5t16 41.5h40zM300 -10q-107 0 -174 74t-67 187t66.5 186t174.5 73q106 0 173 -73.5t67 -185.5
q0 -114 -66.5 -187.5t-173.5 -73.5zM300 66q70 0 111 52.5t41 132.5q0 79 -41.5 131t-110.5 52q-72 0 -112.5 -51.5t-40.5 -131.5t41 -132.5t112 -52.5z" />
    <glyph glyph-name="racute.ss01" 
d="M349 700h49l-66 -145h-45zM488 424q-81 0 -131.5 -43.5t-50.5 -122.5v-191h193v-67h-430v67h149v366h-144v67h222l9 -84h7q27 47 70.5 70.5t125.5 23.5h37v-88q-20 2 -57 2z" />
    <glyph glyph-name="rcaron.ss01" 
d="M384 700h53l-102 -132h-49l-103 132h53l73 -94h3zM488 424q-81 0 -131.5 -43.5t-50.5 -122.5v-191h193v-67h-430v67h149v366h-144v67h222l9 -84h7q27 47 70.5 70.5t125.5 23.5h37v-88q-20 2 -57 2z" />
    <glyph glyph-name="uni0157.ss01" 
d="M488 424q-81 0 -131.5 -43.5t-50.5 -122.5v-191h193v-67h-430v67h149v366h-144v67h222l9 -84h7q27 47 70.5 70.5t125.5 23.5h37v-88q-20 2 -57 2zM282 -60q30 0 47 -21t17 -55q0 -91 -104 -152l-20 28q22 16 33.5 25t25 26t18.5 34q-9 -3 -21 -3q-27 0 -42.5 17.5
t-15.5 40.5q0 27 17.5 43.5t44.5 16.5z" />
    <glyph glyph-name="sacute.ss01" 
d="M327 700h49l-66 -145h-45zM502 135q0 -71 -56.5 -108t-143.5 -37q-105 0 -159.5 44t-58.5 118h86q10 -93 132 -93q51 0 85 18t34 56q0 30 -27 50.5t-89 34.5l-46 10q-78 17 -117.5 48t-39.5 88q0 68 55 107t136 39q92 0 143 -42t54 -101h-85q-4 33 -35 53.5t-77 20.5
t-77 -18.5t-31 -54.5q0 -33 25.5 -47t87.5 -28l42 -9q83 -19 122.5 -54.5t39.5 -94.5z" />
    <glyph glyph-name="scaron.ss01" 
d="M361 700h53l-102 -132h-49l-103 132h53l73 -94h3zM502 135q0 -71 -56.5 -108t-143.5 -37q-105 0 -159.5 44t-58.5 118h86q10 -93 132 -93q51 0 85 18t34 56q0 30 -27 50.5t-89 34.5l-46 10q-78 17 -117.5 48t-39.5 88q0 68 55 107t136 39q92 0 143 -42t54 -101h-85
q-4 33 -35 53.5t-77 20.5t-77 -18.5t-31 -54.5q0 -33 25.5 -47t87.5 -28l42 -9q83 -19 122.5 -54.5t39.5 -94.5z" />
    <glyph glyph-name="scedilla.ss01" 
d="M502 135q0 -68 -52 -105t-133 -40l-27 -35q38 3 69 -19t31 -64q0 -38 -25.5 -60t-70.5 -22q-41 0 -66 19l14 30q26 -14 49 -14q27 0 43 13.5t16 36.5q0 50 -63 50q-18 0 -38 -9l-19 17l43 58q-90 7 -137.5 50t-51.5 111h86q10 -93 132 -93q51 0 85 18t34 56
q0 30 -27 50.5t-89 34.5l-46 10q-78 17 -117.5 48t-39.5 88q0 68 55 107t136 39q92 0 143 -42t54 -101h-85q-4 33 -35 53.5t-77 20.5t-77 -18.5t-31 -54.5q0 -33 25.5 -47t87.5 -28l42 -9q83 -19 122.5 -54.5t39.5 -94.5z" />
    <glyph glyph-name="scircumflex.ss01" 
d="M213 568h-53l102 132h49l103 -132h-53l-73 94h-3zM502 135q0 -71 -56.5 -108t-143.5 -37q-105 0 -159.5 44t-58.5 118h86q10 -93 132 -93q51 0 85 18t34 56q0 30 -27 50.5t-89 34.5l-46 10q-78 17 -117.5 48t-39.5 88q0 68 55 107t136 39q92 0 143 -42t54 -101h-85
q-4 33 -35 53.5t-77 20.5t-77 -18.5t-31 -54.5q0 -33 25.5 -47t87.5 -28l42 -9q83 -19 122.5 -54.5t39.5 -94.5z" />
    <glyph glyph-name="uni0219.ss01" 
d="M502 135q0 -71 -56.5 -108t-143.5 -37q-105 0 -159.5 44t-58.5 118h86q10 -93 132 -93q51 0 85 18t34 56q0 30 -27 50.5t-89 34.5l-46 10q-78 17 -117.5 48t-39.5 88q0 68 55 107t136 39q92 0 143 -42t54 -101h-85q-4 33 -35 53.5t-77 20.5t-77 -18.5t-31 -54.5
q0 -33 25.5 -47t87.5 -28l42 -9q83 -19 122.5 -54.5t39.5 -94.5zM299 -60q30 0 47 -21t17 -55q0 -91 -104 -152l-20 28q22 16 33.5 25t25 26t18.5 34q-9 -3 -21 -3q-27 0 -42.5 17.5t-15.5 40.5q0 27 17.5 43.5t44.5 16.5z" />
    <glyph glyph-name="uni0123.ss02.ss01" 
d="M285 560q-31 0 -48 21t-17 55q0 91 104 152l21 -28q-21 -15 -33.5 -25t-25.5 -26.5t-19 -33.5q9 3 22 3q27 0 42 -17.5t15 -40.5q0 -27 -17 -43.5t-44 -16.5zM459 500h72v-500q0 -101 -64.5 -155.5t-168.5 -54.5q-99 0 -160.5 45t-71.5 130h87q22 -102 146 -102
q62 0 103 35t41 99v69q-53 -76 -160 -76q-100 0 -165 71t-65 188q0 116 64.5 188.5t165.5 72.5q105 0 161 -81h7zM294 66q68 0 108.5 50t40.5 133q0 84 -40.5 134.5t-108.5 50.5t-110.5 -51t-42.5 -134q0 -82 42.5 -132.5t110.5 -50.5z" />
    <glyph glyph-name="tbar.ss01" 
d="M529 429h-208v-139h208v-40h-208v-80q0 -106 111 -106q38 0 68 8v-71q-44 -11 -87 -11q-179 0 -179 166v94h-162v40h162v139h-162v71h83q48 0 67.5 19.5t19.5 70.5v46h79v-136h208v-71z" />
    <glyph glyph-name="tcaron.ss01" 
d="M482 770q28 0 44 -20.5t16 -52.5q0 -91 -96 -148l-20 23q60 45 72 87q-8 -2 -19 -2q-25 0 -39.5 16.5t-14.5 38.5q0 27 16 42.5t41 15.5zM321 170q0 -106 111 -106q38 0 68 8v-71q-44 -11 -87 -11q-179 0 -179 166v273h-162v71h83q48 0 67.5 19.5t19.5 70.5v46h79v-136
h208v-71h-208v-259z" />
    <glyph glyph-name="uni0163.ss01" 
d="M529 429h-208v-259q0 -106 111 -106q38 0 68 8v-71q-44 -11 -87 -11q-17 0 -25 1l-27 -36q38 3 69 -19t31 -64q0 -38 -25.5 -60t-70.5 -22q-41 0 -66 19l14 30q26 -14 49 -14q27 0 43 13.5t16 36.5q0 50 -63 50q-18 0 -38 -9l-19 17l47 64q-114 26 -114 159v273h-162v71
h83q48 0 67.5 19.5t19.5 70.5v46h79v-136h208v-71z" />
    <glyph glyph-name="uni021B.ss01" 
d="M321 170q0 -106 111 -106q38 0 68 8v-71q-44 -11 -87 -11q-179 0 -179 166v273h-162v71h83q48 0 67.5 19.5t19.5 70.5v46h79v-136h208v-71h-208v-259zM370 -60q30 0 47 -21t17 -55q0 -91 -104 -152l-20 28q22 16 33.5 25t25 26t18.5 34q-9 -3 -21 -3q-27 0 -42.5 17.5
t-15.5 40.5q0 27 17.5 43.5t44.5 16.5z" />
    <glyph glyph-name="uacute.ss01" 
d="M339 700h49l-66 -145h-45zM269 -10q-84 0 -135 50.5t-51 143.5v316h88v-299q0 -68 34 -101.5t89 -33.5q59 0 96.5 36t37.5 108v290h88v-500h-79l-9 63h-6q-52 -73 -153 -73z" />
    <glyph glyph-name="ubreve.ss01" 
d="M418 700q0 -46 -30.5 -84.5t-87.5 -38.5t-88.5 38.5t-31.5 84.5h45q0 -38 20.5 -61t54.5 -23q33 0 53 23t20 61h45zM269 -10q-84 0 -135 50.5t-51 143.5v316h88v-299q0 -68 34 -101.5t89 -33.5q59 0 96.5 36t37.5 108v290h88v-500h-79l-9 63h-6q-52 -73 -153 -73z" />
    <glyph glyph-name="uni01D4.ss01" 
d="M374 700h53l-102 -132h-49l-103 132h53l73 -94h3zM269 -10q-84 0 -135 50.5t-51 143.5v316h88v-299q0 -68 34 -101.5t89 -33.5q59 0 96.5 36t37.5 108v290h88v-500h-79l-9 63h-6q-52 -73 -153 -73z" />
    <glyph glyph-name="ucircumflex.ss01" 
d="M226 568h-53l102 132h49l103 -132h-53l-73 94h-3zM269 -10q-84 0 -135 50.5t-51 143.5v316h88v-299q0 -68 34 -101.5t89 -33.5q59 0 96.5 36t37.5 108v290h88v-500h-79l-9 63h-6q-52 -73 -153 -73z" />
    </font>
</defs>
</svg>
