<?xml version="1.0" standalone="no"?>
<!DOCTYPE svg PUBLIC "-//W3C//DTD SVG 1.1//EN" "http://www.w3.org/Graphics/SVG/1.1/DTD/svg11.dtd" >
<svg xmlns="http://www.w3.org/2000/svg" xmlns:xlink="http://www.w3.org/1999/xlink" version="1.1">
<metadata>
Created by FontForge 20170731 at Tue Oct 10 12:45:31 2017
 By Aleksey,,,
(c) TIGHTYPE 2017
</metadata>
<defs>
<font id="Moderat-Light" horiz-adv-x="589" >
  <font-face 
    font-family="Moderat Light"
    font-weight="300"
    font-stretch="normal"
    units-per-em="1000"
    panose-1="0 0 4 0 0 0 0 0 0 0"
    ascent="800"
    descent="-200"
    x-height="500"
    cap-height="700"
    bbox="-136 -275 1147 963"
    underline-thickness="50"
    underline-position="-200"
    unicode-range="U+0020-FB02"
  />
<missing-glyph horiz-adv-x="848" 
d="M784 350q0 -150 -105 -255t-255 -105t-255 106t-105 254q0 149 105.5 254.5t254.5 105.5q151 0 255.5 -105.5t104.5 -254.5zM236 533v-45h44v-128h46v128h44v45h-134zM478 533v-45h45v-128h45v128h45v45h-135zM424 81q109 0 187 76t81 183l-46 8q0 -92 -65 -156.5
t-157 -64.5t-156.5 64.5t-64.5 156.5l-46 -8q3 -107 81 -183t186 -76z" />
    <glyph glyph-name="arrowleft" unicode="&#x3c;&#x2d;" horiz-adv-x="804" 
d="M767 340v-62h-629l224 -221l-47 -46l-288 295v7l288 294l47 -45l-226 -222h631z" />
    <glyph glyph-name="arrowright" unicode="&#x2d;&#x3e;" horiz-adv-x="804" 
d="M489 607l288 -294v-7l-288 -295l-47 46l224 221h-629v62h631l-226 222z" />
    <glyph glyph-name="fi" unicode="fi" horiz-adv-x="525" 
d="M451 500v-500h-68v444h-191v-444h-67v444h-88v56h88v95q0 53 30 84t83 31q40 0 69 -20l-21 -54q-22 14 -43 14q-51 0 -51 -62v-88h259zM417 684q20 0 34.5 -14t14.5 -34q0 -21 -14.5 -35t-34.5 -14q-21 0 -35.5 14t-14.5 35q0 20 15 34t35 14z" />
    <glyph glyph-name="f_f" unicode="ff" horiz-adv-x="623" 
d="M448 581v-81h124v-56h-124v-444h-66v444h-193v-444h-66v444h-86v56h86v89q0 57 31 89t81 32q56 0 92 -36l-28 -49q-27 25 -57 25q-53 0 -53 -69v-81h193v89q0 57 31 89t81 32q56 0 92 -36l-28 -49q-27 25 -57 25q-53 0 -53 -69z" />
    <glyph glyph-name="f_f_i" unicode="ffi" horiz-adv-x="784" 
d="M710 500v-500h-68v444h-191v-444h-67v444h-195v-444h-66v444h-86v56h86v89q0 57 31 89t81 32q56 0 92 -36l-28 -49q-27 25 -57 25q-53 0 -53 -69v-81h195v95q0 53 30 84t83 31q40 0 69 -20l-21 -54q-22 14 -43 14q-51 0 -51 -62v-88h259zM676 684q20 0 34.5 -14t14.5 -34
q0 -21 -14.5 -35t-34.5 -14q-21 0 -35.5 14t-14.5 35q0 20 15 34t35 14z" />
    <glyph glyph-name="f_f_j" unicode="ffj" horiz-adv-x="782" 
d="M707 500v-589q0 -57 -31 -89t-81 -32q-56 0 -92 36l28 49q27 -25 57 -25q53 0 53 69v525h-190v-444h-67v444h-195v-444h-66v444h-86v56h86v89q0 57 31 89t81 32q56 0 92 -36l-28 -49q-27 25 -57 25q-53 0 -53 -69v-81h195v95q0 53 30 84t83 31q40 0 69 -20l-21 -54
q-22 14 -43 14q-51 0 -51 -62v-88h256zM674 684q20 0 34.5 -14t14.5 -34q0 -21 -14.5 -35t-34.5 -14q-21 0 -35.5 14t-14.5 35q0 20 15 34t35 14z" />
    <glyph glyph-name="f_j" unicode="fj" horiz-adv-x="523" 
d="M448 500v-589q0 -57 -31 -89t-81 -32q-56 0 -92 36l28 49q27 -25 57 -25q53 0 53 69v525h-190v-444h-67v444h-88v56h88v95q0 53 30 84t83 31q40 0 69 -20l-21 -54q-22 14 -43 14q-51 0 -51 -62v-88h256zM415 684q20 0 34.5 -14t14.5 -34q0 -21 -14.5 -35t-34.5 -14
q-21 0 -35.5 14t-14.5 35q0 20 15 34t35 14z" />
    <glyph glyph-name=".notdef" horiz-adv-x="848" 
d="M784 350q0 -150 -105 -255t-255 -105t-255 106t-105 254q0 149 105.5 254.5t254.5 105.5q151 0 255.5 -105.5t104.5 -254.5zM236 533v-45h44v-128h46v128h44v45h-134zM478 533v-45h45v-128h45v128h45v45h-135zM424 81q109 0 187 76t81 183l-46 8q0 -92 -65 -156.5
t-157 -64.5t-156.5 64.5t-64.5 156.5l-46 -8q3 -107 81 -183t186 -76z" />
    <glyph glyph-name=".null" horiz-adv-x="0" 
 />
    <glyph glyph-name="nonmarkingreturn" horiz-adv-x="333" 
 />
    <glyph glyph-name="space" unicode=" " horiz-adv-x="270" 
 />
    <glyph glyph-name="exclam" unicode="!" horiz-adv-x="233" 
d="M80 700h73l-12 -512h-48zM118 -9q-22 0 -37.5 15.5t-15.5 35.5q0 22 15.5 37t37.5 15q20 0 35 -15t15 -37q0 -20 -15 -35.5t-35 -15.5z" />
    <glyph glyph-name="quotedbl" unicode="&#x22;" horiz-adv-x="326" 
d="M113 612l-14 -139h-31l-14 139l-6 63q0 43 35 43q36 0 36 -43zM272 612l-14 -139h-31l-14 139l-6 63q0 43 35 43q36 0 36 -43z" />
    <glyph glyph-name="numbersign" unicode="#" horiz-adv-x="678" 
d="M641 450h-112l-41 -204h98v-59h-110l-37 -187h-63l37 187h-206l-37 -187h-62l37 187h-108v59h120l41 204h-106v57h117l39 193h62l-39 -193h206l39 193h63l-39 -193h101v-57zM425 246l41 204h-206l-41 -204h206z" />
    <glyph glyph-name="dollar" unicode="$" horiz-adv-x="572" 
d="M508 165q0 -79 -53.5 -124t-139.5 -50v-81h-59v82q-90 12 -140.5 68t-50.5 133h66q-1 -50 32.5 -90t92.5 -51v257q-89 34 -131 69.5t-42 101.5q0 69 46.5 115.5t126.5 53.5v81h59v-82q84 -10 129.5 -64t45.5 -116h-66q0 45 -29 78t-80 42v-236q99 -36 146 -75t47 -112z
M149 481q0 -39 27.5 -63.5t79.5 -44.5v216q-49 -7 -78 -37.5t-29 -70.5zM315 49q54 4 89.5 32.5t35.5 82.5q0 45 -28 69.5t-97 52.5v-237z" />
    <glyph glyph-name="percent" unicode="%" horiz-adv-x="780" 
d="M214 350q-62 0 -106 44t-44 106t44 106t106 44q61 0 105.5 -44.5t44.5 -105.5t-44.5 -105.5t-105.5 -44.5zM657 640l-464 -640h-76l465 640h75zM214 410q39 0 64.5 25.5t25.5 64.5t-25.5 64.5t-64.5 25.5q-38 0 -63.5 -25.5t-25.5 -64.5t25.5 -64.5t63.5 -25.5zM566 -10
q-62 0 -106 44t-44 106t44 106t106 44q61 0 105.5 -44.5t44.5 -105.5t-44.5 -105.5t-105.5 -44.5zM566 50q39 0 64.5 25.5t25.5 64.5t-25.5 64.5t-64.5 25.5q-38 0 -63.5 -25.5t-25.5 -64.5t25.5 -64.5t63.5 -25.5z" />
    <glyph glyph-name="ampersand" unicode="&#x26;" horiz-adv-x="673" 
d="M644 0h-77l-103 109q-93 -119 -212 -119q-81 0 -134.5 46t-53.5 117q0 67 36.5 111.5t117.5 102.5q-37 38 -52.5 55t-35.5 54.5t-20 73.5q0 65 48.5 112.5t125.5 47.5t127.5 -43.5t50.5 -108.5q0 -25 -8.5 -47.5t-18.5 -39t-34.5 -39t-41 -35.5t-52.5 -40l147 -156
l81 131h73l-97 -156l-13 -21zM285 650q-47 0 -78 -29t-31 -72q0 -36 20 -66t70 -82q69 48 100.5 81.5t31.5 74.5t-33 67t-80 26zM253 52q92 0 168 101l-160 170q-48 -36 -71.5 -56t-41.5 -49t-18 -60q0 -43 35.5 -74.5t87.5 -31.5z" />
    <glyph glyph-name="quotesingle" unicode="'" horiz-adv-x="166" 
d="M113 612l-14 -139h-31l-14 139l-6 63q0 43 35 43q36 0 36 -43z" />
    <glyph glyph-name="parenleft" unicode="(" horiz-adv-x="297" 
d="M270 -131l-43 -34q-73 82 -118 203.5t-45 271.5t45 272t118 204l43 -35q-144 -171 -144 -441q0 -269 144 -441z" />
    <glyph glyph-name="parenright" unicode=")" horiz-adv-x="297" 
d="M27 -131q144 172 144 441q0 270 -144 441l43 35q73 -82 118 -204t45 -272t-45 -271.5t-118 -203.5z" />
    <glyph glyph-name="asterisk" unicode="*" horiz-adv-x="398" 
d="M350 597l-105 -57l105 -57l-25 -46l-103 63l3 -120h-52l2 120l-102 -63l-25 46l105 57l-105 57l25 46l102 -63l-2 120h52l-3 -120l103 63z" />
    <glyph glyph-name="plus" unicode="+" horiz-adv-x="535" 
d="M484 309v-58h-185v-191h-62v191h-185v58h185v191h62v-191h185z" />
    <glyph glyph-name="comma" unicode="," horiz-adv-x="239" 
d="M120 95q26 0 39.5 -19t13.5 -49q0 -47 -26 -82t-61 -54l-18 23q52 39 52 81q-22 -2 -37 11.5t-15 35.5q0 23 14.5 38t37.5 15z" />
    <glyph glyph-name="hyphen" unicode="-" horiz-adv-x="434" 
d="M37 341h360v-60h-360v60z" />
    <glyph glyph-name="period" unicode="." horiz-adv-x="233" 
d="M118 -9q-22 0 -37.5 15.5t-15.5 35.5q0 22 15.5 37t37.5 15q20 0 35 -15t15 -37q0 -20 -15 -35.5t-35 -15.5z" />
    <glyph glyph-name="slash" unicode="/" horiz-adv-x="497" 
d="M470 750l-367 -800h-76l368 800h75z" />
    <glyph glyph-name="zero" unicode="0" horiz-adv-x="584" 
d="M292 -10q-103 0 -165.5 84t-62.5 247q0 161 63 245.5t166 84.5q104 0 165.5 -84.5t61.5 -246.5q0 -164 -62 -247t-166 -83zM293 55q69 0 111.5 68t42.5 197q0 130 -42.5 198t-111.5 68t-111.5 -68t-42.5 -198q0 -129 42.5 -197t111.5 -68z" />
    <glyph glyph-name="one" unicode="1" horiz-adv-x="305" 
d="M156 0v485h-119v55h57q70 0 70 68v32h61v-640h-69z" />
    <glyph glyph-name="two" unicode="2" horiz-adv-x="534" 
d="M306 265q-154 -100 -160 -202h319v-63h-401v32q0 81 49 150t128 120q98 63 122 88q37 38 37 83q0 51 -33.5 83.5t-92.5 32.5q-70 0 -103 -45.5t-37 -109.5h-69q0 52 21 100t70.5 82.5t118.5 34.5q86 0 140.5 -49t54.5 -128q0 -37 -12.5 -67t-39.5 -56.5t-49 -43
t-63 -42.5z" />
    <glyph glyph-name="three" unicode="3" horiz-adv-x="547" 
d="M370 339q52 -17 82.5 -60t30.5 -102q0 -84 -56.5 -135.5t-152.5 -51.5q-97 0 -150 51.5t-60 137.5h67q4 -53 40.5 -90t102.5 -37q61 0 100 35t39 93q0 56 -36 92t-101 36h-33v61h32q53 0 85 31.5t32 79.5t-31.5 78.5t-85.5 30.5q-51 0 -84 -29t-37 -78h-67q0 74 56 121.5
t135 47.5q78 0 128.5 -47t50.5 -114q0 -100 -87 -147v-4z" />
    <glyph glyph-name="four" unicode="4" horiz-adv-x="545" 
d="M508 205v-58h-113v-147h-65v147h-293v50l268 443h90v-435h113zM111 205h219v358h-8z" />
    <glyph glyph-name="five" unicode="5" horiz-adv-x="549" 
d="M280 417q93 0 149 -59.5t56 -159.5q0 -92 -59.5 -150t-151.5 -58q-99 0 -153 56.5t-57 143.5h67q4 -64 40.5 -102t100.5 -38t105 41t41 108q0 70 -40 115t-104 45q-46 0 -85 -20t-60 -57l-56 16l35 342h345v-63h-286l-22 -210q52 50 135 50z" />
    <glyph glyph-name="six" unicode="6" horiz-adv-x="549" 
d="M297 401q72 0 130 -55t58 -147q0 -90 -58.5 -149.5t-151.5 -59.5q-95 0 -153 59t-58 156q0 52 19.5 97.5t60.5 111.5l137 226h83l-173 -268q15 10 22 14.5t29.5 9.5t54.5 5zM275 50q65 0 104 43.5t39 106.5q0 61 -38.5 103t-103.5 42t-104 -42t-39 -103q0 -63 39 -106.5
t103 -43.5z" />
    <glyph glyph-name="seven" unicode="7" horiz-adv-x="512" 
d="M64 640h411v-45q-243 -221 -262 -595h-70q10 197 67.5 332.5t157.5 243.5h-304v64z" />
    <glyph glyph-name="eight" unicode="8" horiz-adv-x="556" 
d="M369 344q53 -17 88 -63.5t35 -107.5q0 -82 -60 -132.5t-155 -50.5q-96 0 -154.5 50t-58.5 132q0 63 35.5 109.5t87.5 62.5v5q-41 15 -68 54t-27 85q0 73 54.5 118t130.5 45q78 0 133 -44.5t55 -118.5q0 -48 -27.5 -85t-68.5 -54v-5zM279 594q-52 0 -86 -29t-34 -77
q0 -51 35.5 -82t81.5 -31q48 0 85 31.5t37 82.5q0 48 -34 76.5t-85 28.5zM274 51q62 0 104.5 35t42.5 92q0 53 -39.5 93t-105.5 40t-103.5 -40t-37.5 -95q0 -56 39.5 -90.5t99.5 -34.5z" />
    <glyph glyph-name="nine" unicode="9" horiz-adv-x="549" 
d="M263 237q-72 0 -130 55t-58 147q0 90 58.5 149.5t151.5 59.5q95 0 153 -59t58 -156q0 -52 -19.5 -97.5t-60.5 -111.5l-137 -226h-83l173 268q-15 -10 -22 -14.5t-29.5 -9.5t-54.5 -5zM285 588q-65 0 -104 -43.5t-39 -106.5q0 -61 38.5 -103t103.5 -42t104 42t39 103
q0 63 -39 106.5t-103 43.5z" />
    <glyph glyph-name="colon" unicode=":" horiz-adv-x="233" 
d="M118 407q-22 0 -37.5 15.5t-15.5 35.5q0 22 15.5 37t37.5 15q20 0 35 -15t15 -37q0 -20 -15 -35.5t-35 -15.5zM118 -9q-22 0 -37.5 15.5t-15.5 35.5q0 22 15.5 37t37.5 15q20 0 35 -15t15 -37q0 -20 -15 -35.5t-35 -15.5z" />
    <glyph glyph-name="semicolon" unicode=";" horiz-adv-x="240" 
d="M122 403q-22 0 -37.5 15.5t-15.5 35.5q0 22 15.5 37t37.5 15q20 0 35 -15t15 -37q0 -20 -15 -35.5t-35 -15.5zM122 95q26 0 39.5 -19t13.5 -49q0 -47 -26 -82t-61 -54l-18 23q52 39 52 81q-22 -2 -37 11.5t-15 35.5q0 23 14.5 38t37.5 15z" />
    <glyph glyph-name="less" unicode="&#x3c;" horiz-adv-x="536" 
d="M483 579v-79l-361 -212v-5l361 -214v-79l-430 255v80z" />
    <glyph glyph-name="equal" unicode="=" horiz-adv-x="534" 
d="M54 408h426v-59h-426v59zM54 211h426v-59h-426v59z" />
    <glyph glyph-name="greater" unicode="&#x3e;" horiz-adv-x="536" 
d="M53 579l430 -254v-80l-430 -255v79l361 214v5l-361 212v79z" />
    <glyph glyph-name="question" unicode="?" horiz-adv-x="437" 
d="M155 239q0 63 17.5 102.5t66.5 83.5q54 49 67 67q18 28 18 62q0 43 -27.5 69.5t-80.5 26.5q-56 0 -83 -34t-32 -79h-64q2 67 45.5 120t133.5 53q81 0 127 -43t46 -111q0 -30 -7 -54t-26.5 -47.5t-29 -33t-38.5 -35.5q-38 -34 -53.5 -69t-15.5 -83v-46h-64v51zM188 -9
q-22 0 -37.5 15.5t-15.5 35.5q0 22 15.5 37t37.5 15q20 0 35 -15t15 -37q0 -20 -15 -35.5t-35 -15.5z" />
    <glyph glyph-name="at" unicode="@" horiz-adv-x="1002" 
d="M497 710q189 0 314.5 -114.5t125.5 -311.5q0 -127 -46.5 -198t-127.5 -71q-98 0 -121 101q-18 -42 -63 -70t-107 -28q-89 0 -148 63.5t-59 171.5q0 107 60 175t148 68q52 0 94 -24t63 -67h7l19 85h36v-330q0 -41 21 -64.5t55 -23.5q47 0 75.5 59t28.5 149q0 177 -104 274
t-273 97q-155 0 -260.5 -110.5t-105.5 -290.5q0 -89 33.5 -162.5t88 -119.5t121.5 -71t137 -25q125 0 213 61l29 -48q-51 -34 -107 -52.5t-142 -18.5q-67 0 -130.5 18.5t-119 55.5t-97.5 88.5t-66.5 122.5t-24.5 152q0 139 61 245t158.5 160t213.5 54zM479 80q73 0 110 48
t37 123q0 83 -37 132.5t-110 49.5q-70 0 -109 -52.5t-39 -123.5q0 -75 38.5 -126t109.5 -51z" />
    <glyph glyph-name="A" unicode="A" horiz-adv-x="629" 
d="M527 0l-65 193h-295l-65 -193h-75l241 700h93l241 -700h-75zM188 256h252l-123 364h-6z" />
    <glyph glyph-name="B" unicode="B" horiz-adv-x="583" 
d="M400 366q136 -45 136 -177q0 -92 -61.5 -140.5t-159.5 -48.5h-235v700h207q100 0 159 -45t59 -128q0 -117 -105 -156v-5zM147 639v-248h141q72 0 110.5 34t38.5 95q0 58 -40 88.5t-106 30.5h-144zM307 61q71 0 115 34t44 98q0 63 -43.5 101.5t-114.5 38.5h-161v-272h160z
" />
    <glyph glyph-name="C" unicode="C" horiz-adv-x="744" 
d="M684 207q-21 -96 -101.5 -156.5t-187.5 -60.5q-148 0 -239.5 100t-91.5 259q0 155 89.5 258t231.5 103q109 0 188 -58t100 -164h-73q-20 72 -76 113.5t-138 41.5q-110 0 -179 -85.5t-69 -206.5q0 -131 70 -213t188 -82q75 0 134 42t81 109h73z" />
    <glyph glyph-name="D" unicode="D" horiz-adv-x="682" 
d="M273 700q170 0 257.5 -94.5t87.5 -251.5q0 -162 -85.5 -258t-259.5 -96h-193v700h193zM271 66q141 0 208.5 78t67.5 212q0 124 -67.5 201t-208.5 77h-121v-568h121z" />
    <glyph glyph-name="E" unicode="E" horiz-adv-x="559" 
d="M148 65h373v-65h-441v700h431v-65h-363v-249h324v-63h-324v-258z" />
    <glyph glyph-name="F" unicode="F" horiz-adv-x="528" 
d="M491 634h-342v-251h300v-65h-300v-318h-69v700h411v-66z" />
    <glyph glyph-name="G" unicode="G" horiz-adv-x="742" 
d="M359 355h299v-355h-46l-14 79h-6q-92 -89 -220 -89q-145 0 -226.5 96.5t-81.5 246.5q0 164 88.5 270.5t227.5 106.5q120 0 190.5 -59t88.5 -155h-73q-17 63 -67.5 105t-135.5 42q-109 0 -178 -86t-69 -219q0 -124 64 -203.5t183 -79.5q67 0 120.5 29.5t84.5 66.5v144
h-229v60z" />
    <glyph glyph-name="H" unicode="H" horiz-adv-x="670" 
d="M520 700h70v-700h-70v321h-370v-321h-70v700h70v-314h370v314z" />
    <glyph glyph-name="I" unicode="I" horiz-adv-x="232" 
d="M152 700v-700h-72v700h72z" />
    <glyph glyph-name="J" unicode="J" horiz-adv-x="534" 
d="M108 196q3 -60 39.5 -99.5t98.5 -39.5q58 0 97.5 40t39.5 117v486h71v-492q0 -104 -59 -161t-149 -57q-95 0 -150 57.5t-59 148.5h71z" />
    <glyph glyph-name="K" unicode="K" horiz-adv-x="596" 
d="M484 0l-281 325h-52v-325h-71v700h71v-306h52l255 306h87l-281 -337v-6l306 -357h-86z" />
    <glyph glyph-name="L" unicode="L" horiz-adv-x="560" 
d="M153 68h370v-68h-442v700h72v-632z" />
    <glyph glyph-name="M" unicode="M" horiz-adv-x="842" 
d="M762 700v-700h-69v603h-7l-224 -543h-81l-225 543h-7v-603h-69v700h106l232 -557h7l231 557h106z" />
    <glyph glyph-name="N" unicode="N" horiz-adv-x="717" 
d="M567 700h70v-700h-83l-398 589h-7v-589h-69v700h86l394 -586h7v586z" />
    <glyph glyph-name="O" unicode="O" horiz-adv-x="812" 
d="M407 -10q-147 0 -245 103t-98 257t98 257t244 103t244 -103t98 -257t-97.5 -257t-243.5 -103zM407 58q115 0 191.5 84t76.5 208t-77 208t-192 84q-114 0 -191.5 -84.5t-77.5 -207.5t77.5 -207.5t192.5 -84.5z" />
    <glyph glyph-name="P" unicode="P" horiz-adv-x="606" 
d="M324 700q99 0 158.5 -57.5t59.5 -147.5q0 -97 -61 -152.5t-165 -55.5h-168v-287h-68v700h244zM306 350q77 0 120.5 37.5t43.5 107.5q0 67 -43 104.5t-113 37.5h-166v-287h158z" />
    <glyph glyph-name="Q" unicode="Q" horiz-adv-x="812" 
d="M606 -63q19 0 38.5 5t30 10t23.5 13t15 9l33 -50q-17 -16 -55 -32t-83 -16q-75 0 -124.5 32t-69.5 82h-7q-147 0 -245 103t-98 257t98 257t244 103t244 -103t98 -257q0 -132 -73.5 -228.5t-190.5 -122.5q31 -62 122 -62zM137 350q0 -123 77.5 -207.5t192.5 -84.5
t191.5 84t76.5 208t-77 208t-192 84q-114 0 -191.5 -84.5t-77.5 -207.5z" />
    <glyph glyph-name="R" unicode="R" horiz-adv-x="601" 
d="M563 0h-80l-181 300h-8h-146v-300h-68v700h224q104 0 165 -54t61 -145q0 -71 -42 -121.5t-114 -69.5zM148 635v-270h145q79 0 122 37t43 100q0 64 -43.5 98.5t-121.5 34.5h-145z" />
    <glyph glyph-name="S" unicode="S" horiz-adv-x="608" 
d="M544 171q0 -88 -63 -134.5t-164 -46.5q-121 0 -185 59.5t-68 154.5h73q4 -67 46.5 -109t131.5 -42q69 0 112.5 29.5t43.5 87.5q0 53 -37.5 89t-138.5 68q-101 33 -155.5 76t-54.5 120q0 84 61 135.5t155 51.5q105 0 167 -60t64 -143h-69q-4 56 -44.5 97.5t-119.5 41.5
q-64 0 -102.5 -34t-38.5 -85q0 -52 40 -82t130 -58q110 -35 163 -86.5t53 -129.5z" />
    <glyph glyph-name="T" unicode="T" horiz-adv-x="559" 
d="M521 700v-64h-207v-636h-70v636h-207v64h484z" />
    <glyph glyph-name="U" unicode="U" horiz-adv-x="693" 
d="M613 700v-433q0 -132 -74.5 -204.5t-190.5 -72.5t-192 72.5t-76 204.5v433h73v-427q0 -104 55.5 -159t139.5 -55t138 55t54 159v427h73z" />
    <glyph glyph-name="V" unicode="V" horiz-adv-x="649" 
d="M546 700h76l-248 -700h-100l-247 700h76l217 -622h8z" />
    <glyph glyph-name="W" unicode="W" horiz-adv-x="882" 
d="M787 700h68l-148 -700h-108l-154 560h-7l-155 -560h-108l-148 700h71l131 -621h6l158 571h96l158 -571h7z" />
    <glyph glyph-name="X" unicode="X" horiz-adv-x="595" 
d="M486 0l-184 299h-7l-184 -299h-84l223 361l-213 339h84l174 -279h7l174 279h82l-213 -339l223 -361h-82z" />
    <glyph glyph-name="Y" unicode="Y" horiz-adv-x="633" 
d="M520 700h87l-253 -359v-341h-74v341l-253 359h86l200 -282h7z" />
    <glyph glyph-name="Z" unicode="Z" horiz-adv-x="605" 
d="M167 66h364v-66h-467v44l374 586v5h-346v65h445v-44l-370 -585v-5z" />
    <glyph glyph-name="bracketleft" unicode="[" horiz-adv-x="283" 
d="M80 773h150v-57h-89v-828h103v-57h-164v942z" />
    <glyph glyph-name="backslash" unicode="\" horiz-adv-x="497" 
d="M27 750h75l368 -800h-76z" />
    <glyph glyph-name="bracketright" unicode="]" horiz-adv-x="283" 
d="M203 773v-942h-164v57h103v828h-89v57h150z" />
    <glyph glyph-name="asciicircum" unicode="^" horiz-adv-x="518" 
d="M399 360l-136 273h-7l-137 -273h-71l168 340h86l168 -340h-71z" />
    <glyph glyph-name="underscore" unicode="_" horiz-adv-x="509" 
d="M37 0h435v-59h-435v59z" />
    <glyph glyph-name="grave" unicode="`" horiz-adv-x="300" 
d="M164 683l57 -128h-48l-93 128h84z" />
    <glyph glyph-name="a" unicode="a" horiz-adv-x="513" 
d="M436 110q0 -30 11.5 -42t36.5 -12v-56h-12q-75 0 -91 68q-28 -36 -75 -57t-95 -21q-70 0 -116.5 35.5t-46.5 101.5q0 147 227 165l97 8v13q0 64 -30 103t-87 39q-54 0 -83.5 -31t-37.5 -76h-65q8 69 57 115.5t129 46.5q83 0 132 -52t49 -142v-206zM216 47
q63 0 109.5 38.5t46.5 112.5v49l-93 -8q-77 -6 -120.5 -34t-43.5 -74q0 -42 29 -63t72 -21z" />
    <glyph glyph-name="b" unicode="b" 
d="M311 510q100 0 165 -73t65 -187t-64 -187t-163 -73q-109 0 -168 88h-8l-15 -78h-48v712h68v-297q47 95 168 95zM305 51q75 0 122.5 55.5t47.5 143.5t-47.5 143.5t-122.5 55.5q-73 0 -118 -55t-45 -144t45 -144t118 -55z" />
    <glyph glyph-name="c" unicode="c" horiz-adv-x="562" 
d="M514 169q-11 -79 -73 -129t-150 -50q-116 0 -179.5 73.5t-63.5 186.5q0 109 69 184.5t173 75.5q91 0 152.5 -53.5t69.5 -133.5h-67q-10 54 -51 90t-106 36q-77 0 -125 -57.5t-48 -142.5q0 -88 45 -144t132 -56q59 0 100 33.5t54 86.5h68z" />
    <glyph glyph-name="d" unicode="d" 
d="M446 712h68v-712h-48l-15 78h-8q-59 -88 -168 -88q-99 0 -163 73t-64 187t65 187t165 73q121 0 168 -95v297zM284 51q73 0 118 55t45 144t-45 144t-118 55q-75 0 -122.5 -55.5t-47.5 -143.5t47.5 -143.5t122.5 -55.5z" />
    <glyph glyph-name="e" unicode="e" horiz-adv-x="550" 
d="M281 510q103 0 165 -70.5t55 -200.5h-388q4 -86 48 -137.5t127 -51.5q48 0 86.5 22.5t56.5 66.5h67q-20 -72 -78 -110.5t-133 -38.5q-111 0 -175 71t-64 193q0 111 65.5 183.5t167.5 72.5zM116 293h320q-2 68 -43 114t-112 46q-67 0 -111 -44t-54 -116z" />
    <glyph glyph-name="f" unicode="f" horiz-adv-x="363" 
d="M189 581v-81h124v-56h-124v-444h-66v444h-86v56h86v89q0 57 31 89t81 32q56 0 92 -36l-28 -49q-27 25 -57 25q-53 0 -53 -69z" />
    <glyph glyph-name="g" unicode="g" horiz-adv-x="525" 
d="M489 489q-28 -33 -79 -57q27 -43 27 -98q0 -74 -51.5 -120t-130.5 -46q-48 0 -90 20q-40 -22 -40 -51q0 -51 85 -51h87q83 0 128.5 -37t45.5 -106q0 -71 -56.5 -112t-149.5 -41q-105 0 -162 53t-55 129l83 66q-70 22 -70 87q0 58 64 90q-51 48 -51 121q0 77 50 125.5
t129 48.5q74 0 124 -41q38 21 74 68zM257 220q51 0 82.5 34t31.5 85q0 52 -31.5 86t-81.5 34q-52 0 -85 -34t-33 -86q0 -50 33 -84.5t84 -34.5zM404 -56q0 45 -32.5 66t-82.5 21h-85l-90 -71q7 -49 44 -80.5t110 -31.5q60 0 98 24.5t38 71.5z" />
    <glyph glyph-name="h" unicode="h" horiz-adv-x="557" 
d="M297 510q91 0 140.5 -55.5t49.5 -154.5v-300h-66v278q0 81 -36 125t-104 44q-54 0 -95 -40.5t-41 -107.5v-299h-70v710h70v-271h6q23 29 61.5 50t84.5 21z" />
    <glyph glyph-name="i" unicode="i" horiz-adv-x="217" 
d="M109 587q-21 0 -35.5 14t-14.5 35q0 20 15 34t35 14t34.5 -14t14.5 -34q0 -21 -14.5 -35t-34.5 -14zM143 500v-500h-68v500h68z" />
    <glyph glyph-name="j" unicode="j" horiz-adv-x="248" 
d="M140 587q-21 0 -35.5 14t-14.5 35q0 20 15 34t35 14t34.5 -14t14.5 -34q0 -21 -14.5 -35t-34.5 -14zM-3 -125q27 -25 57 -25q53 0 53 69v581h66v-589q0 -57 -31 -89t-81 -32q-56 0 -92 36z" />
    <glyph glyph-name="k" unicode="k" horiz-adv-x="510" 
d="M474 500l-203 -210l203 -290h-78l-172 242l-82 -85v-157h-67v710h67v-457h7l236 247h89z" />
    <glyph glyph-name="l" unicode="l" horiz-adv-x="218" 
d="M75 710h68v-710h-68v710z" />
    <glyph glyph-name="m" unicode="m" horiz-adv-x="826" 
d="M588 509q77 0 122.5 -50t45.5 -148v-311h-67v306q0 70 -32 106t-83 36q-50 0 -87 -39t-37 -107v-302h-68v299q0 71 -33 110t-82 39q-48 0 -86 -37t-38 -105v-306h-68v500h49l13 -64h7q19 31 55.5 52.5t84.5 21.5q56 0 92.5 -30.5t50.5 -67.5h7q19 41 58 69t96 28z" />
    <glyph glyph-name="n" unicode="n" horiz-adv-x="545" 
d="M297 510q78 0 128 -53.5t50 -149.5v-307h-68v292q0 77 -36 116.5t-96 39.5q-54 0 -92 -37.5t-38 -111.5v-299h-70v500h49l13 -64h6q50 74 154 74z" />
    <glyph glyph-name="o" unicode="o" horiz-adv-x="591" 
d="M296 -10q-109 0 -178.5 74.5t-69.5 186.5q0 111 68.5 185t177.5 74q108 0 178.5 -74.5t70.5 -186.5q0 -111 -69 -185t-178 -74zM295 51q79 0 129.5 58t50.5 141t-51 141t-130 58q-78 0 -128 -58t-50 -141t49.5 -141t129.5 -58z" />
    <glyph glyph-name="p" unicode="p" 
d="M314 510q99 0 163 -73t64 -187t-65 -187t-165 -73q-122 0 -169 97v-287h-67v700h48l15 -78h8q59 88 168 88zM305 51q75 0 122.5 55.5t47.5 143.5t-47.5 143.5t-122.5 55.5q-73 0 -118 -55t-45 -144t45 -144t118 -55z" />
    <glyph glyph-name="q" unicode="q" 
d="M466 500h48v-700h-67v287q-47 -97 -169 -97q-100 0 -165 73t-65 187t64 187t163 73q109 0 168 -88h8zM284 51q73 0 118 55t45 144t-45 144t-118 55q-75 0 -122.5 -55.5t-47.5 -143.5t47.5 -143.5t122.5 -55.5z" />
    <glyph glyph-name="r" unicode="r" horiz-adv-x="353" 
d="M286 510h30v-69q-21 3 -35 3q-57 0 -98 -42t-41 -123v-279h-67v500h49l12 -70h7q51 80 143 80z" />
    <glyph glyph-name="s" unicode="s" horiz-adv-x="455" 
d="M407 125q0 -63 -49 -99t-125 -36q-84 0 -135.5 47.5t-49.5 119.5h65q0 -56 37.5 -84t84.5 -28q45 0 75 21.5t30 59.5q0 39 -33 62.5t-93 42.5q-67 21 -108 54t-41 90q0 61 46 98t118 37q76 0 120.5 -43t44.5 -101h-63q-2 39 -31.5 64t-74.5 25q-39 0 -66.5 -20.5
t-27.5 -55.5t28.5 -57t83.5 -40q80 -27 122 -60.5t42 -96.5z" />
    <glyph glyph-name="t" unicode="t" horiz-adv-x="354" 
d="M315 11q-31 -21 -73 -21q-48 0 -78.5 28t-30.5 92v334h-96v48h28q40 0 58 16.5t18 54.5v63h59v-126h117v-56h-117v-328q0 -65 53 -65q21 0 41 13z" />
    <glyph glyph-name="u" unicode="u" horiz-adv-x="545" 
d="M249 -10q-78 0 -128 53.5t-50 149.5v307h69v-292q0 -77 35.5 -116.5t95.5 -39.5q54 0 92 37.5t38 111.5v299h69v-500h-49l-12 64h-7q-50 -74 -153 -74z" />
    <glyph glyph-name="v" unicode="v" horiz-adv-x="542" 
d="M434 500h72l-186 -500h-99l-185 500h72l159 -438h7z" />
    <glyph glyph-name="w" unicode="w" horiz-adv-x="709" 
d="M608 500h65l-115 -500h-92l-108 394h-6l-110 -394h-90l-116 500h65l96 -432h7l108 394h86l108 -394h7z" />
    <glyph glyph-name="x" unicode="x" horiz-adv-x="507" 
d="M393 0l-136 205h-7l-136 -205h-78l171 262l-154 238h78l120 -185h7l118 185h77l-152 -238l170 -262h-78z" />
    <glyph glyph-name="y" unicode="y" horiz-adv-x="540" 
d="M434 500h70l-199 -579q-22 -63 -57.5 -97t-97.5 -34q-70 0 -106 41l29 48q36 -30 75 -30q64 0 95 92l21 59h-28l-199 500h74l168 -431h7z" />
    <glyph glyph-name="z" unicode="z" horiz-adv-x="455" 
d="M136 57h270v-57h-358v44l268 394v5h-251v57h339v-44l-268 -394v-5z" />
    <glyph glyph-name="braceleft" unicode="{" horiz-adv-x="278" 
d="M172 411q0 -76 -64 -106v-6q64 -28 64 -106v-244q0 -34 17 -50.5t44 -16.5h18v-51h-30q-55 0 -82.5 31.5t-27.5 88.5v236q0 84 -74 91v49q74 7 74 90v236q0 57 27.5 88.5t82.5 31.5h30v-50h-18q-27 0 -44 -17t-17 -51v-244z" />
    <glyph glyph-name="bar" unicode="|" horiz-adv-x="224" 
d="M144 770v-910h-64v910h64z" />
    <glyph glyph-name="braceright" unicode="}" horiz-adv-x="278" 
d="M106 411v244q0 34 -17 51t-44 17h-18v50h30q55 0 82.5 -31.5t27.5 -88.5v-236q0 -83 74 -90v-49q-74 -7 -74 -91v-236q0 -57 -27.5 -88.5t-82.5 -31.5h-30v51h18q27 0 44 16.5t17 50.5v244q0 78 64 106v6q-64 30 -64 106z" />
    <glyph glyph-name="asciitilde" unicode="~" horiz-adv-x="590" 
d="M537 326q-10 -38 -46 -77.5t-93 -39.5q-34 0 -64 13.5t-48 30.5t-42.5 30.5t-49.5 13.5q-61 0 -96 -78l-45 15q11 40 46.5 79t92.5 39q43 0 78 -22t65 -44t61 -22q63 0 96 78z" />
    <glyph glyph-name="uni00A0" unicode="&#xa0;" horiz-adv-x="250" 
 />
    <glyph glyph-name="exclamdown" unicode="&#xa1;" horiz-adv-x="233" 
d="M115 509q22 0 37.5 -15.5t15.5 -35.5q0 -22 -15.5 -37t-37.5 -15q-20 0 -35 15t-15 37q0 20 15 35.5t35 15.5zM153 -200h-73l12 512h48z" />
    <glyph glyph-name="cent" unicode="&#xa2;" horiz-adv-x="539" 
d="M491 244q-10 -68 -59.5 -114t-123.5 -54v-76h-58v75q-97 9 -149 77t-52 168q0 95 56.5 165t144.5 80v76h58v-76q75 -9 124.5 -57.5t56.5 -117.5h-63q-8 44 -39 76.5t-79 40.5v-375q46 7 77 37.5t42 74.5h64zM112 320q0 -75 35 -126.5t103 -61.5v376q-63 -10 -100.5 -63
t-37.5 -125z" />
    <glyph glyph-name="sterling" unicode="&#xa3;" horiz-adv-x="588" 
d="M189 67v-5h326v-62h-451v45q57 18 97.5 64.5t40.5 103.5q0 36 -15 71h-123v53h93q-2 3 -9.5 15t-9.5 15.5t-8.5 14.5t-8.5 16.5t-6.5 16t-6 18.5t-3 18.5t-1.5 21.5q0 80 57 128.5t144 48.5q53 0 95.5 -17.5t67 -44.5t38 -50.5t17.5 -44.5l-56 -17q-6 17 -15.5 33
t-27.5 36t-49 32.5t-71 12.5q-63 0 -97.5 -33t-34.5 -85q0 -18 6.5 -37.5t13 -31t22 -34.5t20.5 -32h235l-12 -53h-197q11 -30 11 -64q0 -56 -25 -94.5t-57 -58.5z" />
    <glyph glyph-name="currency" unicode="&#xa4;" horiz-adv-x="588" 
d="M511 250q0 -74 -44 -131l73 -71l-45 -43l-71 71q-57 -43 -131 -43q-73 0 -130 43l-72 -71l-43 43l71 72q-43 59 -43 130q0 72 42 130l-70 72l43 43l72 -70q58 42 131 42q74 0 130 -43l71 71l45 -43l-73 -71q44 -57 44 -131zM294 96q63 0 108 46t45 108t-45 108t-108 46
q-64 0 -109.5 -46t-45.5 -108t45.5 -108t109.5 -46z" />
    <glyph glyph-name="yen" unicode="&#xa5;" horiz-adv-x="543" 
d="M516 640l-186 -267h146v-51h-171v-69h171v-51h-171v-202h-67v202h-171v51h171v69h-171v51h144l-184 267h76l164 -246h7l165 246h77z" />
    <glyph glyph-name="brokenbar" unicode="&#xa6;" horiz-adv-x="224" 
d="M80 770h64v-355h-64v355zM80 -140v355h64v-355h-64z" />
    <glyph glyph-name="section" unicode="&#xa7;" horiz-adv-x="591" 
d="M397 83q111 -35 111 -127q0 -78 -60 -121.5t-143 -43.5q-106 0 -165.5 55t-56.5 128h68q1 -49 40.5 -84.5t112.5 -35.5q56 0 95 27t39 74q0 23 -11.5 41.5t-26.5 29t-40.5 19t-42.5 11.5t-44 7q-94 15 -151.5 62.5t-57.5 131.5q0 65 42.5 107t87.5 54q-111 35 -111 127
q0 78 60 121.5t143 43.5q106 0 165 -55t57 -129h-69q0 49 -39.5 85t-112.5 36q-56 0 -95.5 -27.5t-39.5 -74.5q0 -23 11.5 -41.5t26.5 -29t40.5 -18.5t43.5 -11.5t44 -7.5q94 -14 151 -61.5t57 -131.5q0 -66 -42.5 -108t-86.5 -53zM134 257q0 -64 52 -101.5t120 -37.5
q63 0 106.5 34.5t43.5 91.5q0 64 -52 101t-119 37q-64 0 -107.5 -34t-43.5 -91z" />
    <glyph glyph-name="dieresis" unicode="&#xa8;" horiz-adv-x="430" 
d="M127 564q-19 0 -33 14t-14 34t14 34t33 14t33 -14t14 -34t-14 -34t-33 -14zM303 564q-19 0 -33 14.5t-14 33.5t14 33.5t33 14.5t33 -14t14 -34t-14 -34t-33 -14z" />
    <glyph glyph-name="copyright" unicode="&#xa9;" horiz-adv-x="848" 
d="M424 -10q-148 0 -254 105t-106 255t106 255t254 105t254 -105t106 -255t-106 -255t-254 -105zM424 33q129 0 223 94t94 223t-94 223t-223 94t-222 -94t-93 -223t93 -223t222 -94zM600 289q-12 -64 -56.5 -98.5t-112.5 -34.5q-77 0 -132 53t-55 140q0 86 53.5 138.5
t125.5 52.5q67 0 114.5 -37t57.5 -101h-60q-26 80 -112 80q-52 0 -85 -39.5t-33 -93.5q0 -55 34 -95.5t93 -40.5q44 0 71.5 21t35.5 55h61z" />
    <glyph glyph-name="guillemotleft" unicode="&#xab;" horiz-adv-x="504" 
d="M158 501h77l-133 -202l133 -202h-77l-131 202zM379 501h77l-133 -202l133 -202h-77l-131 202z" />
    <glyph glyph-name="logicalnot" unicode="&#xac;" horiz-adv-x="531" 
d="M478 150h-61v195h-364v57h425v-252z" />
    <glyph glyph-name="uni00AD" unicode="&#xad;" horiz-adv-x="434" 
d="M37 341h360v-60h-360v60z" />
    <glyph glyph-name="registered" unicode="&#xae;" horiz-adv-x="848" 
d="M424 710q148 0 254 -105t106 -255t-106 -255t-254 -105t-254 105t-106 255t106 255t254 105zM424 33q129 0 223 94t94 223t-94 223t-223 94t-222 -94t-93 -223t93 -223t222 -94zM567 414q0 -78 -78 -103l88 -139h-63l-86 131h-61v-131h-58v360h126q67 0 99.5 -33
t32.5 -85zM367 480v-126h79q30 0 47.5 18.5t17.5 45.5q0 25 -16.5 43.5t-49.5 18.5h-78z" />
    <glyph glyph-name="macron" unicode="&#xaf;" horiz-adv-x="448" 
d="M79 639h289v-52h-289v52z" />
    <glyph glyph-name="degree" unicode="&#xb0;" horiz-adv-x="395" 
d="M198 410q-62 0 -106 44t-44 106t44 106t106 44q61 0 105.5 -44.5t44.5 -105.5t-44.5 -105.5t-105.5 -44.5zM198 470q39 0 64.5 25.5t25.5 64.5t-25.5 64.5t-64.5 25.5q-38 0 -63.5 -25.5t-25.5 -64.5t25.5 -64.5t63.5 -25.5z" />
    <glyph glyph-name="plusminus" unicode="&#xb1;" horiz-adv-x="525" 
d="M294 371h178v-55h-178v-188h-62v188h-179v55h179v187h62v-187zM53 0v58h419v-58h-419z" />
    <glyph glyph-name="uni00B2" unicode="&#xb2;" horiz-adv-x="330" 
d="M189 498q-99 -51 -101 -113h206v-44h-260v21q0 101 108 162q70 39 85 54q17 17 17 41q0 29 -19 47.5t-53 18.5q-41 0 -62 -25.5t-23 -59.5h-52q0 51 35.5 91t102.5 40q53 0 88 -30t35 -78q0 -24 -8 -43t-25.5 -34t-32.5 -24.5t-41 -23.5z" />
    <glyph glyph-name="uni00B3" unicode="&#xb3;" horiz-adv-x="340" 
d="M231 543q33 -8 54 -35t21 -61q0 -48 -37 -80.5t-105 -32.5q-65 0 -100 33t-40 85h50q3 -31 26.5 -53t64.5 -22q39 0 64.5 20.5t25.5 51.5q0 32 -24.5 52t-67.5 20h-21v44h21q34 0 55.5 17t21.5 43q0 27 -20.5 44t-53.5 17q-32 0 -53 -16.5t-24 -44.5h-50q0 46 37.5 75.5
t90.5 29.5q54 0 88.5 -28.5t34.5 -69.5q0 -56 -59 -85v-4z" />
    <glyph glyph-name="acute" unicode="&#xb4;" horiz-adv-x="300" 
d="M137 683h84l-93 -128h-48z" />
    <glyph glyph-name="uni00B5" unicode="&#xb5;" horiz-adv-x="549" 
d="M405 500h69v-500h-49l-12 64h-7q-50 -74 -153 -74q-66 0 -112 38v-228h-65v368q-1 8 -1 25v307h69v-292q0 -77 35.5 -116.5t95.5 -39.5q54 0 92 37.5t38 111.5v299z" />
    <glyph glyph-name="paragraph" unicode="&#xb6;" horiz-adv-x="616" 
d="M48 512q0 83 59 135.5t148 52.5h324v-63h-93v-837h-63v837h-104v-837h-64v523q-87 0 -147 52.5t-60 136.5z" />
    <glyph glyph-name="periodcentered" unicode="&#xb7;" horiz-adv-x="177" 
d="M90 256q-22 0 -37.5 15.5t-15.5 35.5q0 22 15.5 37t37.5 15q20 0 35 -15t15 -37q0 -20 -15 -35.5t-35 -15.5z" />
    <glyph glyph-name="cedilla" unicode="&#xb8;" horiz-adv-x="357" 
d="M154 3h50l-30 -49q37 8 69.5 -15.5t32.5 -66.5q0 -38 -25.5 -60t-71.5 -22q-42 0 -67 20t-32 40l32 21q26 -41 66 -41q23 0 38 12.5t15 33.5q0 46 -61 46q-19 0 -39 -10l-19 24z" />
    <glyph glyph-name="uni00B9" unicode="&#xb9;" horiz-adv-x="222" 
d="M117 340v270h-88v44h45q45 0 45 46v25h49v-385h-51z" />
    <glyph glyph-name="guillemotright" unicode="&#xbb;" horiz-adv-x="504" 
d="M125 97h-77l133 202l-133 202h77l131 -202zM346 97h-77l133 202l-133 202h77l131 -202z" />
    <glyph glyph-name="onequarter" unicode="&#xbc;" horiz-adv-x="703" 
d="M117 255v270h-88v44h45q45 0 45 46v25h49v-385h-51zM617 640l-498 -640h-59l498 640h59zM679 125v-44h-63v-81h-47v81h-196v31l171 273h72v-260h63zM432 125h137v207h-5z" />
    <glyph glyph-name="onehalf" unicode="&#xbd;" horiz-adv-x="742" 
d="M117 255v270h-88v44h45q45 0 45 46v25h49v-385h-51zM617 640l-498 -640h-59l498 640h59zM601 157q-99 -51 -101 -113h206v-44h-260v21q0 101 108 162q70 39 85 54q17 18 17 41q0 29 -19 47.5t-53 18.5q-41 0 -62 -25.5t-23 -59.5h-52q0 51 35.5 91t102.5 40q53 0 88 -30
t35 -78q0 -24 -8 -43t-25.5 -34t-32.5 -24.5t-41 -23.5z" />
    <glyph glyph-name="threequarters" unicode="&#xbe;" horiz-adv-x="791" 
d="M231 458q33 -8 54 -35t21 -61q0 -48 -37 -80.5t-105 -32.5q-65 0 -100 33t-40 85h50q3 -31 26.5 -53t64.5 -22q39 0 64.5 20.5t25.5 51.5q0 32 -24.5 52t-67.5 20h-21v44h21q34 0 55.5 17t21.5 43q0 27 -20.5 44t-53.5 17q-32 0 -53 -16.5t-24 -44.5h-50q0 46 37.5 75.5
t90.5 29.5q54 0 88.5 -28.5t34.5 -69.5q0 -55 -59 -85v-4zM705 640l-498 -640h-59l498 640h59zM767 125v-44h-63v-81h-47v81h-196v31l171 273h72v-260h63zM520 125h137v207h-5z" />
    <glyph glyph-name="questiondown" unicode="&#xbf;" horiz-adv-x="437" 
d="M249 509q22 0 37.5 -15.5t15.5 -35.5q0 -22 -15.5 -37t-37.5 -15q-20 0 -35 15t-15 37q0 20 15 35.5t35 15.5zM282 261q0 -63 -17.5 -102.5t-66.5 -83.5q-54 -49 -67 -67q-18 -28 -18 -62q0 -43 27.5 -69.5t80.5 -26.5q56 0 83 34t32 79h64q-2 -67 -45.5 -120t-133.5 -53
q-81 0 -127 43t-46 111q0 30 7 54t26.5 47.5t29 33t38.5 35.5q38 34 53.5 69t15.5 83v46h64v-51z" />
    <glyph glyph-name="Agrave" unicode="&#xc0;" horiz-adv-x="629" 
d="M356 764h-51l-97 134h88zM527 0l-65 193h-295l-65 -193h-75l241 700h93l241 -700h-75zM188 256h252l-123 364h-6z" />
    <glyph glyph-name="Aacute" unicode="&#xc1;" horiz-adv-x="629" 
d="M428 898l-97 -134h-51l60 134h88zM527 0l-65 193h-295l-65 -193h-75l241 700h93l241 -700h-75zM188 256h252l-123 364h-6z" />
    <glyph glyph-name="Acircumflex" unicode="&#xc2;" horiz-adv-x="629" 
d="M311 865l-67 -94h-70l107 143h65l108 -143h-70l-67 94h-6zM527 0l-65 193h-295l-65 -193h-75l241 700h93l241 -700h-75zM188 256h252l-123 364h-6z" />
    <glyph glyph-name="Atilde" unicode="&#xc3;" horiz-adv-x="629" 
d="M250 819q-33 0 -55 -44l-45 21q7 27 33 53t67 26q34 0 72 -24t57 -24q35 0 55 43l45 -20q-7 -27 -33.5 -53t-66.5 -26q-35 0 -72 24t-57 24zM527 0l-65 193h-295l-65 -193h-75l241 700h93l241 -700h-75zM188 256h252l-123 364h-6z" />
    <glyph glyph-name="Adieresis" unicode="&#xc4;" horiz-adv-x="629" 
d="M201 771q-21 0 -36.5 15.5t-15.5 36.5q0 22 15.5 37.5t36.5 15.5q22 0 37.5 -15.5t15.5 -37.5q0 -21 -15.5 -36.5t-37.5 -15.5zM429 771q-21 0 -36 15.5t-15 36.5q0 22 15 37.5t36 15.5t36.5 -15.5t15.5 -37.5q0 -21 -15.5 -36.5t-36.5 -15.5zM527 0l-65 193h-295
l-65 -193h-75l241 700h93l241 -700h-75zM188 256h252l-123 364h-6z" />
    <glyph glyph-name="Aring" unicode="&#xc5;" horiz-adv-x="629" 
d="M527 0l-65 193h-295l-65 -193h-75l231 670q-47 32 -47 85q0 41 31 71t73 30t73 -30t31 -71q0 -54 -47 -86l230 -669h-75zM316 808q-23 0 -38.5 -16t-15.5 -37q0 -23 15.5 -39t38.5 -16q22 0 37 16t15 39q0 21 -15.5 37t-36.5 16zM188 256h252l-123 364h-6z" />
    <glyph glyph-name="AE" unicode="&#xc6;" horiz-adv-x="997" 
d="M586 65h373v-65h-441v199h-283l-126 -199h-82l440 700h482v-65h-363v-249h324v-63h-324v-258zM276 264h242v369h-9z" />
    <glyph glyph-name="Ccedilla" unicode="&#xc7;" horiz-adv-x="744" 
d="M684 207q-20 -92 -95.5 -152t-177.5 -65l-22 -36q37 8 70 -16t33 -67q0 -39 -25.5 -61t-72.5 -22q-43 0 -68 20t-32 40l32 22q27 -42 67 -42q24 0 39 13t15 34t-15.5 33.5t-46.5 12.5q-18 0 -40 -10l-19 24l36 56q-135 12 -216.5 110.5t-81.5 247.5q0 155 89.5 258
t231.5 103q109 0 188 -58t100 -164h-73q-20 72 -76 113.5t-138 41.5q-110 0 -179 -85.5t-69 -206.5q0 -131 70 -213t188 -82q75 0 134 42t81 109h73z" />
    <glyph glyph-name="Egrave" unicode="&#xc8;" horiz-adv-x="559" 
d="M277 898l60 -134h-51l-97 134h88zM148 65h373v-65h-441v700h431v-65h-363v-249h324v-63h-324v-258z" />
    <glyph glyph-name="Eacute" unicode="&#xc9;" horiz-adv-x="559" 
d="M321 898h88l-97 -134h-51zM148 65h373v-65h-441v700h431v-65h-363v-249h324v-63h-324v-258z" />
    <glyph glyph-name="Ecircumflex" unicode="&#xca;" horiz-adv-x="559" 
d="M225 771h-70l107 143h65l108 -143h-70l-67 94h-6zM148 65h373v-65h-441v700h431v-65h-363v-249h324v-63h-324v-258z" />
    <glyph glyph-name="Edieresis" unicode="&#xcb;" horiz-adv-x="559" 
d="M182 771q-21 0 -36.5 15.5t-15.5 36.5q0 22 15.5 37.5t36.5 15.5q22 0 37.5 -15.5t15.5 -37.5q0 -21 -15.5 -36.5t-37.5 -15.5zM410 771q-21 0 -36 15.5t-15 36.5q0 22 15 37.5t36 15.5t36.5 -15.5t15.5 -37.5q0 -21 -15.5 -36.5t-36.5 -15.5zM148 65h373v-65h-441v700
h431v-65h-363v-249h324v-63h-324v-258z" />
    <glyph glyph-name="Igrave" unicode="&#xcc;" horiz-adv-x="232" 
d="M97 898l60 -134h-51l-97 134h88zM152 700v-700h-72v700h72z" />
    <glyph glyph-name="Iacute" unicode="&#xcd;" horiz-adv-x="232" 
d="M141 898h88l-97 -134h-51zM152 700v-700h-72v700h72z" />
    <glyph glyph-name="Icircumflex" unicode="&#xce;" horiz-adv-x="232" 
d="M45 771h-70l107 143h65l108 -143h-70l-67 94h-6zM152 700v-700h-72v700h72z" />
    <glyph glyph-name="Idieresis" unicode="&#xcf;" horiz-adv-x="232" 
d="M2 771q-21 0 -36.5 15.5t-15.5 36.5q0 22 15.5 37.5t36.5 15.5q22 0 37.5 -15.5t15.5 -37.5q0 -21 -15.5 -36.5t-37.5 -15.5zM230 771q-21 0 -36 15.5t-15 36.5q0 22 15 37.5t36 15.5t36.5 -15.5t15.5 -37.5q0 -21 -15.5 -36.5t-36.5 -15.5zM152 700v-700h-72v700h72z
" />
    <glyph glyph-name="Eth" unicode="&#xd0;" horiz-adv-x="682" 
d="M273 700q170 0 257.5 -94.5t87.5 -251.5q0 -162 -85.5 -258t-259.5 -96h-193v327h-117v55h117v318h193zM271 66q141 0 208.5 78t67.5 212q0 124 -67.5 201t-208.5 77h-121v-252h179v-55h-179v-261h121z" />
    <glyph glyph-name="Ntilde" unicode="&#xd1;" horiz-adv-x="717" 
d="M522 850q-7 -27 -33.5 -53t-66.5 -26q-34 0 -72 24t-57 24q-33 0 -55 -44l-45 21q7 27 33 53t67 26q35 0 72 -24t57 -24q35 0 55 43zM567 700h70v-700h-83l-398 589h-7v-589h-69v700h86l394 -586h7v586z" />
    <glyph glyph-name="Ograve" unicode="&#xd2;" horiz-adv-x="812" 
d="M387 898l60 -134h-51l-97 134h88zM407 -10q-147 0 -245 103t-98 257t98 257t244 103t244 -103t98 -257t-97.5 -257t-243.5 -103zM407 58q115 0 191.5 84t76.5 208t-77 208t-192 84q-114 0 -191.5 -84.5t-77.5 -207.5t77.5 -207.5t192.5 -84.5z" />
    <glyph glyph-name="Oacute" unicode="&#xd3;" horiz-adv-x="812" 
d="M431 898h88l-97 -134h-51zM407 -10q-147 0 -245 103t-98 257t98 257t244 103t244 -103t98 -257t-97.5 -257t-243.5 -103zM407 58q115 0 191.5 84t76.5 208t-77 208t-192 84q-114 0 -191.5 -84.5t-77.5 -207.5t77.5 -207.5t192.5 -84.5z" />
    <glyph glyph-name="Ocircumflex" unicode="&#xd4;" horiz-adv-x="812" 
d="M335 771h-70l107 143h65l108 -143h-70l-67 94h-6zM407 -10q-147 0 -245 103t-98 257t98 257t244 103t244 -103t98 -257t-97.5 -257t-243.5 -103zM407 58q115 0 191.5 84t76.5 208t-77 208t-192 84q-114 0 -191.5 -84.5t-77.5 -207.5t77.5 -207.5t192.5 -84.5z" />
    <glyph glyph-name="Otilde" unicode="&#xd5;" horiz-adv-x="812" 
d="M570 850q-7 -27 -33.5 -53t-66.5 -26q-34 0 -72 24t-57 24q-33 0 -55 -44l-45 21q7 27 33 53t67 26q35 0 72 -24t57 -24q35 0 55 43zM407 -10q-147 0 -245 103t-98 257t98 257t244 103t244 -103t98 -257t-97.5 -257t-243.5 -103zM407 58q115 0 191.5 84t76.5 208t-77 208
t-192 84q-114 0 -191.5 -84.5t-77.5 -207.5t77.5 -207.5t192.5 -84.5z" />
    <glyph glyph-name="Odieresis" unicode="&#xd6;" horiz-adv-x="812" 
d="M292 771q-21 0 -36.5 15.5t-15.5 36.5q0 22 15.5 37.5t36.5 15.5q22 0 37.5 -15.5t15.5 -37.5q0 -21 -15.5 -36.5t-37.5 -15.5zM520 771q-21 0 -36 15.5t-15 36.5q0 22 15 37.5t36 15.5t36.5 -15.5t15.5 -37.5q0 -21 -15.5 -36.5t-36.5 -15.5zM407 -10q-147 0 -245 103
t-98 257t98 257t244 103t244 -103t98 -257t-97.5 -257t-243.5 -103zM407 58q115 0 191.5 84t76.5 208t-77 208t-192 84q-114 0 -191.5 -84.5t-77.5 -207.5t77.5 -207.5t192.5 -84.5z" />
    <glyph glyph-name="multiply" unicode="&#xd7;" horiz-adv-x="577" 
d="M497 444l-166 -164l166 -164l-43 -42l-165 164l-166 -164l-43 42l166 164l-166 164l42 43l167 -165l166 165z" />
    <glyph glyph-name="Oslash" unicode="&#xd8;" horiz-adv-x="812" 
d="M633 624q115 -107 115 -274q0 -154 -97.5 -257t-243.5 -103q-99 0 -183 52l-38 -55l-47 33l40 57q-115 104 -115 273q0 154 98 257t244 103q100 0 179 -51l37 53l49 -34zM137 350q0 -129 83 -214l325 466q-62 40 -139 40q-114 0 -191.5 -84.5t-77.5 -207.5zM407 58
q115 0 191.5 84t76.5 208q0 131 -84 215l-326 -465q64 -42 142 -42z" />
    <glyph glyph-name="Ugrave" unicode="&#xd9;" horiz-adv-x="693" 
d="M328 898l60 -134h-51l-97 134h88zM613 700v-433q0 -132 -74.5 -204.5t-190.5 -72.5t-192 72.5t-76 204.5v433h73v-427q0 -104 55.5 -159t139.5 -55t138 55t54 159v427h73z" />
    <glyph glyph-name="Uacute" unicode="&#xda;" horiz-adv-x="693" 
d="M372 898h88l-97 -134h-51zM613 700v-433q0 -132 -74.5 -204.5t-190.5 -72.5t-192 72.5t-76 204.5v433h73v-427q0 -104 55.5 -159t139.5 -55t138 55t54 159v427h73z" />
    <glyph glyph-name="Ucircumflex" unicode="&#xdb;" horiz-adv-x="693" 
d="M276 771h-70l107 143h65l108 -143h-70l-67 94h-6zM613 700v-433q0 -132 -74.5 -204.5t-190.5 -72.5t-192 72.5t-76 204.5v433h73v-427q0 -104 55.5 -159t139.5 -55t138 55t54 159v427h73z" />
    <glyph glyph-name="Udieresis" unicode="&#xdc;" horiz-adv-x="693" 
d="M233 771q-21 0 -36.5 15.5t-15.5 36.5q0 22 15.5 37.5t36.5 15.5q22 0 37.5 -15.5t15.5 -37.5q0 -21 -15.5 -36.5t-37.5 -15.5zM461 771q-21 0 -36 15.5t-15 36.5q0 22 15 37.5t36 15.5t36.5 -15.5t15.5 -37.5q0 -21 -15.5 -36.5t-36.5 -15.5zM613 700v-433
q0 -132 -74.5 -204.5t-190.5 -72.5t-192 72.5t-76 204.5v433h73v-427q0 -104 55.5 -159t139.5 -55t138 55t54 159v427h73z" />
    <glyph glyph-name="Yacute" unicode="&#xdd;" horiz-adv-x="633" 
d="M342 898h88l-97 -134h-51zM520 700h87l-253 -359v-341h-74v341l-253 359h86l200 -282h7z" />
    <glyph glyph-name="Thorn" unicode="&#xde;" horiz-adv-x="605" 
d="M323 561q99 0 158.5 -57.5t59.5 -147.5q0 -97 -61 -152.5t-165 -55.5h-169v-148h-66v700h66v-139h177zM305 211q77 0 120.5 37.5t43.5 107.5q0 67 -43 104.5t-113 37.5h-167v-287h159z" />
    <glyph glyph-name="germandbls" unicode="&#xdf;" horiz-adv-x="554" 
d="M346 390q161 -42 161 -202q0 -91 -52 -144.5t-135 -53.5q-79 0 -130 45l29 47q46 -34 96 -34q54 0 91 38.5t37 106.5q0 79 -51 121.5t-136 42.5h-30v60h26q66 0 103.5 33t37.5 89q0 46 -33 79t-92 33q-54 0 -90.5 -44.5t-36.5 -125.5v-481h-66v482q0 106 53 167t142 61
q86 0 137.5 -47t51.5 -116q0 -65 -32 -99t-81 -53v-5z" />
    <glyph glyph-name="agrave" unicode="&#xe0;" horiz-adv-x="513" 
d="M286 555h-48l-93 128h84zM436 110q0 -30 11.5 -42t36.5 -12v-56h-12q-75 0 -91 68q-28 -36 -75 -57t-95 -21q-70 0 -116.5 35.5t-46.5 101.5q0 147 227 165l97 8v13q0 64 -30 103t-87 39q-54 0 -83.5 -31t-37.5 -76h-65q8 69 57 115.5t129 46.5q83 0 132 -52t49 -142
v-206zM216 47q63 0 109.5 38.5t46.5 112.5v49l-93 -8q-77 -6 -120.5 -34t-43.5 -74q0 -42 29 -63t72 -21z" />
    <glyph glyph-name="aacute" unicode="&#xe1;" horiz-adv-x="513" 
d="M374 683l-93 -128h-48l57 128h84zM436 110q0 -30 11.5 -42t36.5 -12v-56h-12q-75 0 -91 68q-28 -36 -75 -57t-95 -21q-70 0 -116.5 35.5t-46.5 101.5q0 147 227 165l97 8v13q0 64 -30 103t-87 39q-54 0 -83.5 -31t-37.5 -76h-65q8 69 57 115.5t129 46.5q83 0 132 -52
t49 -142v-206zM216 47q63 0 109.5 38.5t46.5 112.5v49l-93 -8q-77 -6 -120.5 -34t-43.5 -74q0 -42 29 -63t72 -21z" />
    <glyph glyph-name="acircumflex" unicode="&#xe2;" horiz-adv-x="513" 
d="M255 653l-64 -90h-67l103 137h62l104 -137h-67l-65 90h-6zM436 110q0 -30 11.5 -42t36.5 -12v-56h-12q-75 0 -91 68q-28 -36 -75 -57t-95 -21q-70 0 -116.5 35.5t-46.5 101.5q0 147 227 165l97 8v13q0 64 -30 103t-87 39q-54 0 -83.5 -31t-37.5 -76h-65q8 69 57 115.5
t129 46.5q83 0 132 -52t49 -142v-206zM216 47q63 0 109.5 38.5t46.5 112.5v49l-93 -8q-77 -6 -120.5 -34t-43.5 -74q0 -42 29 -63t72 -21z" />
    <glyph glyph-name="atilde" unicode="&#xe3;" horiz-adv-x="513" 
d="M199 609q-33 0 -52 -42l-43 20q7 26 31.5 50.5t63.5 24.5q33 0 68.5 -23t54.5 -23q34 0 52 41l43 -19q-6 -26 -31.5 -50.5t-63.5 -24.5q-33 0 -68.5 23t-54.5 23zM436 110q0 -30 11.5 -42t36.5 -12v-56h-12q-75 0 -91 68q-28 -36 -75 -57t-95 -21q-70 0 -116.5 35.5
t-46.5 101.5q0 147 227 165l97 8v13q0 64 -30 103t-87 39q-54 0 -83.5 -31t-37.5 -76h-65q8 69 57 115.5t129 46.5q83 0 132 -52t49 -142v-206zM216 47q63 0 109.5 38.5t46.5 112.5v49l-93 -8q-77 -6 -120.5 -34t-43.5 -74q0 -42 29 -63t72 -21z" />
    <glyph glyph-name="adieresis" unicode="&#xe4;" horiz-adv-x="513" 
d="M173 564q-19 0 -33 14t-14 34t14 34t33 14t33 -14t14 -34t-14 -34t-33 -14zM349 564q-19 0 -33 14.5t-14 33.5t14 33.5t33 14.5t33 -14t14 -34t-14 -34t-33 -14zM436 110q0 -30 11.5 -42t36.5 -12v-56h-12q-75 0 -91 68q-28 -36 -75 -57t-95 -21q-70 0 -116.5 35.5
t-46.5 101.5q0 147 227 165l97 8v13q0 64 -30 103t-87 39q-54 0 -83.5 -31t-37.5 -76h-65q8 69 57 115.5t129 46.5q83 0 132 -52t49 -142v-206zM216 47q63 0 109.5 38.5t46.5 112.5v49l-93 -8q-77 -6 -120.5 -34t-43.5 -74q0 -42 29 -63t72 -21z" />
    <glyph glyph-name="aring" unicode="&#xe5;" horiz-adv-x="513" 
d="M260 545q-38 0 -66 27.5t-28 65.5q0 37 28 64.5t66 27.5t66 -27.5t28 -64.5q0 -38 -28 -65.5t-66 -27.5zM261 686q-21 0 -35 -14t-14 -34q0 -21 14 -35.5t35 -14.5q20 0 33.5 14.5t13.5 35.5q0 20 -14 34t-33 14zM436 110q0 -30 11.5 -42t36.5 -12v-56h-12q-75 0 -91 68
q-28 -36 -75 -57t-95 -21q-70 0 -116.5 35.5t-46.5 101.5q0 147 227 165l97 8v13q0 64 -30 103t-87 39q-54 0 -83.5 -31t-37.5 -76h-65q8 69 57 115.5t129 46.5q83 0 132 -52t49 -142v-206zM216 47q63 0 109.5 38.5t46.5 112.5v49l-93 -8q-77 -6 -120.5 -34t-43.5 -74
q0 -42 29 -63t72 -21z" />
    <glyph glyph-name="ae" unicode="&#xe6;" horiz-adv-x="874" 
d="M605 510q103 0 165 -70.5t55 -200.5h-388q4 -86 48 -137.5t127 -51.5q48 0 86.5 22.5t56.5 66.5h67q-20 -72 -78 -110.5t-133 -38.5q-145 0 -207 117q-21 -52 -76 -84.5t-117 -32.5q-70 0 -116.5 35.5t-46.5 101.5q0 80 55.5 122.5t167.5 42.5h101v21q0 64 -30 103
t-87 39q-54 0 -83.5 -31t-37.5 -76h-65q8 69 57 115.5t129 46.5q118 0 162 -98q66 98 188 98zM440 293h320q-2 68 -43 114t-112 46q-67 0 -111 -44t-54 -116zM216 47q63 0 109.5 38.5t46.5 112.5v41h-103q-79 0 -116.5 -29.5t-37.5 -78.5q0 -42 29 -63t72 -21z" />
    <glyph glyph-name="ccedilla" unicode="&#xe7;" horiz-adv-x="562" 
d="M514 169q-10 -76 -68.5 -125t-141.5 -54l-22 -36q37 8 69.5 -15.5t32.5 -66.5q0 -38 -25.5 -60t-71.5 -22q-42 0 -67 20t-32 40l32 21q26 -41 66 -41q23 0 38 12.5t15 33.5q0 46 -61 46q-19 0 -39 -10l-19 24l35 56q-99 12 -153 83t-54 175q0 109 69 184.5t173 75.5
q91 0 152.5 -53.5t69.5 -133.5h-67q-10 54 -51 90t-106 36q-77 0 -125 -57.5t-48 -142.5q0 -88 45 -144t132 -56q59 0 100 33.5t54 86.5h68z" />
    <glyph glyph-name="egrave" unicode="&#xe8;" horiz-adv-x="550" 
d="M305 555h-48l-93 128h84zM281 510q103 0 165 -70.5t55 -200.5h-388q4 -86 48 -137.5t127 -51.5q48 0 86.5 22.5t56.5 66.5h67q-20 -72 -78 -110.5t-133 -38.5q-111 0 -175 71t-64 193q0 111 65.5 183.5t167.5 72.5zM116 293h320q-2 68 -43 114t-112 46q-67 0 -111 -44
t-54 -116z" />
    <glyph glyph-name="eacute" unicode="&#xe9;" horiz-adv-x="550" 
d="M393 683l-93 -128h-48l57 128h84zM281 510q103 0 165 -70.5t55 -200.5h-388q4 -86 48 -137.5t127 -51.5q48 0 86.5 22.5t56.5 66.5h67q-20 -72 -78 -110.5t-133 -38.5q-111 0 -175 71t-64 193q0 111 65.5 183.5t167.5 72.5zM116 293h320q-2 68 -43 114t-112 46
q-67 0 -111 -44t-54 -116z" />
    <glyph glyph-name="ecircumflex" unicode="&#xea;" horiz-adv-x="550" 
d="M274 653l-64 -90h-67l103 137h62l104 -137h-67l-65 90h-6zM281 510q103 0 165 -70.5t55 -200.5h-388q4 -86 48 -137.5t127 -51.5q48 0 86.5 22.5t56.5 66.5h67q-20 -72 -78 -110.5t-133 -38.5q-111 0 -175 71t-64 193q0 111 65.5 183.5t167.5 72.5zM116 293h320
q-2 68 -43 114t-112 46q-67 0 -111 -44t-54 -116z" />
    <glyph glyph-name="edieresis" unicode="&#xeb;" horiz-adv-x="550" 
d="M192 564q-19 0 -33 14t-14 34t14 34t33 14t33 -14t14 -34t-14 -34t-33 -14zM368 564q-19 0 -33 14.5t-14 33.5t14 33.5t33 14.5t33 -14t14 -34t-14 -34t-33 -14zM281 510q103 0 165 -70.5t55 -200.5h-388q4 -86 48 -137.5t127 -51.5q48 0 86.5 22.5t56.5 66.5h67
q-20 -72 -78 -110.5t-133 -38.5q-111 0 -175 71t-64 193q0 111 65.5 183.5t167.5 72.5zM116 293h320q-2 68 -43 114t-112 46q-67 0 -111 -44t-54 -116z" />
    <glyph glyph-name="igrave" unicode="&#xec;" horiz-adv-x="217" 
d="M78 683l57 -128h-48l-93 128h84zM143 500v-500h-68v500h68z" />
    <glyph glyph-name="iacute" unicode="&#xed;" horiz-adv-x="217" 
d="M139 683h84l-93 -128h-48zM143 500v-500h-68v500h68z" />
    <glyph glyph-name="icircumflex" unicode="&#xee;" horiz-adv-x="217" 
d="M40 563h-67l103 137h62l104 -137h-67l-65 90h-6zM143 500v-500h-68v500h68z" />
    <glyph glyph-name="idieresis" unicode="&#xef;" horiz-adv-x="217" 
d="M22 564q-19 0 -33 14t-14 34t14 34t33 14t33 -14t14 -34t-14 -34t-33 -14zM198 564q-19 0 -33 14.5t-14 33.5t14 33.5t33 14.5t33 -14t14 -34t-14 -34t-33 -14zM143 500v-500h-68v500h68z" />
    <glyph glyph-name="eth" unicode="&#xf0;" horiz-adv-x="592" 
d="M414 626q113 -99 113 -313q0 -166 -68 -244.5t-180 -78.5q-107 0 -169 70.5t-62 189.5q0 113 67.5 186.5t168.5 73.5q121 0 173 -106q-19 132 -104 194l-135 -63l-17 40l105 49q-53 22 -124 22h-16v54h21q109 0 187 -45l118 54l15 -40zM284 52q76 0 125 55.5t49 142.5
q0 88 -49.5 144t-127.5 56q-74 0 -120.5 -57.5t-46.5 -142.5q0 -90 44 -144t126 -54z" />
    <glyph glyph-name="ntilde" unicode="&#xf1;" horiz-adv-x="545" 
d="M430 638q-6 -26 -31.5 -50.5t-63.5 -24.5q-33 0 -68.5 23t-54.5 23q-33 0 -52 -42l-43 20q7 26 31.5 50.5t63.5 24.5q33 0 68.5 -23t54.5 -23q34 0 52 41zM297 510q78 0 128 -53.5t50 -149.5v-307h-68v292q0 77 -36 116.5t-96 39.5q-54 0 -92 -37.5t-38 -111.5v-299h-70
v500h49l13 -64h6q50 74 154 74z" />
    <glyph glyph-name="ograve" unicode="&#xf2;" horiz-adv-x="591" 
d="M264 683l57 -128h-48l-93 128h84zM296 -10q-109 0 -178.5 74.5t-69.5 186.5q0 111 68.5 185t177.5 74q108 0 178.5 -74.5t70.5 -186.5q0 -111 -69 -185t-178 -74zM295 51q79 0 129.5 58t50.5 141t-51 141t-130 58q-78 0 -128 -58t-50 -141t49.5 -141t129.5 -58z" />
    <glyph glyph-name="oacute" unicode="&#xf3;" horiz-adv-x="591" 
d="M325 683h84l-93 -128h-48zM296 -10q-109 0 -178.5 74.5t-69.5 186.5q0 111 68.5 185t177.5 74q108 0 178.5 -74.5t70.5 -186.5q0 -111 -69 -185t-178 -74zM295 51q79 0 129.5 58t50.5 141t-51 141t-130 58q-78 0 -128 -58t-50 -141t49.5 -141t129.5 -58z" />
    <glyph glyph-name="ocircumflex" unicode="&#xf4;" horiz-adv-x="591" 
d="M226 563h-67l103 137h62l104 -137h-67l-65 90h-6zM296 -10q-109 0 -178.5 74.5t-69.5 186.5q0 111 68.5 185t177.5 74q108 0 178.5 -74.5t70.5 -186.5q0 -111 -69 -185t-178 -74zM295 51q79 0 129.5 58t50.5 141t-51 141t-130 58q-78 0 -128 -58t-50 -141t49.5 -141
t129.5 -58z" />
    <glyph glyph-name="otilde" unicode="&#xf5;" horiz-adv-x="591" 
d="M452 638q-6 -26 -31.5 -50.5t-63.5 -24.5q-33 0 -68.5 23t-54.5 23q-33 0 -52 -42l-43 20q7 26 31.5 50.5t63.5 24.5q33 0 68.5 -23t54.5 -23q34 0 52 41zM296 -10q-109 0 -178.5 74.5t-69.5 186.5q0 111 68.5 185t177.5 74q108 0 178.5 -74.5t70.5 -186.5
q0 -111 -69 -185t-178 -74zM295 51q79 0 129.5 58t50.5 141t-51 141t-130 58q-78 0 -128 -58t-50 -141t49.5 -141t129.5 -58z" />
    <glyph glyph-name="odieresis" unicode="&#xf6;" horiz-adv-x="591" 
d="M208 564q-19 0 -33 14t-14 34t14 34t33 14t33 -14t14 -34t-14 -34t-33 -14zM384 564q-19 0 -33 14.5t-14 33.5t14 33.5t33 14.5t33 -14t14 -34t-14 -34t-33 -14zM296 -10q-109 0 -178.5 74.5t-69.5 186.5q0 111 68.5 185t177.5 74q108 0 178.5 -74.5t70.5 -186.5
q0 -111 -69 -185t-178 -74zM295 51q79 0 129.5 58t50.5 141t-51 141t-130 58q-78 0 -128 -58t-50 -141t49.5 -141t129.5 -58z" />
    <glyph glyph-name="divide" unicode="&#xf7;" horiz-adv-x="536" 
d="M271 401q-22 0 -37.5 15.5t-15.5 35.5q0 22 15.5 37t37.5 15q20 0 35 -15t15 -37q0 -20 -15 -35.5t-35 -15.5zM39 309h458v-58h-458v58zM270 43q-22 0 -37.5 15.5t-15.5 35.5q0 22 15.5 37t37.5 15q20 0 35 -15t15 -37q0 -20 -15 -35.5t-35 -15.5z" />
    <glyph glyph-name="oslash" unicode="&#xf8;" horiz-adv-x="591" 
d="M469 439q74 -74 74 -190q0 -111 -69 -185t-178 -74q-71 0 -130 35l-28 -38l-45 32l29 40q-74 74 -74 192q0 111 68.5 185t177.5 74q73 0 132 -36l29 40l45 -32zM116 250q0 -78 46 -137l226 309q-43 27 -94 27q-78 0 -128 -58t-50 -141zM295 51q79 0 129.5 58t50.5 141
q0 78 -46 135l-225 -308q38 -26 91 -26z" />
    <glyph glyph-name="ugrave" unicode="&#xf9;" horiz-adv-x="545" 
d="M239 683l57 -128h-48l-93 128h84zM249 -10q-78 0 -128 53.5t-50 149.5v307h69v-292q0 -77 35.5 -116.5t95.5 -39.5q54 0 92 37.5t38 111.5v299h69v-500h-49l-12 64h-7q-50 -74 -153 -74z" />
    <glyph glyph-name="uacute" unicode="&#xfa;" horiz-adv-x="545" 
d="M300 683h84l-93 -128h-48zM249 -10q-78 0 -128 53.5t-50 149.5v307h69v-292q0 -77 35.5 -116.5t95.5 -39.5q54 0 92 37.5t38 111.5v299h69v-500h-49l-12 64h-7q-50 -74 -153 -74z" />
    <glyph glyph-name="ucircumflex" unicode="&#xfb;" horiz-adv-x="545" 
d="M201 563h-67l103 137h62l104 -137h-67l-65 90h-6zM249 -10q-78 0 -128 53.5t-50 149.5v307h69v-292q0 -77 35.5 -116.5t95.5 -39.5q54 0 92 37.5t38 111.5v299h69v-500h-49l-12 64h-7q-50 -74 -153 -74z" />
    <glyph glyph-name="udieresis" unicode="&#xfc;" horiz-adv-x="545" 
d="M183 564q-19 0 -33 14t-14 34t14 34t33 14t33 -14t14 -34t-14 -34t-33 -14zM359 564q-19 0 -33 14.5t-14 33.5t14 33.5t33 14.5t33 -14t14 -34t-14 -34t-33 -14zM249 -10q-78 0 -128 53.5t-50 149.5v307h69v-292q0 -77 35.5 -116.5t95.5 -39.5q54 0 92 37.5t38 111.5v299
h69v-500h-49l-12 64h-7q-50 -74 -153 -74z" />
    <glyph glyph-name="yacute" unicode="&#xfd;" horiz-adv-x="540" 
d="M301 683h84l-93 -128h-48zM434 500h70l-199 -579q-22 -63 -57.5 -97t-97.5 -34q-70 0 -106 41l29 48q36 -30 75 -30q64 0 95 92l21 59h-28l-199 500h74l168 -431h7z" />
    <glyph glyph-name="thorn" unicode="&#xfe;" 
d="M314 510q99 0 163 -73t64 -187t-65 -187t-165 -73q-122 0 -169 97v-287h-67v910h65v-283h9q60 83 165 83zM305 51q75 0 122.5 55.5t47.5 143.5t-47.5 143.5t-122.5 55.5q-73 0 -118 -55t-45 -144t45 -144t118 -55z" />
    <glyph glyph-name="ydieresis" unicode="&#xff;" horiz-adv-x="540" 
d="M184 564q-19 0 -33 14t-14 34t14 34t33 14t33 -14t14 -34t-14 -34t-33 -14zM360 564q-19 0 -33 14.5t-14 33.5t14 33.5t33 14.5t33 -14t14 -34t-14 -34t-33 -14zM434 500h70l-199 -579q-22 -63 -57.5 -97t-97.5 -34q-70 0 -106 41l29 48q36 -30 75 -30q64 0 95 92l21 59
h-28l-199 500h74l168 -431h7z" />
    <glyph glyph-name="Amacron" unicode="&#x100;" horiz-adv-x="629" 
d="M466 827v-55h-303v55h303zM527 0l-65 193h-295l-65 -193h-75l241 700h93l241 -700h-75zM188 256h252l-123 364h-6z" />
    <glyph glyph-name="amacron" unicode="&#x101;" horiz-adv-x="513" 
d="M405 639v-52h-289v52h289zM436 110q0 -30 11.5 -42t36.5 -12v-56h-12q-75 0 -91 68q-28 -36 -75 -57t-95 -21q-70 0 -116.5 35.5t-46.5 101.5q0 147 227 165l97 8v13q0 64 -30 103t-87 39q-54 0 -83.5 -31t-37.5 -76h-65q8 69 57 115.5t129 46.5q83 0 132 -52t49 -142
v-206zM216 47q63 0 109.5 38.5t46.5 112.5v49l-93 -8q-77 -6 -120.5 -34t-43.5 -74q0 -42 29 -63t72 -21z" />
    <glyph glyph-name="Abreve" unicode="&#x102;" horiz-adv-x="629" 
d="M315 764q-59 0 -95 37t-36 84h60q0 -32 19.5 -52t51.5 -20q33 0 52 20t19 52h60q0 -47 -36 -84t-95 -37zM527 0l-65 193h-295l-65 -193h-75l241 700h93l241 -700h-75zM188 256h252l-123 364h-6z" />
    <glyph glyph-name="abreve" unicode="&#x103;" horiz-adv-x="513" 
d="M259 574q-57 0 -91 35.5t-34 80.5h57q0 -30 19 -49.5t49 -19.5q31 0 49 19t18 50h57q0 -45 -33.5 -80.5t-90.5 -35.5zM436 110q0 -30 11.5 -42t36.5 -12v-56h-12q-75 0 -91 68q-28 -36 -75 -57t-95 -21q-70 0 -116.5 35.5t-46.5 101.5q0 147 227 165l97 8v13
q0 64 -30 103t-87 39q-54 0 -83.5 -31t-37.5 -76h-65q8 69 57 115.5t129 46.5q83 0 132 -52t49 -142v-206zM216 47q63 0 109.5 38.5t46.5 112.5v49l-93 -8q-77 -6 -120.5 -34t-43.5 -74q0 -42 29 -63t72 -21z" />
    <glyph glyph-name="Aogonek" unicode="&#x104;" horiz-adv-x="629" 
d="M526 -84q0 -27 19.5 -41.5t44 -12.5t47.5 11v-51q-20 -10 -54 -10q-45 0 -77 25.5t-32 69.5q0 59 68 93h-15l-65 193h-295l-65 -193h-75l241 700h93l241 -700q-32 -12 -54 -36t-22 -48zM188 256h252l-123 364h-6z" />
    <glyph glyph-name="aogonek" unicode="&#x105;" horiz-adv-x="513" 
d="M411 -81q0 -38 38 -48.5t68 7.5v-49q-18 -10 -51 -10q-44 0 -74.5 24.5t-30.5 67.5q0 61 76 93q-45 14 -56 64q-28 -36 -75 -57t-95 -21q-70 0 -116.5 35.5t-46.5 101.5q0 147 227 165l97 8v13q0 64 -30 103t-87 39q-54 0 -83.5 -31t-37.5 -76h-65q8 69 57 115.5
t129 46.5q83 0 132 -52t49 -142v-206q0 -30 11.5 -42t36.5 -12v-56q-31 -11 -52 -34t-21 -47zM216 47q63 0 109.5 38.5t46.5 112.5v49l-93 -8q-77 -6 -120.5 -34t-43.5 -74q0 -42 29 -63t72 -21z" />
    <glyph glyph-name="Cacute" unicode="&#x106;" horiz-adv-x="744" 
d="M418 898h88l-97 -134h-51zM684 207q-21 -96 -101.5 -156.5t-187.5 -60.5q-148 0 -239.5 100t-91.5 259q0 155 89.5 258t231.5 103q109 0 188 -58t100 -164h-73q-20 72 -76 113.5t-138 41.5q-110 0 -179 -85.5t-69 -206.5q0 -131 70 -213t188 -82q75 0 134 42t81 109h73z
" />
    <glyph glyph-name="cacute" unicode="&#x107;" horiz-adv-x="562" 
d="M316 683h84l-93 -128h-48zM514 169q-11 -79 -73 -129t-150 -50q-116 0 -179.5 73.5t-63.5 186.5q0 109 69 184.5t173 75.5q91 0 152.5 -53.5t69.5 -133.5h-67q-10 54 -51 90t-106 36q-77 0 -125 -57.5t-48 -142.5q0 -88 45 -144t132 -56q59 0 100 33.5t54 86.5h68z" />
    <glyph glyph-name="Ccircumflex" unicode="&#x108;" horiz-adv-x="744" 
d="M322 771h-70l107 143h65l108 -143h-70l-67 94h-6zM684 207q-21 -96 -101.5 -156.5t-187.5 -60.5q-148 0 -239.5 100t-91.5 259q0 155 89.5 258t231.5 103q109 0 188 -58t100 -164h-73q-20 72 -76 113.5t-138 41.5q-110 0 -179 -85.5t-69 -206.5q0 -131 70 -213t188 -82
q75 0 134 42t81 109h73z" />
    <glyph glyph-name="ccircumflex" unicode="&#x109;" horiz-adv-x="562" 
d="M217 563h-67l103 137h62l104 -137h-67l-65 90h-6zM514 169q-11 -79 -73 -129t-150 -50q-116 0 -179.5 73.5t-63.5 186.5q0 109 69 184.5t173 75.5q91 0 152.5 -53.5t69.5 -133.5h-67q-10 54 -51 90t-106 36q-77 0 -125 -57.5t-48 -142.5q0 -88 45 -144t132 -56
q59 0 100 33.5t54 86.5h68z" />
    <glyph glyph-name="Cdotaccent" unicode="&#x10a;" horiz-adv-x="744" 
d="M389 784q-23 0 -39 15.5t-16 38.5q0 22 16 37t39 15t38.5 -15t15.5 -37q0 -23 -15.5 -38.5t-38.5 -15.5zM684 207q-21 -96 -101.5 -156.5t-187.5 -60.5q-148 0 -239.5 100t-91.5 259q0 155 89.5 258t231.5 103q109 0 188 -58t100 -164h-73q-20 72 -76 113.5t-138 41.5
q-110 0 -179 -85.5t-69 -206.5q0 -131 70 -213t188 -82q75 0 134 42t81 109h73z" />
    <glyph glyph-name="cdotaccent" unicode="&#x10b;" horiz-adv-x="562" 
d="M286 587q-21 0 -35.5 14t-14.5 35q0 20 15 34t35 14t34.5 -14t14.5 -34q0 -21 -14.5 -35t-34.5 -14zM514 169q-11 -79 -73 -129t-150 -50q-116 0 -179.5 73.5t-63.5 186.5q0 109 69 184.5t173 75.5q91 0 152.5 -53.5t69.5 -133.5h-67q-10 54 -51 90t-106 36
q-77 0 -125 -57.5t-48 -142.5q0 -88 45 -144t132 -56q59 0 100 33.5t54 86.5h68z" />
    <glyph glyph-name="Ccaron" unicode="&#x10c;" horiz-adv-x="744" 
d="M464 904h70l-107 -143h-65l-108 143h70l67 -94h6zM684 207q-21 -96 -101.5 -156.5t-187.5 -60.5q-148 0 -239.5 100t-91.5 259q0 155 89.5 258t231.5 103q109 0 188 -58t100 -164h-73q-20 72 -76 113.5t-138 41.5q-110 0 -179 -85.5t-69 -206.5q0 -131 70 -213t188 -82
q75 0 134 42t81 109h73z" />
    <glyph glyph-name="ccaron" unicode="&#x10d;" horiz-adv-x="562" 
d="M353 700h67l-103 -137h-62l-104 137h67l65 -90h6zM514 169q-11 -79 -73 -129t-150 -50q-116 0 -179.5 73.5t-63.5 186.5q0 109 69 184.5t173 75.5q91 0 152.5 -53.5t69.5 -133.5h-67q-10 54 -51 90t-106 36q-77 0 -125 -57.5t-48 -142.5q0 -88 45 -144t132 -56
q59 0 100 33.5t54 86.5h68z" />
    <glyph glyph-name="Dcaron" unicode="&#x10e;" horiz-adv-x="682" 
d="M395 904h70l-107 -143h-65l-108 143h70l67 -94h6zM273 700q170 0 257.5 -94.5t87.5 -251.5q0 -162 -85.5 -258t-259.5 -96h-193v700h193zM271 66q141 0 208.5 78t67.5 212q0 124 -67.5 201t-208.5 77h-121v-568h121z" />
    <glyph glyph-name="dcaron" unicode="&#x10f;" 
d="M446 415v297h68v-712h-48l-15 78h-8q-59 -88 -168 -88q-99 0 -163 73t-64 187t65 187t165 73q121 0 168 -95zM592 700h68l-36 -180h-46zM284 51q73 0 118 55t45 144t-45 144t-118 55q-75 0 -122.5 -55.5t-47.5 -143.5t47.5 -143.5t122.5 -55.5z" />
    <glyph glyph-name="Dcroat" unicode="&#x110;" horiz-adv-x="682" 
d="M273 700q170 0 257.5 -94.5t87.5 -251.5q0 -162 -85.5 -258t-259.5 -96h-193v327h-117v55h117v318h193zM271 66q141 0 208.5 78t67.5 212q0 124 -67.5 201t-208.5 77h-121v-252h179v-55h-179v-261h121z" />
    <glyph glyph-name="dcroat" unicode="&#x111;" 
d="M601 632v-51h-87v-581h-48l-15 78h-8q-59 -88 -168 -88q-99 0 -163 73t-64 187t65 187t165 73q121 0 168 -95v166h-127v51h127v80h68v-80h87zM284 51q73 0 118 55t45 144t-45 144t-118 55q-75 0 -122.5 -55.5t-47.5 -143.5t47.5 -143.5t122.5 -55.5z" />
    <glyph glyph-name="Emacron" unicode="&#x112;" horiz-adv-x="559" 
d="M144 827h303v-55h-303v55zM148 65h373v-65h-441v700h431v-65h-363v-249h324v-63h-324v-258z" />
    <glyph glyph-name="emacron" unicode="&#x113;" horiz-adv-x="550" 
d="M424 639v-52h-289v52h289zM281 510q103 0 165 -70.5t55 -200.5h-388q4 -86 48 -137.5t127 -51.5q48 0 86.5 22.5t56.5 66.5h67q-20 -72 -78 -110.5t-133 -38.5q-111 0 -175 71t-64 193q0 111 65.5 183.5t167.5 72.5zM116 293h320q-2 68 -43 114t-112 46q-67 0 -111 -44
t-54 -116z" />
    <glyph glyph-name="Ebreve" unicode="&#x114;" horiz-adv-x="559" 
d="M427 885q0 -47 -36 -84t-95 -37t-95 37t-36 84h60q0 -32 19.5 -52t51.5 -20q33 0 52 20t19 52h60zM148 65h373v-65h-441v700h431v-65h-363v-249h324v-63h-324v-258z" />
    <glyph glyph-name="ebreve" unicode="&#x115;" horiz-adv-x="550" 
d="M278 574q-57 0 -91 35.5t-34 80.5h57q0 -30 19 -49.5t49 -19.5q31 0 49 19t18 50h57q0 -45 -33.5 -80.5t-90.5 -35.5zM281 510q103 0 165 -70.5t55 -200.5h-388q4 -86 48 -137.5t127 -51.5q48 0 86.5 22.5t56.5 66.5h67q-20 -72 -78 -110.5t-133 -38.5q-111 0 -175 71
t-64 193q0 111 65.5 183.5t167.5 72.5zM116 293h320q-2 68 -43 114t-112 46q-67 0 -111 -44t-54 -116z" />
    <glyph glyph-name="Edotaccent" unicode="&#x116;" horiz-adv-x="559" 
d="M292 784q-23 0 -39 15.5t-16 38.5q0 22 16 37t39 15t38.5 -15t15.5 -37q0 -23 -15.5 -38.5t-38.5 -15.5zM148 65h373v-65h-441v700h431v-65h-363v-249h324v-63h-324v-258z" />
    <glyph glyph-name="edotaccent" unicode="&#x117;" horiz-adv-x="550" 
d="M279 587q-21 0 -35.5 14t-14.5 35q0 20 15 34t35 14t34.5 -14t14.5 -34q0 -21 -14.5 -35t-34.5 -14zM281 510q103 0 165 -70.5t55 -200.5h-388q4 -86 48 -137.5t127 -51.5q48 0 86.5 22.5t56.5 66.5h67q-20 -72 -78 -110.5t-133 -38.5q-111 0 -175 71t-64 193
q0 111 65.5 183.5t167.5 72.5zM116 293h320q-2 68 -43 114t-112 46q-67 0 -111 -44t-54 -116z" />
    <glyph glyph-name="Eogonek" unicode="&#x118;" horiz-adv-x="559" 
d="M445 -85q0 -27 19.5 -41.5t44 -12.5t47.5 11v-51q-20 -10 -54 -10q-45 0 -77 25.5t-32 69.5q0 60 70 94h-383v700h431v-65h-363v-249h324v-63h-324v-258h373v-65h-2l2 -1q-32 -12 -54 -36t-22 -48z" />
    <glyph glyph-name="eogonek" unicode="&#x119;" horiz-adv-x="550" 
d="M281 510q103 0 165 -70.5t55 -200.5h-387q3 -86 47.5 -137.5t126.5 -51.5q48 0 86.5 22.5t56.5 66.5h67q-27 -103 -132 -137q-30 -11 -50 -34.5t-20 -45.5q0 -40 38 -51t68 7v-49q-18 -10 -51 -10q-44 0 -74.5 24t-30.5 66q0 52 50 82q-5 -1 -14 -1q-109 0 -171.5 71.5
t-62.5 192.5q0 111 65.5 183.5t167.5 72.5zM117 293h319q-2 68 -43 114t-112 46q-67 0 -111 -44.5t-53 -115.5z" />
    <glyph glyph-name="Ecaron" unicode="&#x11a;" horiz-adv-x="559" 
d="M367 904h70l-107 -143h-65l-108 143h70l67 -94h6zM148 65h373v-65h-441v700h431v-65h-363v-249h324v-63h-324v-258z" />
    <glyph glyph-name="ecaron" unicode="&#x11b;" horiz-adv-x="550" 
d="M310 563h-62l-104 137h67l65 -90h6l64 90h67zM281 510q103 0 165 -70.5t55 -200.5h-388q4 -86 48 -137.5t127 -51.5q48 0 86.5 22.5t56.5 66.5h67q-20 -72 -78 -110.5t-133 -38.5q-111 0 -175 71t-64 193q0 111 65.5 183.5t167.5 72.5zM116 293h320q-2 68 -43 114
t-112 46q-67 0 -111 -44t-54 -116z" />
    <glyph glyph-name="Gcircumflex" unicode="&#x11c;" horiz-adv-x="742" 
d="M305 771h-70l107 143h65l108 -143h-70l-67 94h-6zM359 355h299v-355h-46l-14 79h-6q-92 -89 -220 -89q-145 0 -226.5 96.5t-81.5 246.5q0 164 88.5 270.5t227.5 106.5q120 0 190.5 -59t88.5 -155h-73q-17 63 -67.5 105t-135.5 42q-109 0 -178 -86t-69 -219
q0 -124 64 -203.5t183 -79.5q67 0 120.5 29.5t84.5 66.5v144h-229v60z" />
    <glyph glyph-name="gcircumflex" unicode="&#x11d;" horiz-adv-x="525" 
d="M254 653l-64 -90h-67l103 137h62l104 -137h-67l-65 90h-6zM489 489q-28 -33 -79 -57q27 -43 27 -98q0 -74 -51.5 -120t-130.5 -46q-48 0 -90 20q-40 -22 -40 -51q0 -51 85 -51h87q83 0 128.5 -37t45.5 -106q0 -71 -56.5 -112t-149.5 -41q-105 0 -162 53t-55 129l83 66
q-70 22 -70 87q0 58 64 90q-51 48 -51 121q0 77 50 125.5t129 48.5q74 0 124 -41q38 21 74 68zM257 220q51 0 82.5 34t31.5 85q0 52 -31.5 86t-81.5 34q-52 0 -85 -34t-33 -86q0 -50 33 -84.5t84 -34.5zM404 -56q0 45 -32.5 66t-82.5 21h-85l-90 -71q7 -49 44 -80.5
t110 -31.5q60 0 98 24.5t38 71.5z" />
    <glyph glyph-name="Gbreve" unicode="&#x11e;" horiz-adv-x="742" 
d="M507 885q0 -47 -36 -84t-95 -37t-95 37t-36 84h60q0 -32 19.5 -52t51.5 -20q33 0 52 20t19 52h60zM359 355h299v-355h-46l-14 79h-6q-92 -89 -220 -89q-145 0 -226.5 96.5t-81.5 246.5q0 164 88.5 270.5t227.5 106.5q120 0 190.5 -59t88.5 -155h-73q-17 63 -67.5 105
t-135.5 42q-109 0 -178 -86t-69 -219q0 -124 64 -203.5t183 -79.5q67 0 120.5 29.5t84.5 66.5v144h-229v60z" />
    <glyph glyph-name="gbreve" unicode="&#x11f;" horiz-adv-x="525" 
d="M258 574q-57 0 -91 35.5t-34 80.5h57q0 -30 19 -49.5t49 -19.5q31 0 49 19t18 50h57q0 -45 -33.5 -80.5t-90.5 -35.5zM489 489q-28 -33 -79 -57q27 -43 27 -98q0 -74 -51.5 -120t-130.5 -46q-48 0 -90 20q-40 -22 -40 -51q0 -51 85 -51h87q83 0 128.5 -37t45.5 -106
q0 -71 -56.5 -112t-149.5 -41q-105 0 -162 53t-55 129l83 66q-70 22 -70 87q0 58 64 90q-51 48 -51 121q0 77 50 125.5t129 48.5q74 0 124 -41q38 21 74 68zM257 220q51 0 82.5 34t31.5 85q0 52 -31.5 86t-81.5 34q-52 0 -85 -34t-33 -86q0 -50 33 -84.5t84 -34.5zM404 -56
q0 45 -32.5 66t-82.5 21h-85l-90 -71q7 -49 44 -80.5t110 -31.5q60 0 98 24.5t38 71.5z" />
    <glyph glyph-name="Gdotaccent" unicode="&#x120;" horiz-adv-x="742" 
d="M372 784q-23 0 -39 15.5t-16 38.5q0 22 16 37t39 15t38.5 -15t15.5 -37q0 -23 -15.5 -38.5t-38.5 -15.5zM359 355h299v-355h-46l-14 79h-6q-92 -89 -220 -89q-145 0 -226.5 96.5t-81.5 246.5q0 164 88.5 270.5t227.5 106.5q120 0 190.5 -59t88.5 -155h-73
q-17 63 -67.5 105t-135.5 42q-109 0 -178 -86t-69 -219q0 -124 64 -203.5t183 -79.5q67 0 120.5 29.5t84.5 66.5v144h-229v60z" />
    <glyph glyph-name="gdotaccent" unicode="&#x121;" horiz-adv-x="525" 
d="M259 587q-21 0 -35.5 14t-14.5 35q0 20 15 34t35 14t34.5 -14t14.5 -34q0 -21 -14.5 -35t-34.5 -14zM489 489q-28 -33 -79 -57q27 -43 27 -98q0 -74 -51.5 -120t-130.5 -46q-48 0 -90 20q-40 -22 -40 -51q0 -51 85 -51h87q83 0 128.5 -37t45.5 -106q0 -71 -56.5 -112
t-149.5 -41q-105 0 -162 53t-55 129l83 66q-70 22 -70 87q0 58 64 90q-51 48 -51 121q0 77 50 125.5t129 48.5q74 0 124 -41q38 21 74 68zM257 220q51 0 82.5 34t31.5 85q0 52 -31.5 86t-81.5 34q-52 0 -85 -34t-33 -86q0 -50 33 -84.5t84 -34.5zM404 -56q0 45 -32.5 66
t-82.5 21h-85l-90 -71q7 -49 44 -80.5t110 -31.5q60 0 98 24.5t38 71.5z" />
    <glyph glyph-name="Gcommaaccent" unicode="&#x122;" horiz-adv-x="742" 
d="M359 355h299v-355h-46l-14 79h-6q-92 -89 -220 -89q-145 0 -226.5 96.5t-81.5 246.5q0 164 88.5 270.5t227.5 106.5q120 0 190.5 -59t88.5 -155h-73q-17 63 -67.5 105t-135.5 42q-109 0 -178 -86t-69 -219q0 -124 64 -203.5t183 -79.5q67 0 120.5 29.5t84.5 66.5v144
h-229v60zM376 -62q27 0 41 -20t14 -51q0 -49 -27 -86t-64 -56l-18 24q54 41 54 85q-23 -3 -38.5 11t-15.5 37q0 25 15 40.5t39 15.5z" />
    <glyph glyph-name="gcommaaccent" unicode="&#x123;" horiz-adv-x="525" 
d="M259 563q-26 0 -39.5 19t-13.5 49q0 47 26 82t61 54l18 -23q-52 -39 -52 -81q22 2 37 -11.5t15 -35.5q0 -23 -14.5 -38t-37.5 -15zM489 489q-28 -33 -79 -57q27 -43 27 -98q0 -74 -51.5 -120t-130.5 -46q-48 0 -90 20q-40 -22 -40 -51q0 -51 85 -51h87q83 0 128.5 -37
t45.5 -106q0 -71 -56.5 -112t-149.5 -41q-105 0 -162 53t-55 129l83 66q-70 22 -70 87q0 58 64 90q-51 48 -51 121q0 77 50 125.5t129 48.5q74 0 124 -41q38 21 74 68zM257 220q51 0 82.5 34t31.5 85q0 52 -31.5 86t-81.5 34q-52 0 -85 -34t-33 -86q0 -50 33 -84.5t84 -34.5
zM404 -56q0 45 -32.5 66t-82.5 21h-85l-90 -71q7 -49 44 -80.5t110 -31.5q60 0 98 24.5t38 71.5z" />
    <glyph glyph-name="Hcircumflex" unicode="&#x124;" horiz-adv-x="670" 
d="M264 771h-70l107 143h65l108 -143h-70l-67 94h-6zM520 700h70v-700h-70v321h-370v-321h-70v700h70v-314h370v314z" />
    <glyph glyph-name="hcircumflex" unicode="&#x125;" horiz-adv-x="557" 
d="M211 771h-70l107 143h65l108 -143h-70l-67 94h-6zM297 510q91 0 140.5 -55.5t49.5 -154.5v-300h-66v278q0 81 -36 125t-104 44q-54 0 -95 -40.5t-41 -107.5v-299h-70v710h70v-271h6q23 29 61.5 50t84.5 21z" />
    <glyph glyph-name="Hbar" unicode="&#x126;" horiz-adv-x="670" 
d="M520 700h70v-700h-70v321h-370v-321h-70v700h70v-129h370v129zM150 386h370v126h-370v-126z" />
    <glyph glyph-name="hbar" unicode="&#x127;" horiz-adv-x="557" 
d="M297 510q91 0 140.5 -55.5t49.5 -154.5v-300h-66v278q0 81 -36 125t-104 44q-54 0 -95 -40.5t-41 -107.5v-299h-70v581h-91v51h91v78h70v-78h121v-51h-121v-142h6q23 29 61.5 50t84.5 21z" />
    <glyph glyph-name="Itilde" unicode="&#x128;" horiz-adv-x="232" 
d="M280 850q-7 -27 -33.5 -53t-66.5 -26q-34 0 -72 24t-57 24q-33 0 -55 -44l-45 21q7 27 33 53t67 26q35 0 72 -24t57 -24q35 0 55 43zM152 700v-700h-72v700h72z" />
    <glyph glyph-name="itilde" unicode="&#x129;" horiz-adv-x="217" 
d="M266 638q-6 -26 -31.5 -50.5t-63.5 -24.5q-33 0 -68.5 23t-54.5 23q-33 0 -52 -42l-43 20q7 26 31.5 50.5t63.5 24.5q33 0 68.5 -23t54.5 -23q34 0 52 41zM143 500v-500h-68v500h68z" />
    <glyph glyph-name="Imacron" unicode="&#x12a;" horiz-adv-x="232" 
d="M-36 827h303v-55h-303v55zM152 700v-700h-72v700h72z" />
    <glyph glyph-name="imacron" unicode="&#x12b;" horiz-adv-x="217" 
d="M-35 639h289v-52h-289v52zM143 500v-500h-68v500h68z" />
    <glyph glyph-name="Ibreve" unicode="&#x12c;" horiz-adv-x="232" 
d="M247 885q0 -47 -36 -84t-95 -37t-95 37t-36 84h60q0 -32 19.5 -52t51.5 -20q33 0 52 20t19 52h60zM152 700v-700h-72v700h72z" />
    <glyph glyph-name="ibreve" unicode="&#x12d;" horiz-adv-x="217" 
d="M232 690q0 -45 -33.5 -80.5t-90.5 -35.5t-91 35.5t-34 80.5h57q0 -30 19 -49.5t49 -19.5q31 0 49 19t18 50h57zM143 500v-500h-68v500h68z" />
    <glyph glyph-name="Iogonek" unicode="&#x12e;" horiz-adv-x="232" 
d="M76 -84q0 -27 19.5 -41.5t44 -12.5t47.5 11v-51q-20 -10 -54 -10q-45 0 -77 25.5t-32 69.5q0 59 68 93h-12v700h72v-700q-32 -12 -54 -36t-22 -48z" />
    <glyph glyph-name="iogonek" unicode="&#x12f;" horiz-adv-x="217" 
d="M109 587q-21 0 -35.5 14t-14.5 35q0 20 15 34t35 14t34.5 -14t14.5 -34q0 -21 -14.5 -35t-34.5 -14zM71 -81q0 -38 38 -48.5t68 7.5v-49q-18 -10 -51 -10q-44 0 -74.5 24.5t-30.5 67.5q0 57 66 89h-12v500h68v-499l1 -1q-31 -11 -52 -34t-21 -47z" />
    <glyph glyph-name="Idotaccent" unicode="&#x130;" horiz-adv-x="232" 
d="M112 784q-23 0 -39 15.5t-16 38.5q0 22 16 37t39 15t38.5 -15t15.5 -37q0 -23 -15.5 -38.5t-38.5 -15.5zM152 700v-700h-72v700h72z" />
    <glyph glyph-name="dotlessi" unicode="&#x131;" horiz-adv-x="217" 
d="M143 500v-500h-68v500h68z" />
    <glyph glyph-name="IJ" unicode="&#x132;" horiz-adv-x="772" 
d="M152 700v-700h-72v700h72zM346 196q3 -60 39.5 -99.5t98.5 -39.5q58 0 97.5 40t39.5 117v486h71v-492q0 -104 -59 -161t-149 -57q-95 0 -150 57.5t-59 148.5h71z" />
    <glyph glyph-name="ij" unicode="&#x133;" horiz-adv-x="443" 
d="M109 587q-21 0 -35.5 14t-14.5 35q0 20 15 34t35 14t34.5 -14t14.5 -34q0 -21 -14.5 -35t-34.5 -14zM336 587q-21 0 -35.5 14t-14.5 35q0 20 15 34t35 14t34.5 -14t14.5 -34q0 -21 -14.5 -35t-34.5 -14zM143 500v-500h-68v500h68zM192 -125q27 -25 57 -25q53 0 53 69v581
h66v-589q0 -57 -31 -89t-81 -32q-56 0 -92 36z" />
    <glyph glyph-name="Jcircumflex" unicode="&#x134;" horiz-adv-x="534" 
d="M348 771h-70l107 143h65l108 -143h-70l-67 94h-6zM108 196q3 -60 39.5 -99.5t98.5 -39.5q58 0 97.5 40t39.5 117v486h71v-492q0 -104 -59 -161t-149 -57q-95 0 -150 57.5t-59 148.5h71z" />
    <glyph glyph-name="jcircumflex" unicode="&#x135;" horiz-adv-x="248" 
d="M71 563h-67l103 137h62l104 -137h-67l-65 90h-6zM-3 -125q27 -25 57 -25q53 0 53 69v581h66v-589q0 -57 -31 -89t-81 -32q-56 0 -92 36z" />
    <glyph glyph-name="Kcommaaccent" unicode="&#x136;" horiz-adv-x="596" 
d="M484 0l-281 325h-52v-325h-71v700h71v-306h52l255 306h87l-281 -337v-6l306 -357h-86zM299 -62q27 0 41 -20t14 -51q0 -49 -27 -86t-64 -56l-18 24q54 41 54 85q-23 -3 -38.5 11t-15.5 37q0 25 15 40.5t39 15.5z" />
    <glyph glyph-name="kcommaaccent" unicode="&#x137;" horiz-adv-x="510" 
d="M474 500l-203 -210l203 -290h-78l-172 242l-82 -85v-157h-67v710h67v-457h7l236 247h89zM269 -63q26 0 39.5 -19t13.5 -49q0 -47 -26 -82t-61 -54l-18 23q52 39 52 81q-22 -2 -37 11.5t-15 35.5q0 23 14.5 38t37.5 15z" />
    <glyph glyph-name="Lacute" unicode="&#x139;" horiz-adv-x="560" 
d="M142 898h88l-97 -134h-51zM153 68h370v-68h-442v700h72v-632z" />
    <glyph glyph-name="lacute" unicode="&#x13a;" horiz-adv-x="218" 
d="M223 883l-93 -128h-48l57 128h84zM75 0v710h68v-710h-68z" />
    <glyph glyph-name="Lcommaaccent" unicode="&#x13b;" horiz-adv-x="560" 
d="M153 68h370v-68h-442v700h72v-632zM302 -62q27 0 41 -20t14 -51q0 -49 -27 -86t-64 -56l-18 24q54 41 54 85q-23 -3 -38.5 11t-15.5 37q0 25 15 40.5t39 15.5z" />
    <glyph glyph-name="lcommaaccent" unicode="&#x13c;" horiz-adv-x="218" 
d="M143 710v-710h-68v710h68zM110 -63q26 0 39.5 -19t13.5 -49q0 -47 -26 -82t-61 -54l-18 23q52 39 52 81q-22 -2 -37 11.5t-15 35.5q0 23 14.5 38t37.5 15z" />
    <glyph glyph-name="Lcaron" unicode="&#x13d;" horiz-adv-x="560" 
d="M153 68h370v-68h-442v700h72v-632zM259 700h84l-44 -196h-57z" />
    <glyph glyph-name="lcaron" unicode="&#x13e;" horiz-adv-x="218" 
d="M75 0v710h68v-710h-68zM228 700h68l-36 -180h-46z" />
    <glyph glyph-name="Ldot" unicode="&#x13f;" horiz-adv-x="560" 
d="M153 68h370v-68h-442v700h72v-632zM345 361q-23 0 -39 15.5t-16 38.5q0 22 16 37t39 15t38.5 -15t15.5 -37q0 -23 -15.5 -38.5t-38.5 -15.5z" />
    <glyph glyph-name="ldot" unicode="&#x140;" horiz-adv-x="218" 
d="M109 884q20 0 34.5 -14t14.5 -34q0 -21 -14.5 -35t-34.5 -14q-21 0 -35.5 14t-14.5 35q0 20 15 34t35 14zM75 0v710h68v-710h-68z" />
    <glyph glyph-name="Lslash" unicode="&#x141;" horiz-adv-x="560" 
d="M153 68h370v-68h-442v268l-106 -55v70l106 55v362h72v-324l187 97v-70l-187 -97v-238z" />
    <glyph glyph-name="lslash" unicode="&#x142;" horiz-adv-x="218" 
d="M226 485v-68l-83 -50v-367h-68v327l-83 -50v67l83 50v316h68v-275z" />
    <glyph glyph-name="Nacute" unicode="&#x143;" horiz-adv-x="717" 
d="M383 898h88l-97 -134h-51zM567 700h70v-700h-83l-398 589h-7v-589h-69v700h86l394 -586h7v586z" />
    <glyph glyph-name="nacute" unicode="&#x144;" horiz-adv-x="545" 
d="M303 683h84l-93 -128h-48zM297 510q78 0 128 -53.5t50 -149.5v-307h-68v292q0 77 -36 116.5t-96 39.5q-54 0 -92 -37.5t-38 -111.5v-299h-70v500h49l13 -64h6q50 74 154 74z" />
    <glyph glyph-name="Ncommaaccent" unicode="&#x145;" horiz-adv-x="717" 
d="M567 700h70v-700h-83l-398 589h-7v-589h-69v700h86l394 -586h7v586zM358 -62q27 0 41 -20t14 -51q0 -49 -27 -86t-64 -56l-18 24q54 41 54 85q-23 -3 -38.5 11t-15.5 37q0 25 15 40.5t39 15.5z" />
    <glyph glyph-name="ncommaaccent" unicode="&#x146;" horiz-adv-x="545" 
d="M297 510q78 0 128 -53.5t50 -149.5v-307h-68v292q0 77 -36 116.5t-96 39.5q-54 0 -92 -37.5t-38 -111.5v-299h-70v500h49l13 -64h6q50 74 154 74zM275 -63q26 0 39.5 -19t13.5 -49q0 -47 -26 -82t-61 -54l-18 23q52 39 52 81q-22 -2 -37 11.5t-15 35.5q0 23 14.5 38
t37.5 15z" />
    <glyph glyph-name="Ncaron" unicode="&#x147;" horiz-adv-x="717" 
d="M429 904h70l-107 -143h-65l-108 143h70l67 -94h6zM567 700h70v-700h-83l-398 589h-7v-589h-69v700h86l394 -586h7v586z" />
    <glyph glyph-name="ncaron" unicode="&#x148;" horiz-adv-x="545" 
d="M340 700h67l-103 -137h-62l-104 137h67l65 -90h6zM297 510q78 0 128 -53.5t50 -149.5v-307h-68v292q0 77 -36 116.5t-96 39.5q-54 0 -92 -37.5t-38 -111.5v-299h-70v500h49l13 -64h6q50 74 154 74z" />
    <glyph glyph-name="Eng" unicode="&#x14a;" horiz-adv-x="717" 
d="M566 700h71v-776q0 -65 -32 -99.5t-86 -34.5q-47 0 -76 19v59q32 -18 60 -18q29 0 46 20.5t17 57.5v54l-410 607h-6v-589h-70v700h86l393 -586h7v586z" />
    <glyph glyph-name="eng" unicode="&#x14b;" horiz-adv-x="545" 
d="M297 510q78 0 128 -53.5t50 -149.5v-392q0 -62 -29.5 -93.5t-79.5 -31.5q-45 0 -72 17v56q32 -16 56 -16q27 0 42 18.5t15 50.5v376q0 77 -36 116.5t-96 39.5q-54 0 -92 -37.5t-38 -111.5v-299h-70v500h49l13 -64h6q50 74 154 74z" />
    <glyph glyph-name="Omacron" unicode="&#x14c;" horiz-adv-x="812" 
d="M254 827h303v-55h-303v55zM407 -10q-147 0 -245 103t-98 257t98 257t244 103t244 -103t98 -257t-97.5 -257t-243.5 -103zM407 58q115 0 191.5 84t76.5 208t-77 208t-192 84q-114 0 -191.5 -84.5t-77.5 -207.5t77.5 -207.5t192.5 -84.5z" />
    <glyph glyph-name="omacron" unicode="&#x14d;" horiz-adv-x="591" 
d="M151 639h289v-52h-289v52zM296 -10q-109 0 -178.5 74.5t-69.5 186.5q0 111 68.5 185t177.5 74q108 0 178.5 -74.5t70.5 -186.5q0 -111 -69 -185t-178 -74zM295 51q79 0 129.5 58t50.5 141t-51 141t-130 58q-78 0 -128 -58t-50 -141t49.5 -141t129.5 -58z" />
    <glyph glyph-name="Obreve" unicode="&#x14e;" horiz-adv-x="812" 
d="M537 885q0 -47 -36 -84t-95 -37t-95 37t-36 84h60q0 -32 19.5 -52t51.5 -20q33 0 52 20t19 52h60zM407 -10q-147 0 -245 103t-98 257t98 257t244 103t244 -103t98 -257t-97.5 -257t-243.5 -103zM407 58q115 0 191.5 84t76.5 208t-77 208t-192 84q-114 0 -191.5 -84.5
t-77.5 -207.5t77.5 -207.5t192.5 -84.5z" />
    <glyph glyph-name="obreve" unicode="&#x14f;" horiz-adv-x="591" 
d="M418 690q0 -45 -33.5 -80.5t-90.5 -35.5t-91 35.5t-34 80.5h57q0 -30 19 -49.5t49 -19.5q31 0 49 19t18 50h57zM296 -10q-109 0 -178.5 74.5t-69.5 186.5q0 111 68.5 185t177.5 74q108 0 178.5 -74.5t70.5 -186.5q0 -111 -69 -185t-178 -74zM295 51q79 0 129.5 58
t50.5 141t-51 141t-130 58q-78 0 -128 -58t-50 -141t49.5 -141t129.5 -58z" />
    <glyph glyph-name="Ohungarumlaut" unicode="&#x150;" horiz-adv-x="812" 
d="M376 906h78l-93 -134h-57zM527 906h76l-94 -134h-56zM407 -10q-147 0 -245 103t-98 257t98 257t244 103t244 -103t98 -257t-97.5 -257t-243.5 -103zM407 58q115 0 191.5 84t76.5 208t-77 208t-192 84q-114 0 -191.5 -84.5t-77.5 -207.5t77.5 -207.5t192.5 -84.5z" />
    <glyph glyph-name="ohungarumlaut" unicode="&#x151;" horiz-adv-x="591" 
d="M255 683h74l-89 -128h-54zM398 683h73l-90 -128h-53zM296 -10q-109 0 -178.5 74.5t-69.5 186.5q0 111 68.5 185t177.5 74q108 0 178.5 -74.5t70.5 -186.5q0 -111 -69 -185t-178 -74zM295 51q79 0 129.5 58t50.5 141t-51 141t-130 58q-78 0 -128 -58t-50 -141t49.5 -141
t129.5 -58z" />
    <glyph glyph-name="OE" unicode="&#x152;" horiz-adv-x="1159" 
d="M748 65h373v-65h-441v129q-47 -65 -118 -102t-155 -37q-147 0 -245 103t-98 257t98 257t244 103q84 0 155.5 -37t118.5 -103v130h431v-65h-363v-249h324v-63h-324v-258zM407 58q115 0 191.5 84t76.5 208t-77 208t-192 84q-114 0 -191.5 -84.5t-77.5 -207.5t77.5 -207.5
t192.5 -84.5z" />
    <glyph glyph-name="oe" unicode="&#x153;" horiz-adv-x="980" 
d="M930 239h-387v-6q5 -84 48.5 -133.5t125.5 -49.5q48 0 86.5 22.5t56.5 66.5h67q-20 -72 -78 -110.5t-133 -38.5q-148 0 -208 120q-31 -56 -86.5 -88t-125.5 -32q-109 0 -178.5 74.5t-69.5 186.5q0 111 68.5 185t177.5 74q70 0 126 -32.5t88 -89.5q30 57 82.5 89.5
t119.5 32.5q103 0 165 -70.5t55 -200.5zM710 453q-67 0 -111 -44t-54 -116h320q-2 68 -43 114t-112 46zM295 51q79 0 129.5 58t50.5 141t-51 141t-130 58q-78 0 -128 -58t-50 -141t49.5 -141t129.5 -58z" />
    <glyph glyph-name="Racute" unicode="&#x154;" horiz-adv-x="601" 
d="M412 898l-97 -134h-51l60 134h88zM563 0h-80l-181 300h-8h-146v-300h-68v700h224q104 0 165 -54t61 -145q0 -71 -42 -121.5t-114 -69.5zM148 635v-270h145q79 0 122 37t43 100q0 64 -43.5 98.5t-121.5 34.5h-145z" />
    <glyph glyph-name="racute" unicode="&#x155;" horiz-adv-x="353" 
d="M229 683h84l-93 -128h-48zM286 510h30v-69q-21 3 -35 3q-57 0 -98 -42t-41 -123v-279h-67v500h49l12 -70h7q51 80 143 80z" />
    <glyph glyph-name="Rcommaaccent" unicode="&#x156;" horiz-adv-x="601" 
d="M374 310l189 -310h-80l-181 300h-8h-146v-300h-68v700h224q104 0 165 -54t61 -145q0 -71 -42 -121.5t-114 -69.5zM148 635v-270h145q79 0 122 37t43 100q0 64 -43.5 98.5t-121.5 34.5h-145zM308 -62q27 0 41 -20t14 -51q0 -49 -27 -86t-64 -56l-18 24q54 41 54 85
q-23 -3 -38.5 11t-15.5 37q0 25 15 40.5t39 15.5z" />
    <glyph glyph-name="rcommaaccent" unicode="&#x157;" horiz-adv-x="353" 
d="M286 510h30v-69q-21 3 -35 3q-57 0 -98 -42t-41 -123v-279h-67v500h49l12 -70h7q51 80 143 80zM109 -63q26 0 39.5 -19t13.5 -49q0 -47 -26 -82t-61 -54l-18 23q52 39 52 81q-22 -2 -37 11.5t-15 35.5q0 23 14.5 38t37.5 15z" />
    <glyph glyph-name="Rcaron" unicode="&#x158;" horiz-adv-x="601" 
d="M333 761h-65l-108 143h70l67 -94h6l67 94h70zM563 0h-80l-181 300h-8h-146v-300h-68v700h224q104 0 165 -54t61 -145q0 -71 -42 -121.5t-114 -69.5zM148 635v-270h145q79 0 122 37t43 100q0 64 -43.5 98.5t-121.5 34.5h-145z" />
    <glyph glyph-name="rcaron" unicode="&#x159;" horiz-adv-x="353" 
d="M266 700h67l-103 -137h-62l-104 137h67l65 -90h6zM286 510h30v-69q-21 3 -35 3q-57 0 -98 -42t-41 -123v-279h-67v500h49l12 -70h7q51 80 143 80z" />
    <glyph glyph-name="Sacute" unicode="&#x15a;" horiz-adv-x="608" 
d="M331 898h88l-97 -134h-51zM544 171q0 -88 -63 -134.5t-164 -46.5q-121 0 -185 59.5t-68 154.5h73q4 -67 46.5 -109t131.5 -42q69 0 112.5 29.5t43.5 87.5q0 53 -37.5 89t-138.5 68q-101 33 -155.5 76t-54.5 120q0 84 61 135.5t155 51.5q105 0 167 -60t64 -143h-69
q-4 56 -44.5 97.5t-119.5 41.5q-64 0 -102.5 -34t-38.5 -85q0 -52 40 -82t130 -58q110 -35 163 -86.5t53 -129.5z" />
    <glyph glyph-name="sacute" unicode="&#x15b;" horiz-adv-x="455" 
d="M259 683h84l-93 -128h-48zM407 125q0 -63 -49 -99t-125 -36q-84 0 -135.5 47.5t-49.5 119.5h65q0 -56 37.5 -84t84.5 -28q45 0 75 21.5t30 59.5q0 39 -33 62.5t-93 42.5q-67 21 -108 54t-41 90q0 61 46 98t118 37q76 0 120.5 -43t44.5 -101h-63q-2 39 -31.5 64t-74.5 25
q-39 0 -66.5 -20.5t-27.5 -55.5t28.5 -57t83.5 -40q80 -27 122 -60.5t42 -96.5z" />
    <glyph glyph-name="Scircumflex" unicode="&#x15c;" horiz-adv-x="608" 
d="M235 771h-70l107 143h65l108 -143h-70l-67 94h-6zM544 171q0 -88 -63 -134.5t-164 -46.5q-121 0 -185 59.5t-68 154.5h73q4 -67 46.5 -109t131.5 -42q69 0 112.5 29.5t43.5 87.5q0 53 -37.5 89t-138.5 68q-101 33 -155.5 76t-54.5 120q0 84 61 135.5t155 51.5
q105 0 167 -60t64 -143h-69q-4 56 -44.5 97.5t-119.5 41.5q-64 0 -102.5 -34t-38.5 -85q0 -52 40 -82t130 -58q110 -35 163 -86.5t53 -129.5z" />
    <glyph glyph-name="scircumflex" unicode="&#x15d;" horiz-adv-x="455" 
d="M160 563h-67l103 137h62l104 -137h-67l-65 90h-6zM407 125q0 -63 -49 -99t-125 -36q-84 0 -135.5 47.5t-49.5 119.5h65q0 -56 37.5 -84t84.5 -28q45 0 75 21.5t30 59.5q0 39 -33 62.5t-93 42.5q-67 21 -108 54t-41 90q0 61 46 98t118 37q76 0 120.5 -43t44.5 -101h-63
q-2 39 -31.5 64t-74.5 25q-39 0 -66.5 -20.5t-27.5 -55.5t28.5 -57t83.5 -40q80 -27 122 -60.5t42 -96.5z" />
    <glyph glyph-name="Scedilla" unicode="&#x15e;" horiz-adv-x="608" 
d="M544 171q0 -82 -55.5 -128.5t-147.5 -51.5l-22 -37q37 8 70 -16t33 -67q0 -39 -25.5 -61t-72.5 -22q-43 0 -68 20t-32 40l32 22q27 -42 67 -42q24 0 39 13t15 34t-15.5 33.5t-46.5 12.5q-18 0 -40 -10l-19 24l35 56q-108 6 -165.5 64.5t-61.5 148.5h73q4 -67 46.5 -109
t131.5 -42q69 0 112.5 29.5t43.5 87.5q0 53 -37.5 89t-138.5 68q-101 33 -155.5 76t-54.5 120q0 84 61 135.5t155 51.5q105 0 167 -60t64 -143h-69q-4 56 -44.5 97.5t-119.5 41.5q-64 0 -102.5 -34t-38.5 -85q0 -52 40 -82t130 -58q110 -35 163 -86.5t53 -129.5z" />
    <glyph glyph-name="scedilla" unicode="&#x15f;" horiz-adv-x="455" 
d="M407 125q0 -59 -43.5 -94.5t-113.5 -39.5l-22 -37q37 8 69.5 -15.5t32.5 -66.5q0 -38 -25.5 -60t-71.5 -22q-42 0 -67 20t-32 40l32 21q26 -41 66 -41q23 0 38 12.5t15 33.5q0 46 -61 46q-19 0 -39 -10l-19 24l35 56q-71 9 -113 55t-40 110h65q0 -56 37.5 -84t84.5 -28
q45 0 75 21.5t30 59.5q0 39 -33 62.5t-93 42.5q-67 21 -108 54t-41 90q0 61 46 98t118 37q76 0 120.5 -43t44.5 -101h-63q-2 39 -31.5 64t-74.5 25q-39 0 -66.5 -20.5t-27.5 -55.5t28.5 -57t83.5 -40q80 -27 122 -60.5t42 -96.5z" />
    <glyph glyph-name="Scaron" unicode="&#x160;" horiz-adv-x="608" 
d="M377 904h70l-107 -143h-65l-108 143h70l67 -94h6zM544 171q0 -88 -63 -134.5t-164 -46.5q-121 0 -185 59.5t-68 154.5h73q4 -67 46.5 -109t131.5 -42q69 0 112.5 29.5t43.5 87.5q0 53 -37.5 89t-138.5 68q-101 33 -155.5 76t-54.5 120q0 84 61 135.5t155 51.5
q105 0 167 -60t64 -143h-69q-4 56 -44.5 97.5t-119.5 41.5q-64 0 -102.5 -34t-38.5 -85q0 -52 40 -82t130 -58q110 -35 163 -86.5t53 -129.5z" />
    <glyph glyph-name="scaron" unicode="&#x161;" horiz-adv-x="455" 
d="M296 700h67l-103 -137h-62l-104 137h67l65 -90h6zM407 125q0 -63 -49 -99t-125 -36q-84 0 -135.5 47.5t-49.5 119.5h65q0 -56 37.5 -84t84.5 -28q45 0 75 21.5t30 59.5q0 39 -33 62.5t-93 42.5q-67 21 -108 54t-41 90q0 61 46 98t118 37q76 0 120.5 -43t44.5 -101h-63
q-2 39 -31.5 64t-74.5 25q-39 0 -66.5 -20.5t-27.5 -55.5t28.5 -57t83.5 -40q80 -27 122 -60.5t42 -96.5z" />
    <glyph glyph-name="uni0162" unicode="&#x162;" horiz-adv-x="559" 
d="M314 0h-9l-28 -46q37 8 70 -16t33 -67q0 -39 -25.5 -61t-72.5 -22q-43 0 -68 20t-32 40l32 22q27 -42 67 -42q24 0 39 13t15 34t-15.5 33.5t-46.5 12.5q-18 0 -40 -10l-19 24l41 65h-11v636h-207v64h484v-64h-207v-636z" />
    <glyph glyph-name="uni0163" unicode="&#x163;" horiz-adv-x="354" 
d="M223 -47q37 8 69.5 -15.5t32.5 -66.5q0 -38 -25.5 -60t-71.5 -22q-42 0 -67 20t-32 40l32 21q26 -41 66 -41q23 0 38 12.5t15 33.5q0 46 -61 46q-19 0 -39 -10l-19 24l38 61q-66 23 -66 114v334h-96v48h28q40 0 58 16.5t18 54.5v63h59v-126h117v-56h-117v-328
q0 -65 53 -65q21 0 41 13l21 -53q-28 -20 -69 -21z" />
    <glyph glyph-name="Tcaron" unicode="&#x164;" horiz-adv-x="559" 
d="M313 761h-65l-108 143h70l67 -94h6l67 94h70zM521 700v-64h-207v-636h-70v636h-207v64h484z" />
    <glyph glyph-name="tcaron" unicode="&#x165;" horiz-adv-x="354" 
d="M286 700h68l-36 -153h-46zM315 11q-31 -21 -73 -21q-48 0 -78.5 28t-30.5 92v334h-96v48h28q40 0 58 16.5t18 54.5v63h59v-126h117v-56h-117v-328q0 -65 53 -65q21 0 41 13z" />
    <glyph glyph-name="Tbar" unicode="&#x166;" horiz-adv-x="559" 
d="M521 636h-207v-254h148v-55h-148v-327h-70v327h-148v55h148v254h-207v64h484v-64z" />
    <glyph glyph-name="tbar" unicode="&#x167;" horiz-adv-x="354" 
d="M318 282h-118v-166q0 -65 53 -65q21 0 41 13l21 -53q-31 -21 -73 -21q-48 0 -78.5 28t-30.5 92v172h-97v51h97v111h-96v48h28q40 0 58 16.5t18 54.5v63h59v-126h117v-56h-117v-111h118v-51z" />
    <glyph glyph-name="Utilde" unicode="&#x168;" horiz-adv-x="693" 
d="M511 850q-7 -27 -33.5 -53t-66.5 -26q-35 0 -72 24t-57 24q-33 0 -55 -44l-45 21q7 27 33 53t67 26q34 0 72 -24t57 -24q35 0 55 43zM613 700v-433q0 -132 -74.5 -204.5t-190.5 -72.5t-192 72.5t-76 204.5v433h73v-427q0 -104 55.5 -159t139.5 -55t138 55t54 159v427h73z
" />
    <glyph glyph-name="utilde" unicode="&#x169;" horiz-adv-x="545" 
d="M427 638q-6 -26 -31.5 -50.5t-63.5 -24.5q-33 0 -68.5 23t-54.5 23q-33 0 -52 -42l-43 20q7 26 31.5 50.5t63.5 24.5q33 0 68.5 -23t54.5 -23q34 0 52 41zM249 -10q-78 0 -128 53.5t-50 149.5v307h69v-292q0 -77 35.5 -116.5t95.5 -39.5q54 0 92 37.5t38 111.5v299h69
v-500h-49l-12 64h-7q-50 -74 -153 -74z" />
    <glyph glyph-name="Umacron" unicode="&#x16a;" horiz-adv-x="693" 
d="M195 827h303v-55h-303v55zM613 700v-433q0 -132 -74.5 -204.5t-190.5 -72.5t-192 72.5t-76 204.5v433h73v-427q0 -104 55.5 -159t139.5 -55t138 55t54 159v427h73z" />
    <glyph glyph-name="umacron" unicode="&#x16b;" horiz-adv-x="545" 
d="M126 639h289v-52h-289v52zM249 -10q-78 0 -128 53.5t-50 149.5v307h69v-292q0 -77 35.5 -116.5t95.5 -39.5q54 0 92 37.5t38 111.5v299h69v-500h-49l-12 64h-7q-50 -74 -153 -74z" />
    <glyph glyph-name="Ubreve" unicode="&#x16c;" horiz-adv-x="693" 
d="M478 885q0 -47 -36 -84t-95 -37t-95 37t-36 84h60q0 -32 19.5 -52t51.5 -20q33 0 52 20t19 52h60zM613 700v-433q0 -132 -74.5 -204.5t-190.5 -72.5t-192 72.5t-76 204.5v433h73v-427q0 -104 55.5 -159t139.5 -55t138 55t54 159v427h73z" />
    <glyph glyph-name="ubreve" unicode="&#x16d;" horiz-adv-x="545" 
d="M393 690q0 -45 -33.5 -80.5t-90.5 -35.5t-91 35.5t-34 80.5h57q0 -30 19 -49.5t49 -19.5q31 0 49 19t18 50h57zM249 -10q-78 0 -128 53.5t-50 149.5v307h69v-292q0 -77 35.5 -116.5t95.5 -39.5q54 0 92 37.5t38 111.5v299h69v-500h-49l-12 64h-7q-50 -74 -153 -74z" />
    <glyph glyph-name="Uring" unicode="&#x16e;" horiz-adv-x="693" 
d="M347 763q-41 0 -71 30t-30 71q0 40 30 69.5t71 29.5q42 0 72 -29t30 -70t-30 -71t-72 -30zM349 810q21 0 35.5 15.5t14.5 38.5q0 21 -14.5 36.5t-35.5 15.5q-23 0 -38 -15.5t-15 -36.5q0 -23 15 -38.5t38 -15.5zM613 700v-433q0 -132 -74.5 -204.5t-190.5 -72.5
t-192 72.5t-76 204.5v433h73v-427q0 -104 55.5 -159t139.5 -55t138 55t54 159v427h73z" />
    <glyph glyph-name="uring" unicode="&#x16f;" horiz-adv-x="545" 
d="M270 545q-38 0 -66 27.5t-28 65.5q0 37 28 64.5t66 27.5t66 -27.5t28 -64.5q0 -38 -28 -65.5t-66 -27.5zM271 588q20 0 33.5 14.5t13.5 35.5q0 20 -14 34t-33 14q-21 0 -35 -14t-14 -34q0 -21 14 -35.5t35 -14.5zM249 -10q-78 0 -128 53.5t-50 149.5v307h69v-292
q0 -77 35.5 -116.5t95.5 -39.5q54 0 92 37.5t38 111.5v299h69v-500h-49l-12 64h-7q-50 -74 -153 -74z" />
    <glyph glyph-name="Uhungarumlaut" unicode="&#x170;" horiz-adv-x="693" 
d="M317 906h78l-93 -134h-57zM468 906h76l-94 -134h-56zM613 700v-433q0 -132 -74.5 -204.5t-190.5 -72.5t-192 72.5t-76 204.5v433h73v-427q0 -104 55.5 -159t139.5 -55t138 55t54 159v427h73z" />
    <glyph glyph-name="uhungarumlaut" unicode="&#x171;" horiz-adv-x="545" 
d="M230 683h74l-89 -128h-54zM373 683h73l-90 -128h-53zM249 -10q-78 0 -128 53.5t-50 149.5v307h69v-292q0 -77 35.5 -116.5t95.5 -39.5q54 0 92 37.5t38 111.5v299h69v-500h-49l-12 64h-7q-50 -74 -153 -74z" />
    <glyph glyph-name="Uogonek" unicode="&#x172;" horiz-adv-x="693" 
d="M540 700h73v-433q0 -104 -46.5 -171.5t-126.5 -92.5q-33 -10 -54.5 -35t-21.5 -50q0 -28 20 -43t44.5 -13.5t46.5 10.5v-50q-17 -10 -53 -10q-44 0 -76.5 25.5t-32.5 67.5q0 56 53 86q-7 -1 -23 -1q-114 2 -188.5 74t-74.5 203v433h73v-427q0 -104 55.5 -159t139.5 -55
t138 55t54 159v427z" />
    <glyph glyph-name="uogonek" unicode="&#x173;" horiz-adv-x="545" 
d="M397 -81q0 -38 38 -48.5t68 7.5v-49q-18 -10 -51 -10q-44 0 -74.5 24.5t-30.5 67.5q0 59 73 92l-11 61h-7q-50 -74 -153 -74q-78 0 -128 53.5t-50 149.5v307h69v-292q0 -77 35.5 -116.5t95.5 -39.5q54 0 92 37.5t38 111.5v299h69v-500q-31 -11 -52 -34t-21 -47z" />
    <glyph glyph-name="Wcircumflex" unicode="&#x174;" horiz-adv-x="882" 
d="M370 771h-70l107 143h65l108 -143h-70l-67 94h-6zM787 700h68l-148 -700h-108l-154 560h-7l-155 -560h-108l-148 700h71l131 -621h6l158 571h96l158 -571h7z" />
    <glyph glyph-name="wcircumflex" unicode="&#x175;" horiz-adv-x="709" 
d="M286 563h-67l103 137h62l104 -137h-67l-65 90h-6zM608 500h65l-115 -500h-92l-108 394h-6l-110 -394h-90l-116 500h65l96 -432h7l108 394h86l108 -394h7z" />
    <glyph glyph-name="Ycircumflex" unicode="&#x176;" horiz-adv-x="633" 
d="M246 771h-70l107 143h65l108 -143h-70l-67 94h-6zM520 700h87l-253 -359v-341h-74v341l-253 359h86l200 -282h7z" />
    <glyph glyph-name="ycircumflex" unicode="&#x177;" horiz-adv-x="540" 
d="M202 563h-67l103 137h62l104 -137h-67l-65 90h-6zM434 500h70l-199 -579q-22 -63 -57.5 -97t-97.5 -34q-70 0 -106 41l29 48q36 -30 75 -30q64 0 95 92l21 59h-28l-199 500h74l168 -431h7z" />
    <glyph glyph-name="Ydieresis" unicode="&#x178;" horiz-adv-x="633" 
d="M203 771q-21 0 -36.5 15.5t-15.5 36.5q0 22 15.5 37.5t36.5 15.5q22 0 37.5 -15.5t15.5 -37.5q0 -21 -15.5 -36.5t-37.5 -15.5zM431 771q-21 0 -36 15.5t-15 36.5q0 22 15 37.5t36 15.5t36.5 -15.5t15.5 -37.5q0 -21 -15.5 -36.5t-36.5 -15.5zM520 700h87l-253 -359v-341
h-74v341l-253 359h86l200 -282h7z" />
    <glyph glyph-name="Zacute" unicode="&#x179;" horiz-adv-x="605" 
d="M336 898h88l-97 -134h-51zM167 66h364v-66h-467v44l374 586v5h-346v65h445v-44l-370 -585v-5z" />
    <glyph glyph-name="zacute" unicode="&#x17a;" horiz-adv-x="455" 
d="M265 683h84l-93 -128h-48zM136 57h270v-57h-358v44l268 394v5h-251v57h339v-44l-268 -394v-5z" />
    <glyph glyph-name="Zdotaccent" unicode="&#x17b;" horiz-adv-x="605" 
d="M307 784q-23 0 -39 15.5t-16 38.5q0 22 16 37t39 15t38.5 -15t15.5 -37q0 -23 -15.5 -38.5t-38.5 -15.5zM167 66h364v-66h-467v44l374 586v5h-346v65h445v-44l-370 -585v-5z" />
    <glyph glyph-name="zdotaccent" unicode="&#x17c;" horiz-adv-x="455" 
d="M235 587q-21 0 -35.5 14t-14.5 35q0 20 15 34t35 14t34.5 -14t14.5 -34q0 -21 -14.5 -35t-34.5 -14zM136 57h270v-57h-358v44l268 394v5h-251v57h339v-44l-268 -394v-5z" />
    <glyph glyph-name="Zcaron" unicode="&#x17d;" horiz-adv-x="605" 
d="M382 904h70l-107 -143h-65l-108 143h70l67 -94h6zM167 66h364v-66h-467v44l374 586v5h-346v65h445v-44l-370 -585v-5z" />
    <glyph glyph-name="zcaron" unicode="&#x17e;" horiz-adv-x="455" 
d="M302 700h67l-103 -137h-62l-104 137h67l65 -90h6zM136 57h270v-57h-358v44l268 394v5h-251v57h339v-44l-268 -394v-5z" />
    <glyph glyph-name="florin" unicode="&#x192;" horiz-adv-x="509" 
d="M389 650q56 0 94 -40l-31 -43q-26 28 -61 28q-60 0 -71 -71l-22 -135h127l-9 -50h-126l-38 -228q-21 -121 -132 -121q-56 0 -93 40l31 43q26 -28 60 -28q61 0 72 71l37 223h-128l9 50h127l23 140q21 121 131 121z" />
    <glyph glyph-name="uni01CD" unicode="&#x1cd;" horiz-adv-x="629" 
d="M349 761h-65l-108 143h70l67 -94h6l67 94h70zM527 0l-65 193h-295l-65 -193h-75l241 700h93l241 -700h-75zM188 256h252l-123 364h-6z" />
    <glyph glyph-name="uni01CE" unicode="&#x1ce;" horiz-adv-x="513" 
d="M291 563h-62l-104 137h67l65 -90h6l64 90h67zM436 110q0 -30 11.5 -42t36.5 -12v-56h-12q-75 0 -91 68q-28 -36 -75 -57t-95 -21q-70 0 -116.5 35.5t-46.5 101.5q0 147 227 165l97 8v13q0 64 -30 103t-87 39q-54 0 -83.5 -31t-37.5 -76h-65q8 69 57 115.5t129 46.5
q83 0 132 -52t49 -142v-206zM216 47q63 0 109.5 38.5t46.5 112.5v49l-93 -8q-77 -6 -120.5 -34t-43.5 -74q0 -42 29 -63t72 -21z" />
    <glyph glyph-name="uni01CF" unicode="&#x1cf;" horiz-adv-x="232" 
d="M187 904h70l-107 -143h-65l-108 143h70l67 -94h6zM152 700v-700h-72v700h72z" />
    <glyph glyph-name="uni01D0" unicode="&#x1d0;" horiz-adv-x="217" 
d="M176 700h67l-103 -137h-62l-104 137h67l65 -90h6zM143 500v-500h-68v500h68z" />
    <glyph glyph-name="uni01D1" unicode="&#x1d1;" horiz-adv-x="812" 
d="M477 904h70l-107 -143h-65l-108 143h70l67 -94h6zM407 -10q-147 0 -245 103t-98 257t98 257t244 103t244 -103t98 -257t-97.5 -257t-243.5 -103zM407 58q115 0 191.5 84t76.5 208t-77 208t-192 84q-114 0 -191.5 -84.5t-77.5 -207.5t77.5 -207.5t192.5 -84.5z" />
    <glyph glyph-name="uni01D2" unicode="&#x1d2;" horiz-adv-x="591" 
d="M362 700h67l-103 -137h-62l-104 137h67l65 -90h6zM296 -10q-109 0 -178.5 74.5t-69.5 186.5q0 111 68.5 185t177.5 74q108 0 178.5 -74.5t70.5 -186.5q0 -111 -69 -185t-178 -74zM295 51q79 0 129.5 58t50.5 141t-51 141t-130 58q-78 0 -128 -58t-50 -141t49.5 -141
t129.5 -58z" />
    <glyph glyph-name="uni01D3" unicode="&#x1d3;" horiz-adv-x="693" 
d="M418 904h70l-107 -143h-65l-108 143h70l67 -94h6zM613 700v-433q0 -132 -74.5 -204.5t-190.5 -72.5t-192 72.5t-76 204.5v433h73v-427q0 -104 55.5 -159t139.5 -55t138 55t54 159v427h73z" />
    <glyph glyph-name="uni01D4" unicode="&#x1d4;" horiz-adv-x="545" 
d="M337 700h67l-103 -137h-62l-104 137h67l65 -90h6zM249 -10q-78 0 -128 53.5t-50 149.5v307h69v-292q0 -77 35.5 -116.5t95.5 -39.5q54 0 92 37.5t38 111.5v299h69v-500h-49l-12 64h-7q-50 -74 -153 -74z" />
    <glyph glyph-name="uni01E2" unicode="&#x1e2;" horiz-adv-x="997" 
d="M860 827v-55h-303v55h303zM586 65h373v-65h-441v199h-283l-126 -199h-82l440 700h482v-65h-363v-249h324v-63h-324v-258zM276 264h242v369h-9z" />
    <glyph glyph-name="uni01E3" unicode="&#x1e3;" horiz-adv-x="874" 
d="M595 639v-52h-289v52h289zM605 510q103 0 165 -70.5t55 -200.5h-388q4 -86 48 -137.5t127 -51.5q48 0 86.5 22.5t56.5 66.5h67q-20 -72 -78 -110.5t-133 -38.5q-145 0 -207 117q-21 -52 -76 -84.5t-117 -32.5q-70 0 -116.5 35.5t-46.5 101.5q0 80 55.5 122.5t167.5 42.5
h101v21q0 64 -30 103t-87 39q-54 0 -83.5 -31t-37.5 -76h-65q8 69 57 115.5t129 46.5q118 0 162 -98q66 98 188 98zM440 293h320q-2 68 -43 114t-112 46q-67 0 -111 -44t-54 -116zM216 47q63 0 109.5 38.5t46.5 112.5v41h-103q-79 0 -116.5 -29.5t-37.5 -78.5q0 -42 29 -63
t72 -21z" />
    <glyph glyph-name="Gcaron" unicode="&#x1e6;" horiz-adv-x="742" 
d="M447 904h70l-107 -143h-65l-108 143h70l67 -94h6zM359 355h299v-355h-46l-14 79h-6q-92 -89 -220 -89q-145 0 -226.5 96.5t-81.5 246.5q0 164 88.5 270.5t227.5 106.5q120 0 190.5 -59t88.5 -155h-73q-17 63 -67.5 105t-135.5 42q-109 0 -178 -86t-69 -219
q0 -124 64 -203.5t183 -79.5q67 0 120.5 29.5t84.5 66.5v144h-229v60z" />
    <glyph glyph-name="gcaron" unicode="&#x1e7;" horiz-adv-x="525" 
d="M290 563h-62l-104 137h67l65 -90h6l64 90h67zM489 489q-28 -33 -79 -57q27 -43 27 -98q0 -74 -51.5 -120t-130.5 -46q-48 0 -90 20q-40 -22 -40 -51q0 -51 85 -51h87q83 0 128.5 -37t45.5 -106q0 -71 -56.5 -112t-149.5 -41q-105 0 -162 53t-55 129l83 66q-70 22 -70 87
q0 58 64 90q-51 48 -51 121q0 77 50 125.5t129 48.5q74 0 124 -41q38 21 74 68zM257 220q51 0 82.5 34t31.5 85q0 52 -31.5 86t-81.5 34q-52 0 -85 -34t-33 -86q0 -50 33 -84.5t84 -34.5zM404 -56q0 45 -32.5 66t-82.5 21h-85l-90 -71q7 -49 44 -80.5t110 -31.5
q60 0 98 24.5t38 71.5z" />
    <glyph glyph-name="uni01EA" unicode="&#x1ea;" horiz-adv-x="812" 
d="M531 13q-35 -14 -55.5 -40t-20.5 -54q0 -29 20 -44t44.5 -13.5t46.5 10.5v-50q-17 -10 -53 -10q-45 0 -77 25.5t-32 69.5q0 54 51 87q-30 -4 -48 -4q-147 0 -245 103t-98 257t98 257t244 103t244 -103t98 -257q0 -117 -59.5 -208t-157.5 -129zM407 58q115 0 191.5 84
t76.5 208t-77 208t-192 84q-114 0 -191.5 -84.5t-77.5 -207.5t77.5 -207.5t192.5 -84.5z" />
    <glyph glyph-name="uni01EB" unicode="&#x1eb;" horiz-adv-x="591" 
d="M369 0q-31 -11 -52 -34t-21 -47q0 -38 38 -48.5t68 7.5v-49q-18 -10 -51 -10q-44 0 -74.5 24.5t-30.5 67.5q0 49 48 79q-108 1 -177 75.5t-69 185.5t68.5 185t177.5 74q108 0 178.5 -74.5t70.5 -186.5q0 -91 -47 -159t-127 -90zM116 250q0 -83 49.5 -141t129.5 -58
q79 0 129.5 58t50.5 141t-51 141t-130 58q-78 0 -128 -58t-50 -141z" />
    <glyph glyph-name="uni01F4" unicode="&#x1f4;" horiz-adv-x="742" 
d="M401 898h88l-97 -134h-51zM359 355h299v-355h-46l-14 79h-6q-92 -89 -220 -89q-145 0 -226.5 96.5t-81.5 246.5q0 164 88.5 270.5t227.5 106.5q120 0 190.5 -59t88.5 -155h-73q-17 63 -67.5 105t-135.5 42q-109 0 -178 -86t-69 -219q0 -124 64 -203.5t183 -79.5
q67 0 120.5 29.5t84.5 66.5v144h-229v60z" />
    <glyph glyph-name="uni01F5" unicode="&#x1f5;" horiz-adv-x="525" 
d="M373 683l-93 -128h-48l57 128h84zM489 489q-28 -33 -79 -57q27 -43 27 -98q0 -74 -51.5 -120t-130.5 -46q-48 0 -90 20q-40 -22 -40 -51q0 -51 85 -51h87q83 0 128.5 -37t45.5 -106q0 -71 -56.5 -112t-149.5 -41q-105 0 -162 53t-55 129l83 66q-70 22 -70 87q0 58 64 90
q-51 48 -51 121q0 77 50 125.5t129 48.5q74 0 124 -41q38 21 74 68zM257 220q51 0 82.5 34t31.5 85q0 52 -31.5 86t-81.5 34q-52 0 -85 -34t-33 -86q0 -50 33 -84.5t84 -34.5zM404 -56q0 45 -32.5 66t-82.5 21h-85l-90 -71q7 -49 44 -80.5t110 -31.5q60 0 98 24.5t38 71.5z
" />
    <glyph glyph-name="uni01F8" unicode="&#x1f8;" horiz-adv-x="717" 
d="M339 898l60 -134h-51l-97 134h88zM567 700h70v-700h-83l-398 589h-7v-589h-69v700h86l394 -586h7v586z" />
    <glyph glyph-name="uni01F9" unicode="&#x1f9;" horiz-adv-x="545" 
d="M242 683l57 -128h-48l-93 128h84zM297 510q78 0 128 -53.5t50 -149.5v-307h-68v292q0 77 -36 116.5t-96 39.5q-54 0 -92 -37.5t-38 -111.5v-299h-70v500h49l13 -64h6q50 74 154 74z" />
    <glyph glyph-name="AEacute" unicode="&#x1fc;" horiz-adv-x="997" 
d="M822 898l-97 -134h-51l60 134h88zM586 65h373v-65h-441v199h-283l-126 -199h-82l440 700h482v-65h-363v-249h324v-63h-324v-258zM276 264h242v369h-9z" />
    <glyph glyph-name="aeacute" unicode="&#x1fd;" horiz-adv-x="874" 
d="M564 683l-93 -128h-48l57 128h84zM605 510q103 0 165 -70.5t55 -200.5h-388q4 -86 48 -137.5t127 -51.5q48 0 86.5 22.5t56.5 66.5h67q-20 -72 -78 -110.5t-133 -38.5q-145 0 -207 117q-21 -52 -76 -84.5t-117 -32.5q-70 0 -116.5 35.5t-46.5 101.5q0 80 55.5 122.5
t167.5 42.5h101v21q0 64 -30 103t-87 39q-54 0 -83.5 -31t-37.5 -76h-65q8 69 57 115.5t129 46.5q118 0 162 -98q66 98 188 98zM440 293h320q-2 68 -43 114t-112 46q-67 0 -111 -44t-54 -116zM216 47q63 0 109.5 38.5t46.5 112.5v41h-103q-79 0 -116.5 -29.5t-37.5 -78.5
q0 -42 29 -63t72 -21z" />
    <glyph glyph-name="Oslashacute" unicode="&#x1fe;" horiz-adv-x="812" 
d="M519 898l-97 -134h-51l60 134h88zM633 624q115 -107 115 -274q0 -154 -97.5 -257t-243.5 -103q-99 0 -183 52l-38 -55l-47 33l40 57q-115 104 -115 273q0 154 98 257t244 103q100 0 179 -51l37 53l49 -34zM137 350q0 -129 83 -214l325 466q-62 40 -139 40
q-114 0 -191.5 -84.5t-77.5 -207.5zM407 58q115 0 191.5 84t76.5 208q0 131 -84 215l-326 -465q64 -42 142 -42z" />
    <glyph glyph-name="oslashacute" unicode="&#x1ff;" horiz-adv-x="591" 
d="M409 683l-93 -128h-48l57 128h84zM469 439q74 -74 74 -190q0 -111 -69 -185t-178 -74q-71 0 -130 35l-28 -38l-45 32l29 40q-74 74 -74 192q0 111 68.5 185t177.5 74q73 0 132 -36l29 40l45 -32zM116 250q0 -78 46 -137l226 309q-43 27 -94 27q-78 0 -128 -58t-50 -141z
M295 51q79 0 129.5 58t50.5 141q0 78 -46 135l-225 -308q38 -26 91 -26z" />
    <glyph glyph-name="Scommaaccent" unicode="&#x218;" horiz-adv-x="608" 
d="M544 171q0 -88 -63 -134.5t-164 -46.5q-121 0 -185 59.5t-68 154.5h73q4 -67 46.5 -109t131.5 -42q69 0 112.5 29.5t43.5 87.5q0 53 -37.5 89t-138.5 68q-101 33 -155.5 76t-54.5 120q0 84 61 135.5t155 51.5q105 0 167 -60t64 -143h-69q-4 56 -44.5 97.5t-119.5 41.5
q-64 0 -102.5 -34t-38.5 -85q0 -52 40 -82t130 -58q110 -35 163 -86.5t53 -129.5zM321 -62q27 0 41 -20t14 -51q0 -49 -27 -86t-64 -56l-18 24q54 41 54 85q-23 -3 -38.5 11t-15.5 37q0 25 15 40.5t39 15.5z" />
    <glyph glyph-name="scommaaccent" unicode="&#x219;" horiz-adv-x="455" 
d="M407 125q0 -63 -49 -99t-125 -36q-84 0 -135.5 47.5t-49.5 119.5h65q0 -56 37.5 -84t84.5 -28q45 0 75 21.5t30 59.5q0 39 -33 62.5t-93 42.5q-67 21 -108 54t-41 90q0 61 46 98t118 37q76 0 120.5 -43t44.5 -101h-63q-2 39 -31.5 64t-74.5 25q-39 0 -66.5 -20.5
t-27.5 -55.5t28.5 -57t83.5 -40q80 -27 122 -60.5t42 -96.5zM232 -63q26 0 39.5 -19t13.5 -49q0 -47 -26 -82t-61 -54l-18 23q52 39 52 81q-22 -2 -37 11.5t-15 35.5q0 23 14.5 38t37.5 15z" />
    <glyph glyph-name="uni021A" unicode="&#x21a;" horiz-adv-x="559" 
d="M37 700h484v-64h-207v-636h-70v636h-207v64zM279 -62q27 0 41 -20t14 -51q0 -49 -27 -86t-64 -56l-18 24q54 41 54 85q-23 -3 -38.5 11t-15.5 37q0 25 15 40.5t39 15.5z" />
    <glyph glyph-name="uni021B" unicode="&#x21b;" horiz-adv-x="354" 
d="M315 11q-31 -21 -73 -21q-48 0 -78.5 28t-30.5 92v334h-96v48h28q40 0 58 16.5t18 54.5v63h59v-126h117v-56h-117v-328q0 -65 53 -65q21 0 41 13zM227 -64q26 0 39.5 -19t13.5 -49q0 -47 -26 -82t-61 -54l-18 23q52 39 52 81q-22 -2 -37 11.5t-15 35.5q0 23 14.5 38
t37.5 15z" />
    <glyph glyph-name="uni021E" unicode="&#x21e;" horiz-adv-x="670" 
d="M406 904h70l-107 -143h-65l-108 143h70l67 -94h6zM520 700h70v-700h-70v321h-370v-321h-70v700h70v-314h370v314z" />
    <glyph glyph-name="uni0226" unicode="&#x226;" horiz-adv-x="629" 
d="M311 784q-23 0 -39 15.5t-16 38.5q0 22 16 37t39 15t38.5 -15t15.5 -37q0 -23 -15.5 -38.5t-38.5 -15.5zM527 0l-65 193h-295l-65 -193h-75l241 700h93l241 -700h-75zM188 256h252l-123 364h-6z" />
    <glyph glyph-name="uni0227" unicode="&#x227;" horiz-adv-x="513" 
d="M260 587q-21 0 -35.5 14t-14.5 35q0 20 15 34t35 14t34.5 -14t14.5 -34q0 -21 -14.5 -35t-34.5 -14zM436 110q0 -30 11.5 -42t36.5 -12v-56h-12q-75 0 -91 68q-28 -36 -75 -57t-95 -21q-70 0 -116.5 35.5t-46.5 101.5q0 147 227 165l97 8v13q0 64 -30 103t-87 39
q-54 0 -83.5 -31t-37.5 -76h-65q8 69 57 115.5t129 46.5q83 0 132 -52t49 -142v-206zM216 47q63 0 109.5 38.5t46.5 112.5v49l-93 -8q-77 -6 -120.5 -34t-43.5 -74q0 -42 29 -63t72 -21z" />
    <glyph glyph-name="uni0228" unicode="&#x228;" horiz-adv-x="559" 
d="M521 0h-186l-28 -46q37 8 70 -16t33 -67q0 -39 -25.5 -61t-72.5 -22q-43 0 -68 20t-32 40l32 22q27 -42 67 -42q24 0 39 13t15 34t-15.5 33.5t-46.5 12.5q-18 0 -40 -10l-19 24l41 65h-205v700h431v-65h-363v-249h324v-63h-324v-258h373v-65z" />
    <glyph glyph-name="uni0229" unicode="&#x229;" horiz-adv-x="550" 
d="M281 510q103 0 165 -70.5t55 -200.5h-388q4 -86 48 -137.5t127 -51.5q48 0 86.5 22.5t56.5 66.5h67q-20 -69 -74.5 -107.5t-126.5 -41.5l-22 -36q37 8 69.5 -15.5t32.5 -66.5q0 -38 -25.5 -60t-71.5 -22q-42 0 -67 20t-32 40l32 21q26 -41 66 -41q23 0 38 12.5t15 33.5
q0 46 -61 46q-19 0 -39 -10l-19 24l35 56q-94 13 -147 82.5t-53 179.5q0 111 65.5 183.5t167.5 72.5zM116 293h320q-2 68 -43 114t-112 46q-67 0 -111 -44t-54 -116z" />
    <glyph glyph-name="uni022E" unicode="&#x22e;" horiz-adv-x="812" 
d="M402 784q-23 0 -39 15.5t-16 38.5q0 22 16 37t39 15t38.5 -15t15.5 -37q0 -23 -15.5 -38.5t-38.5 -15.5zM407 -10q-147 0 -245 103t-98 257t98 257t244 103t244 -103t98 -257t-97.5 -257t-243.5 -103zM407 58q115 0 191.5 84t76.5 208t-77 208t-192 84
q-114 0 -191.5 -84.5t-77.5 -207.5t77.5 -207.5t192.5 -84.5z" />
    <glyph glyph-name="uni022F" unicode="&#x22f;" horiz-adv-x="591" 
d="M295 587q-21 0 -35.5 14t-14.5 35q0 20 15 34t35 14t34.5 -14t14.5 -34q0 -21 -14.5 -35t-34.5 -14zM296 -10q-109 0 -178.5 74.5t-69.5 186.5q0 111 68.5 185t177.5 74q108 0 178.5 -74.5t70.5 -186.5q0 -111 -69 -185t-178 -74zM295 51q79 0 129.5 58t50.5 141t-51 141
t-130 58q-78 0 -128 -58t-50 -141t49.5 -141t129.5 -58z" />
    <glyph glyph-name="uni0232" unicode="&#x232;" horiz-adv-x="633" 
d="M165 827h303v-55h-303v55zM520 700h87l-253 -359v-341h-74v341l-253 359h86l200 -282h7z" />
    <glyph glyph-name="uni0233" unicode="&#x233;" horiz-adv-x="540" 
d="M127 639h289v-52h-289v52zM434 500h70l-199 -579q-22 -63 -57.5 -97t-97.5 -34q-70 0 -106 41l29 48q36 -30 75 -30q64 0 95 92l21 59h-28l-199 500h74l168 -431h7z" />
    <glyph glyph-name="uni0237" unicode="&#x237;" horiz-adv-x="248" 
d="M-3 -125q27 -25 57 -25q53 0 53 69v581h66v-589q0 -57 -31 -89t-81 -32q-56 0 -92 36z" />
    <glyph glyph-name="circumflex" unicode="&#x2c6;" horiz-adv-x="429" 
d="M146 563h-67l103 137h62l104 -137h-67l-65 90h-6z" />
    <glyph glyph-name="caron" unicode="&#x2c7;" horiz-adv-x="429" 
d="M282 700h67l-103 -137h-62l-104 137h67l65 -90h6z" />
    <glyph glyph-name="breve" unicode="&#x2d8;" horiz-adv-x="409" 
d="M329 690q0 -45 -33.5 -80.5t-90.5 -35.5t-91 35.5t-34 80.5h57q0 -30 19 -49.5t49 -19.5q31 0 49 19t18 50h57z" />
    <glyph glyph-name="dotaccent" unicode="&#x2d9;" horiz-adv-x="258" 
d="M130 587q-21 0 -35.5 14t-14.5 35q0 20 15 34t35 14t34.5 -14t14.5 -34q0 -21 -14.5 -35t-34.5 -14z" />
    <glyph glyph-name="ring" unicode="&#x2da;" horiz-adv-x="348" 
d="M174 545q-38 0 -66 27.5t-28 65.5q0 37 28 64.5t66 27.5t66 -27.5t28 -64.5q0 -38 -28 -65.5t-66 -27.5zM175 588q20 0 33.5 14.5t13.5 35.5q0 20 -14 34t-33 14q-21 0 -35 -14t-14 -34q0 -21 14 -35.5t35 -14.5z" />
    <glyph glyph-name="ogonek" unicode="&#x2db;" horiz-adv-x="316" 
d="M180 14l23 -14q-31 -11 -52 -34t-21 -47q0 -38 38 -48.5t68 7.5v-49q-18 -10 -51 -10q-44 0 -74.5 24.5t-30.5 67.5q0 40 27.5 63.5t72.5 39.5z" />
    <glyph glyph-name="tilde" unicode="&#x2dc;" horiz-adv-x="473" 
d="M393 638q-6 -26 -31.5 -50.5t-63.5 -24.5q-33 0 -68.5 23t-54.5 23q-33 0 -52 -42l-43 20q7 26 31.5 50.5t63.5 24.5q33 0 68.5 -23t54.5 -23q34 0 52 41z" />
    <glyph glyph-name="hungarumlaut" unicode="&#x2dd;" horiz-adv-x="446" 
d="M149 683h74l-89 -128h-54zM292 683h73l-90 -128h-53z" />
    <glyph glyph-name="uni1E02" unicode="&#x1e02;" horiz-adv-x="583" 
d="M283 784q-23 0 -39 15.5t-16 38.5q0 22 16 37t39 15t38.5 -15t15.5 -37q0 -23 -15.5 -38.5t-38.5 -15.5zM400 366q136 -45 136 -177q0 -92 -61.5 -140.5t-159.5 -48.5h-235v700h207q100 0 159 -45t59 -128q0 -117 -105 -156v-5zM147 639v-248h141q72 0 110.5 34t38.5 95
q0 58 -40 88.5t-106 30.5h-144zM307 61q71 0 115 34t44 98q0 63 -43.5 101.5t-114.5 38.5h-161v-272h160z" />
    <glyph glyph-name="uni1E03" unicode="&#x1e03;" 
d="M307 787q-21 0 -35.5 14t-14.5 35q0 20 15 34t35 14t34.5 -14t14.5 -34q0 -21 -14.5 -35t-34.5 -14zM311 510q100 0 165 -73t65 -187t-64 -187t-163 -73q-109 0 -168 88h-8l-15 -78h-48v712h68v-297q47 95 168 95zM305 51q75 0 122.5 55.5t47.5 143.5t-47.5 143.5
t-122.5 55.5q-73 0 -118 -55t-45 -144t45 -144t118 -55z" />
    <glyph glyph-name="uni1E0A" unicode="&#x1e0a;" horiz-adv-x="682" 
d="M320 784q-23 0 -39 15.5t-16 38.5q0 22 16 37t39 15t38.5 -15t15.5 -37q0 -23 -15.5 -38.5t-38.5 -15.5zM273 700q170 0 257.5 -94.5t87.5 -251.5q0 -162 -85.5 -258t-259.5 -96h-193v700h193zM271 66q141 0 208.5 78t67.5 212q0 124 -67.5 201t-208.5 77h-121v-568h121z
" />
    <glyph glyph-name="uni1E0B" unicode="&#x1e0b;" 
d="M284 787q-21 0 -35.5 14t-14.5 35q0 20 15 34t35 14t34.5 -14t14.5 -34q0 -21 -14.5 -35t-34.5 -14zM446 712h68v-712h-48l-15 78h-8q-59 -88 -168 -88q-99 0 -163 73t-64 187t65 187t165 73q121 0 168 -95v297zM284 51q73 0 118 55t45 144t-45 144t-118 55
q-75 0 -122.5 -55.5t-47.5 -143.5t47.5 -143.5t122.5 -55.5z" />
    <glyph glyph-name="uni1E10" unicode="&#x1e10;" horiz-adv-x="682" 
d="M273 700q170 0 257.5 -94.5t87.5 -251.5q0 -162 -85.5 -258t-259.5 -96h-193v700h193zM271 66q141 0 208.5 78t67.5 212q0 124 -67.5 201t-208.5 77h-121v-568h121zM323 -62q27 0 41 -20t14 -51q0 -49 -27 -86t-64 -56l-18 24q54 41 54 85q-23 -3 -38.5 11t-15.5 37
q0 25 15 40.5t39 15.5z" />
    <glyph glyph-name="uni1E11" unicode="&#x1e11;" 
d="M446 712h68v-712h-48l-15 78h-8q-59 -88 -168 -88q-99 0 -163 73t-64 187t65 187t165 73q121 0 168 -95v297zM284 51q73 0 118 55t45 144t-45 144t-118 55q-75 0 -122.5 -55.5t-47.5 -143.5t47.5 -143.5t122.5 -55.5zM298 -63q26 0 39.5 -19t13.5 -49q0 -47 -26 -82
t-61 -54l-18 23q52 39 52 81q-22 -2 -37 11.5t-15 35.5q0 23 14.5 38t37.5 15z" />
    <glyph glyph-name="uni1E1E" unicode="&#x1e1e;" horiz-adv-x="528" 
d="M282 784q-23 0 -39 15.5t-16 38.5q0 22 16 37t39 15t38.5 -15t15.5 -37q0 -23 -15.5 -38.5t-38.5 -15.5zM491 634h-342v-251h300v-65h-300v-318h-69v700h411v-66z" />
    <glyph glyph-name="uni1E1F" unicode="&#x1e1f;" horiz-adv-x="363" 
d="M220 787q-21 0 -35.5 14t-14.5 35q0 20 15 34t35 14t34.5 -14t14.5 -34q0 -21 -14.5 -35t-34.5 -14zM189 581v-81h124v-56h-124v-444h-66v444h-86v56h86v89q0 57 31 89t81 32q56 0 92 -36l-28 -49q-27 25 -57 25q-53 0 -53 -69z" />
    <glyph glyph-name="uni1E20" unicode="&#x1e20;" horiz-adv-x="742" 
d="M224 827h303v-55h-303v55zM359 355h299v-355h-46l-14 79h-6q-92 -89 -220 -89q-145 0 -226.5 96.5t-81.5 246.5q0 164 88.5 270.5t227.5 106.5q120 0 190.5 -59t88.5 -155h-73q-17 63 -67.5 105t-135.5 42q-109 0 -178 -86t-69 -219q0 -124 64 -203.5t183 -79.5
q67 0 120.5 29.5t84.5 66.5v144h-229v60z" />
    <glyph glyph-name="uni1E22" unicode="&#x1e22;" horiz-adv-x="670" 
d="M331 784q-23 0 -39 15.5t-16 38.5q0 22 16 37t39 15t38.5 -15t15.5 -37q0 -23 -15.5 -38.5t-38.5 -15.5zM520 700h70v-700h-70v321h-370v-321h-70v700h70v-314h370v314z" />
    <glyph glyph-name="uni1E23" unicode="&#x1e23;" horiz-adv-x="557" 
d="M282 787q-21 0 -35.5 14t-14.5 35q0 20 15 34t35 14t34.5 -14t14.5 -34q0 -21 -14.5 -35t-34.5 -14zM297 510q91 0 140.5 -55.5t49.5 -154.5v-300h-66v278q0 81 -36 125t-104 44q-54 0 -95 -40.5t-41 -107.5v-299h-70v710h70v-271h6q23 29 61.5 50t84.5 21z" />
    <glyph glyph-name="uni1E26" unicode="&#x1e26;" horiz-adv-x="670" 
d="M221 771q-21 0 -36.5 15.5t-15.5 36.5q0 22 15.5 37.5t36.5 15.5q22 0 37.5 -15.5t15.5 -37.5q0 -21 -15.5 -36.5t-37.5 -15.5zM449 771q-21 0 -36 15.5t-15 36.5q0 22 15 37.5t36 15.5t36.5 -15.5t15.5 -37.5q0 -21 -15.5 -36.5t-36.5 -15.5zM520 700h70v-700h-70v321
h-370v-321h-70v700h70v-314h370v314z" />
    <glyph glyph-name="uni1E27" unicode="&#x1e27;" horiz-adv-x="557" 
d="M195 764q-19 0 -33 14t-14 34t14 34t33 14t33 -14t14 -34t-14 -34t-33 -14zM371 764q-19 0 -33 14.5t-14 33.5t14 33.5t33 14.5t33 -14t14 -34t-14 -34t-33 -14zM297 510q91 0 140.5 -55.5t49.5 -154.5v-300h-66v278q0 81 -36 125t-104 44q-54 0 -95 -40.5t-41 -107.5
v-299h-70v710h70v-271h6q23 29 61.5 50t84.5 21z" />
    <glyph glyph-name="uni1E28" unicode="&#x1e28;" horiz-adv-x="670" 
d="M520 700h70v-700h-70v321h-370v-321h-8l-28 -46q37 8 70 -16t33 -67q0 -39 -25.5 -61t-72.5 -22q-43 0 -68 20t-32 40l32 22q27 -42 67 -42q24 0 39 13t15 34t-15.5 33.5t-46.5 12.5q-18 0 -40 -10l-19 24l41 65h-12v700h70v-314h370v314z" />
    <glyph glyph-name="uni1E29" unicode="&#x1e29;" horiz-adv-x="557" 
d="M297 510q91 0 140.5 -55.5t49.5 -154.5v-300h-66v278q0 81 -36 125t-104 44q-54 0 -95 -40.5t-41 -107.5v-299h-11l-28 -46q37 8 69.5 -15.5t32.5 -66.5q0 -38 -25.5 -60t-71.5 -22q-42 0 -67 20t-32 40l32 21q26 -41 66 -41q23 0 38 12.5t15 33.5q0 46 -61 46
q-19 0 -39 -10l-19 24l40 64h-9v710h70v-271h6q23 29 61.5 50t84.5 21z" />
    <glyph glyph-name="uni1E40" unicode="&#x1e40;" horiz-adv-x="842" 
d="M417 784q-23 0 -39 15.5t-16 38.5q0 22 16 37t39 15t38.5 -15t15.5 -37q0 -23 -15.5 -38.5t-38.5 -15.5zM762 700v-700h-69v603h-7l-224 -543h-81l-225 543h-7v-603h-69v700h106l232 -557h7l231 557h106z" />
    <glyph glyph-name="uni1E41" unicode="&#x1e41;" horiz-adv-x="826" 
d="M417 587q-21 0 -35.5 14t-14.5 35q0 20 15 34t35 14t34.5 -14t14.5 -34q0 -21 -14.5 -35t-34.5 -14zM588 509q77 0 122.5 -50t45.5 -148v-311h-67v306q0 70 -32 106t-83 36q-50 0 -87 -39t-37 -107v-302h-68v299q0 71 -33 110t-82 39q-48 0 -86 -37t-38 -105v-306h-68
v500h49l13 -64h7q19 31 55.5 52.5t84.5 21.5q56 0 92.5 -30.5t50.5 -67.5h7q19 41 58 69t96 28z" />
    <glyph glyph-name="uni1E44" unicode="&#x1e44;" horiz-adv-x="717" 
d="M354 784q-23 0 -39 15.5t-16 38.5q0 22 16 37t39 15t38.5 -15t15.5 -37q0 -23 -15.5 -38.5t-38.5 -15.5zM567 700h70v-700h-83l-398 589h-7v-589h-69v700h86l394 -586h7v586z" />
    <glyph glyph-name="uni1E45" unicode="&#x1e45;" horiz-adv-x="545" 
d="M273 587q-21 0 -35.5 14t-14.5 35q0 20 15 34t35 14t34.5 -14t14.5 -34q0 -21 -14.5 -35t-34.5 -14zM297 510q78 0 128 -53.5t50 -149.5v-307h-68v292q0 77 -36 116.5t-96 39.5q-54 0 -92 -37.5t-38 -111.5v-299h-70v500h49l13 -64h6q50 74 154 74z" />
    <glyph glyph-name="uni1E56" unicode="&#x1e56;" horiz-adv-x="606" 
d="M290 784q-23 0 -39 15.5t-16 38.5q0 22 16 37t39 15t38.5 -15t15.5 -37q0 -23 -15.5 -38.5t-38.5 -15.5zM324 700q99 0 158.5 -57.5t59.5 -147.5q0 -97 -61 -152.5t-165 -55.5h-168v-287h-68v700h244zM306 350q77 0 120.5 37.5t43.5 107.5q0 67 -43 104.5t-113 37.5h-166
v-287h158z" />
    <glyph glyph-name="uni1E57" unicode="&#x1e57;" 
d="M297 587q-21 0 -35.5 14t-14.5 35q0 20 15 34t35 14t34.5 -14t14.5 -34q0 -21 -14.5 -35t-34.5 -14zM314 510q99 0 163 -73t64 -187t-65 -187t-165 -73q-122 0 -169 97v-287h-67v700h48l15 -78h8q59 88 168 88zM305 51q75 0 122.5 55.5t47.5 143.5t-47.5 143.5
t-122.5 55.5q-73 0 -118 -55t-45 -144t45 -144t118 -55z" />
    <glyph glyph-name="uni1E58" unicode="&#x1e58;" horiz-adv-x="601" 
d="M295 784q-23 0 -39 15.5t-16 38.5q0 22 16 37t39 15t38.5 -15t15.5 -37q0 -23 -15.5 -38.5t-38.5 -15.5zM563 0h-80l-181 300h-8h-146v-300h-68v700h224q104 0 165 -54t61 -145q0 -71 -42 -121.5t-114 -69.5zM148 635v-270h145q79 0 122 37t43 100q0 64 -43.5 98.5
t-121.5 34.5h-145z" />
    <glyph glyph-name="uni1E59" unicode="&#x1e59;" horiz-adv-x="353" 
d="M199 587q-21 0 -35.5 14t-14.5 35q0 20 15 34t35 14t34.5 -14t14.5 -34q0 -21 -14.5 -35t-34.5 -14zM286 510h30v-69q-21 3 -35 3q-57 0 -98 -42t-41 -123v-279h-67v500h49l12 -70h7q51 80 143 80z" />
    <glyph glyph-name="uni1E60" unicode="&#x1e60;" horiz-adv-x="608" 
d="M302 784q-23 0 -39 15.5t-16 38.5q0 22 16 37t39 15t38.5 -15t15.5 -37q0 -23 -15.5 -38.5t-38.5 -15.5zM544 171q0 -88 -63 -134.5t-164 -46.5q-121 0 -185 59.5t-68 154.5h73q4 -67 46.5 -109t131.5 -42q69 0 112.5 29.5t43.5 87.5q0 53 -37.5 89t-138.5 68
q-101 33 -155.5 76t-54.5 120q0 84 61 135.5t155 51.5q105 0 167 -60t64 -143h-69q-4 56 -44.5 97.5t-119.5 41.5q-64 0 -102.5 -34t-38.5 -85q0 -52 40 -82t130 -58q110 -35 163 -86.5t53 -129.5z" />
    <glyph glyph-name="uni1E61" unicode="&#x1e61;" horiz-adv-x="455" 
d="M229 587q-21 0 -35.5 14t-14.5 35q0 20 15 34t35 14t34.5 -14t14.5 -34q0 -21 -14.5 -35t-34.5 -14zM407 125q0 -63 -49 -99t-125 -36q-84 0 -135.5 47.5t-49.5 119.5h65q0 -56 37.5 -84t84.5 -28q45 0 75 21.5t30 59.5q0 39 -33 62.5t-93 42.5q-67 21 -108 54t-41 90
q0 61 46 98t118 37q76 0 120.5 -43t44.5 -101h-63q-2 39 -31.5 64t-74.5 25q-39 0 -66.5 -20.5t-27.5 -55.5t28.5 -57t83.5 -40q80 -27 122 -60.5t42 -96.5z" />
    <glyph glyph-name="uni1E7C" unicode="&#x1e7c;" horiz-adv-x="649" 
d="M489 850q-7 -27 -33.5 -53t-66.5 -26q-35 0 -72 24t-57 24q-33 0 -55 -44l-45 21q7 27 33 53t67 26q34 0 72 -24t57 -24q35 0 55 43zM546 700h76l-248 -700h-100l-247 700h76l217 -622h8z" />
    <glyph glyph-name="uni1E7D" unicode="&#x1e7d;" horiz-adv-x="542" 
d="M428 638q-6 -26 -31.5 -50.5t-63.5 -24.5q-33 0 -68.5 23t-54.5 23q-33 0 -52 -42l-43 20q7 26 31.5 50.5t63.5 24.5q33 0 68.5 -23t54.5 -23q34 0 52 41zM434 500h72l-186 -500h-99l-185 500h72l159 -438h7z" />
    <glyph glyph-name="Wgrave" unicode="&#x1e80;" horiz-adv-x="882" 
d="M422 898l60 -134h-51l-97 134h88zM787 700h68l-148 -700h-108l-154 560h-7l-155 -560h-108l-148 700h71l131 -621h6l158 571h96l158 -571h7z" />
    <glyph glyph-name="wgrave" unicode="&#x1e81;" horiz-adv-x="709" 
d="M324 683l57 -128h-48l-93 128h84zM608 500h65l-115 -500h-92l-108 394h-6l-110 -394h-90l-116 500h65l96 -432h7l108 394h86l108 -394h7z" />
    <glyph glyph-name="Wacute" unicode="&#x1e82;" horiz-adv-x="882" 
d="M466 898h88l-97 -134h-51zM787 700h68l-148 -700h-108l-154 560h-7l-155 -560h-108l-148 700h71l131 -621h6l158 571h96l158 -571h7z" />
    <glyph glyph-name="wacute" unicode="&#x1e83;" horiz-adv-x="709" 
d="M385 683h84l-93 -128h-48zM608 500h65l-115 -500h-92l-108 394h-6l-110 -394h-90l-116 500h65l96 -432h7l108 394h86l108 -394h7z" />
    <glyph glyph-name="Wdieresis" unicode="&#x1e84;" horiz-adv-x="882" 
d="M327 771q-21 0 -36.5 15.5t-15.5 36.5q0 22 15.5 37.5t36.5 15.5q22 0 37.5 -15.5t15.5 -37.5q0 -21 -15.5 -36.5t-37.5 -15.5zM555 771q-21 0 -36 15.5t-15 36.5q0 22 15 37.5t36 15.5t36.5 -15.5t15.5 -37.5q0 -21 -15.5 -36.5t-36.5 -15.5zM787 700h68l-148 -700h-108
l-154 560h-7l-155 -560h-108l-148 700h71l131 -621h6l158 571h96l158 -571h7z" />
    <glyph glyph-name="wdieresis" unicode="&#x1e85;" horiz-adv-x="709" 
d="M268 564q-19 0 -33 14t-14 34t14 34t33 14t33 -14t14 -34t-14 -34t-33 -14zM444 564q-19 0 -33 14.5t-14 33.5t14 33.5t33 14.5t33 -14t14 -34t-14 -34t-33 -14zM608 500h65l-115 -500h-92l-108 394h-6l-110 -394h-90l-116 500h65l96 -432h7l108 394h86l108 -394h7z" />
    <glyph glyph-name="uni1E8C" unicode="&#x1e8c;" horiz-adv-x="595" 
d="M184 771q-21 0 -36.5 15.5t-15.5 36.5q0 22 15.5 37.5t36.5 15.5q22 0 37.5 -15.5t15.5 -37.5q0 -21 -15.5 -36.5t-37.5 -15.5zM412 771q-21 0 -36 15.5t-15 36.5q0 22 15 37.5t36 15.5t36.5 -15.5t15.5 -37.5q0 -21 -15.5 -36.5t-36.5 -15.5zM486 0l-184 299h-7
l-184 -299h-84l223 361l-213 339h84l174 -279h7l174 279h82l-213 -339l223 -361h-82z" />
    <glyph glyph-name="uni1E8D" unicode="&#x1e8d;" horiz-adv-x="507" 
d="M166 564q-19 0 -33 14t-14 34t14 34t33 14t33 -14t14 -34t-14 -34t-33 -14zM342 564q-19 0 -33 14.5t-14 33.5t14 33.5t33 14.5t33 -14t14 -34t-14 -34t-33 -14zM393 0l-136 205h-7l-136 -205h-78l171 262l-154 238h78l120 -185h7l118 185h77l-152 -238l170 -262h-78z
" />
    <glyph glyph-name="uni1E90" unicode="&#x1e90;" horiz-adv-x="605" 
d="M240 771h-70l107 143h65l108 -143h-70l-67 94h-6zM167 66h364v-66h-467v44l374 586v5h-346v65h445v-44l-370 -585v-5z" />
    <glyph glyph-name="uni1E97" unicode="&#x1e97;" horiz-adv-x="354" 
d="M84 690q-19 0 -33 14t-14 34t14 34t33 14t33 -14t14 -34t-14 -34t-33 -14zM260 690q-19 0 -33 14.5t-14 33.5t14 33.5t33 14.5t33 -14t14 -34t-14 -34t-33 -14zM315 11q-31 -21 -73 -21q-48 0 -78.5 28t-30.5 92v334h-96v48h28q40 0 58 16.5t18 54.5v63h59v-126h117v-56
h-117v-328q0 -65 53 -65q21 0 41 13z" />
    <glyph glyph-name="uni1E98" unicode="&#x1e98;" horiz-adv-x="709" 
d="M355 545q-38 0 -66 27.5t-28 65.5q0 37 28 64.5t66 27.5t66 -27.5t28 -64.5q0 -38 -28 -65.5t-66 -27.5zM356 588q20 0 33.5 14.5t13.5 35.5q0 20 -14 34t-33 14q-21 0 -35 -14t-14 -34q0 -21 14 -35.5t35 -14.5zM608 500h65l-115 -500h-92l-108 394h-6l-110 -394h-90
l-116 500h65l96 -432h7l108 394h86l108 -394h7z" />
    <glyph glyph-name="uni1E99" unicode="&#x1e99;" horiz-adv-x="540" 
d="M271 545q-38 0 -66 27.5t-28 65.5q0 37 28 64.5t66 27.5t66 -27.5t28 -64.5q0 -38 -28 -65.5t-66 -27.5zM272 588q20 0 33.5 14.5t13.5 35.5q0 20 -14 34t-33 14q-21 0 -35 -14t-14 -34q0 -21 14 -35.5t35 -14.5zM434 500h70l-199 -579q-22 -63 -57.5 -97t-97.5 -34
q-70 0 -106 41l29 48q36 -30 75 -30q64 0 95 92l21 59h-28l-199 500h74l168 -431h7z" />
    <glyph glyph-name="uni1E9E" unicode="&#x1e9e;" horiz-adv-x="1211" 
d="M544 171q0 -88 -63 -134.5t-164 -46.5q-121 0 -185 59.5t-68 154.5h73q4 -67 46.5 -109t131.5 -42q69 0 112.5 29.5t43.5 87.5q0 53 -37.5 89t-138.5 68q-101 33 -155.5 76t-54.5 120q0 84 61 135.5t155 51.5q105 0 167 -60t64 -143h-69q-4 56 -44.5 97.5t-119.5 41.5
q-64 0 -102.5 -34t-38.5 -85q0 -52 40 -82t130 -58q110 -35 163 -86.5t53 -129.5zM1147 171q0 -88 -63 -134.5t-164 -46.5q-121 0 -185 59.5t-68 154.5h73q4 -67 46.5 -109t131.5 -42q69 0 112.5 29.5t43.5 87.5q0 53 -37.5 89t-138.5 68q-101 33 -155.5 76t-54.5 120
q0 84 61 135.5t155 51.5q105 0 167 -60t64 -143h-69q-4 56 -44.5 97.5t-119.5 41.5q-64 0 -102.5 -34t-38.5 -85q0 -52 40 -82t130 -58q110 -35 163 -86.5t53 -129.5z" />
    <glyph glyph-name="uni1EA0" unicode="&#x1ea0;" horiz-adv-x="629" 
d="M602 0h-75l-65 193h-295l-65 -193h-75l241 700h93zM188 256h252l-123 364h-6zM316 -84q23 0 38.5 -15t15.5 -37q0 -23 -15.5 -38.5t-38.5 -15.5t-39 15.5t-16 38.5q0 22 16 37t39 15z" />
    <glyph glyph-name="uni1EA1" unicode="&#x1ea1;" horiz-adv-x="513" 
d="M436 110q0 -30 11.5 -42t36.5 -12v-56h-12q-75 0 -91 68q-28 -36 -75 -57t-95 -21q-70 0 -116.5 35.5t-46.5 101.5q0 147 227 165l97 8v13q0 64 -30 103t-87 39q-54 0 -83.5 -31t-37.5 -76h-65q8 69 57 115.5t129 46.5q83 0 132 -52t49 -142v-206zM216 47
q63 0 109.5 38.5t46.5 112.5v49l-93 -8q-77 -6 -120.5 -34t-43.5 -74q0 -42 29 -63t72 -21zM261 -87q20 0 34.5 -14t14.5 -34q0 -21 -14.5 -35t-34.5 -14q-21 0 -35.5 14t-14.5 35q0 20 15 34t35 14z" />
    <glyph glyph-name="uni1EB8" unicode="&#x1eb8;" horiz-adv-x="559" 
d="M148 65h373v-65h-441v700h431v-65h-363v-249h324v-63h-324v-258zM310 -190q-23 0 -39 15.5t-16 38.5q0 22 16 37t39 15t38.5 -15t15.5 -37q0 -23 -15.5 -38.5t-38.5 -15.5z" />
    <glyph glyph-name="uni1EB9" unicode="&#x1eb9;" horiz-adv-x="550" 
d="M281 510q103 0 165 -70.5t55 -200.5h-388q4 -86 48 -137.5t127 -51.5q48 0 86.5 22.5t56.5 66.5h67q-20 -72 -78 -110.5t-133 -38.5q-111 0 -175 71t-64 193q0 111 65.5 183.5t167.5 72.5zM116 293h320q-2 68 -43 114t-112 46q-67 0 -111 -44t-54 -116zM279 -87
q20 0 34.5 -14t14.5 -34q0 -21 -14.5 -35t-34.5 -14q-21 0 -35.5 14t-14.5 35q0 20 15 34t35 14z" />
    <glyph glyph-name="uni1EBC" unicode="&#x1ebc;" horiz-adv-x="559" 
d="M460 850q-7 -27 -33.5 -53t-66.5 -26q-34 0 -72 24t-57 24q-33 0 -55 -44l-45 21q7 27 33 53t67 26q35 0 72 -24t57 -24q35 0 55 43zM148 65h373v-65h-441v700h431v-65h-363v-249h324v-63h-324v-258z" />
    <glyph glyph-name="uni1EBD" unicode="&#x1ebd;" horiz-adv-x="550" 
d="M218 609q-33 0 -52 -42l-43 20q7 26 31.5 50.5t63.5 24.5q33 0 68.5 -23t54.5 -23q34 0 52 41l43 -19q-6 -26 -31.5 -50.5t-63.5 -24.5q-33 0 -68.5 23t-54.5 23zM281 510q103 0 165 -70.5t55 -200.5h-388q4 -86 48 -137.5t127 -51.5q48 0 86.5 22.5t56.5 66.5h67
q-20 -72 -78 -110.5t-133 -38.5q-111 0 -175 71t-64 193q0 111 65.5 183.5t167.5 72.5zM116 293h320q-2 68 -43 114t-112 46q-67 0 -111 -44t-54 -116z" />
    <glyph glyph-name="uni1ECA" unicode="&#x1eca;" horiz-adv-x="232" 
d="M152 700v-700h-72v700h72zM117 -190q-23 0 -39 15.5t-16 38.5q0 22 16 37t39 15t38.5 -15t15.5 -37q0 -23 -15.5 -38.5t-38.5 -15.5z" />
    <glyph glyph-name="uni1ECB" unicode="&#x1ecb;" horiz-adv-x="217" 
d="M109 587q-21 0 -35.5 14t-14.5 35q0 20 15 34t35 14t34.5 -14t14.5 -34q0 -21 -14.5 -35t-34.5 -14zM143 500v-500h-68v500h68zM109 -184q-21 0 -35.5 14t-14.5 35q0 20 15 34t35 14t34.5 -14t14.5 -34q0 -21 -14.5 -35t-34.5 -14z" />
    <glyph glyph-name="uni1ECC" unicode="&#x1ecc;" horiz-adv-x="812" 
d="M407 -10q-147 0 -245 103t-98 257t98 257t244 103t244 -103t98 -257t-97.5 -257t-243.5 -103zM407 58q115 0 191.5 84t76.5 208t-77 208t-192 84q-114 0 -191.5 -84.5t-77.5 -207.5t77.5 -207.5t192.5 -84.5zM407 -190q-23 0 -39 15.5t-16 38.5q0 22 16 37t39 15
t38.5 -15t15.5 -37q0 -23 -15.5 -38.5t-38.5 -15.5z" />
    <glyph glyph-name="uni1ECD" unicode="&#x1ecd;" horiz-adv-x="591" 
d="M296 -10q-109 0 -178.5 74.5t-69.5 186.5q0 111 68.5 185t177.5 74q108 0 178.5 -74.5t70.5 -186.5q0 -111 -69 -185t-178 -74zM295 51q79 0 129.5 58t50.5 141t-51 141t-130 58q-78 0 -128 -58t-50 -141t49.5 -141t129.5 -58zM295 -184q-21 0 -35.5 14t-14.5 35
q0 20 15 34t35 14t34.5 -14t14.5 -34q0 -21 -14.5 -35t-34.5 -14z" />
    <glyph glyph-name="uni1EE4" unicode="&#x1ee4;" horiz-adv-x="693" 
d="M613 700v-433q0 -132 -74.5 -204.5t-190.5 -72.5t-192 72.5t-76 204.5v433h73v-427q0 -104 55.5 -159t139.5 -55t138 55t54 159v427h73zM348 -190q-23 0 -39 15.5t-16 38.5q0 22 16 37t39 15t38.5 -15t15.5 -37q0 -23 -15.5 -38.5t-38.5 -15.5z" />
    <glyph glyph-name="uni1EE5" unicode="&#x1ee5;" horiz-adv-x="545" 
d="M249 -10q-78 0 -128 53.5t-50 149.5v307h69v-292q0 -77 35.5 -116.5t95.5 -39.5q54 0 92 37.5t38 111.5v299h69v-500h-49l-12 64h-7q-50 -74 -153 -74zM270 -184q-21 0 -35.5 14t-14.5 35q0 20 15 34t35 14t34.5 -14t14.5 -34q0 -21 -14.5 -35t-34.5 -14z" />
    <glyph glyph-name="Ygrave" unicode="&#x1ef2;" horiz-adv-x="633" 
d="M298 898l60 -134h-51l-97 134h88zM520 700h87l-253 -359v-341h-74v341l-253 359h86l200 -282h7z" />
    <glyph glyph-name="ygrave" unicode="&#x1ef3;" horiz-adv-x="540" 
d="M240 683l57 -128h-48l-93 128h84zM434 500h70l-199 -579q-22 -63 -57.5 -97t-97.5 -34q-70 0 -106 41l29 48q36 -30 75 -30q64 0 95 92l21 59h-28l-199 500h74l168 -431h7z" />
    <glyph glyph-name="uni1EF8" unicode="&#x1ef8;" horiz-adv-x="633" 
d="M481 850q-7 -27 -33.5 -53t-66.5 -26q-35 0 -72 24t-57 24q-33 0 -55 -44l-45 21q7 27 33 53t67 26q34 0 72 -24t57 -24q35 0 55 43zM520 700h87l-253 -359v-341h-74v341l-253 359h86l200 -282h7z" />
    <glyph glyph-name="uni1EF9" unicode="&#x1ef9;" horiz-adv-x="540" 
d="M428 638q-6 -26 -31.5 -50.5t-63.5 -24.5q-33 0 -68.5 23t-54.5 23q-33 0 -52 -42l-43 20q7 26 31.5 50.5t63.5 24.5q33 0 68.5 -23t54.5 -23q34 0 52 41zM434 500h70l-199 -579q-22 -63 -57.5 -97t-97.5 -34q-70 0 -106 41l29 48q36 -30 75 -30q64 0 95 92l21 59h-28
l-199 500h74l168 -431h7z" />
    <glyph glyph-name="uni200B" unicode="&#x200b;" horiz-adv-x="0" 
 />
    <glyph glyph-name="endash" unicode="&#x2013;" horiz-adv-x="509" 
d="M37 341h435v-60h-435v60z" />
    <glyph glyph-name="emdash" unicode="&#x2014;" horiz-adv-x="834" 
d="M797 341v-60h-760v60h760z" />
    <glyph glyph-name="quoteleft" unicode="&#x2018;" horiz-adv-x="195" 
d="M98 534q-24 0 -36.5 17.5t-12.5 46.5q0 45 23.5 78.5t56.5 51.5l16 -22q-47 -37 -47 -77q20 2 33.5 -11t13.5 -34q0 -22 -13 -36t-34 -14z" />
    <glyph glyph-name="quoteright" unicode="&#x2019;" horiz-adv-x="195" 
d="M98 721q24 0 36.5 -17.5t12.5 -46.5q0 -45 -23.5 -78.5t-56.5 -51.5l-16 22q47 37 47 77q-20 -2 -33.5 11t-13.5 34q0 22 13 36t34 14z" />
    <glyph glyph-name="quotesinglbase" unicode="&#x201a;" horiz-adv-x="231" 
d="M115 89q24 0 36.5 -17.5t12.5 -46.5q0 -45 -23.5 -78.5t-56.5 -51.5l-16 22q47 37 47 77q-20 -2 -33.5 11t-13.5 34q0 22 13 36t34 14z" />
    <glyph glyph-name="quotedblleft" unicode="&#x201c;" horiz-adv-x="327" 
d="M98 534q-24 0 -36.5 17.5t-12.5 46.5q0 45 23.5 78.5t56.5 51.5l16 -22q-47 -37 -47 -77q20 2 33.5 -11t13.5 -34q0 -22 -13 -36t-34 -14zM230 534q-24 0 -36.5 17.5t-12.5 46.5q0 45 23.5 78.5t56.5 51.5l16 -22q-47 -37 -47 -77q20 2 33.5 -11t13.5 -34q0 -22 -13 -36
t-34 -14z" />
    <glyph glyph-name="quotedblright" unicode="&#x201d;" horiz-adv-x="328" 
d="M98 721q24 0 36.5 -17.5t12.5 -46.5q0 -45 -23.5 -78.5t-56.5 -51.5l-16 22q47 37 47 77q-20 -2 -33.5 11t-13.5 34q0 22 13 36t34 14zM230 721q24 0 36.5 -17.5t12.5 -46.5q0 -45 -23.5 -78.5t-56.5 -51.5l-16 22q47 37 47 77q-20 -2 -33.5 11t-13.5 34q0 22 13 36
t34 14z" />
    <glyph glyph-name="quotedblbase" unicode="&#x201e;" horiz-adv-x="363" 
d="M115 89q24 0 36.5 -17.5t12.5 -46.5q0 -45 -23.5 -78.5t-56.5 -51.5l-16 22q47 37 47 77q-20 -2 -33.5 11t-13.5 34q0 22 13 36t34 14zM247 89q24 0 36.5 -17.5t12.5 -46.5q0 -45 -23.5 -78.5t-56.5 -51.5l-16 22q47 37 47 77q-20 -2 -33.5 11t-13.5 34q0 22 13 36t34 14
z" />
    <glyph glyph-name="dagger" unicode="&#x2020;" horiz-adv-x="487" 
d="M449 500v-58h-173v-582h-66v582h-173v58h173v200h66v-200h173z" />
    <glyph glyph-name="daggerdbl" unicode="&#x2021;" horiz-adv-x="487" 
d="M449 442h-173v-324h173v-58h-173v-200h-66v200h-173v58h173v324h-173v58h173v200h66v-200h173v-58z" />
    <glyph glyph-name="bullet" unicode="&#x2022;" horiz-adv-x="177" 
d="M90 256q-22 0 -37.5 15.5t-15.5 35.5q0 22 15.5 37t37.5 15q20 0 35 -15t15 -37q0 -20 -15 -35.5t-35 -15.5z" />
    <glyph glyph-name="ellipsis" unicode="&#x2026;" horiz-adv-x="680" 
d="M118 -9q-22 0 -37.5 15.5t-15.5 35.5q0 22 15.5 37t37.5 15q20 0 35 -15t15 -37q0 -20 -15 -35.5t-35 -15.5zM342 -9q-22 0 -37.5 15.5t-15.5 35.5q0 22 15.5 37t37.5 15q20 0 35 -15t15 -37q0 -20 -15 -35.5t-35 -15.5zM565 -9q-22 0 -37.5 15.5t-15.5 35.5
q0 22 15.5 37t37.5 15q20 0 35 -15t15 -37q0 -20 -15 -35.5t-35 -15.5z" />
    <glyph glyph-name="perthousand" unicode="&#x2030;" horiz-adv-x="1120" 
d="M214 350q-62 0 -106 44t-44 106t44 106t106 44q61 0 105.5 -44.5t44.5 -105.5t-44.5 -105.5t-105.5 -44.5zM657 640l-464 -640h-76l465 640h75zM214 410q39 0 64.5 25.5t25.5 64.5t-25.5 64.5t-64.5 25.5q-38 0 -63.5 -25.5t-25.5 -64.5t25.5 -64.5t63.5 -25.5zM566 -10
q-62 0 -106 44t-44 106t44 106t106 44q61 0 105.5 -44.5t44.5 -105.5t-44.5 -105.5t-105.5 -44.5zM922 -10q-62 0 -106 44t-44 106t44 106t106 44q61 0 105.5 -44.5t44.5 -105.5t-44.5 -105.5t-105.5 -44.5zM566 50q39 0 64.5 25.5t25.5 64.5t-25.5 64.5t-64.5 25.5
q-38 0 -63.5 -25.5t-25.5 -64.5t25.5 -64.5t63.5 -25.5zM922 50q39 0 64.5 25.5t25.5 64.5t-25.5 64.5t-64.5 25.5q-38 0 -63.5 -25.5t-25.5 -64.5t25.5 -64.5t63.5 -25.5z" />
    <glyph glyph-name="guilsinglleft" unicode="&#x2039;" horiz-adv-x="283" 
d="M158 97l-131 202l131 202h77l-133 -202l133 -202h-77z" />
    <glyph glyph-name="guilsinglright" unicode="&#x203a;" horiz-adv-x="283" 
d="M125 97h-77l133 202l-133 202h77l131 -202z" />
    <glyph glyph-name="uni2042" unicode="&#x2042;" horiz-adv-x="818" 
d="M535 437l-103 63l3 -120h-52l2 120l-102 -63l-25 46l105 57l-105 57l25 46l102 -63l-2 120h52l-3 -120l103 63l25 -46l-105 -57l105 -57zM325 263l25 -46l-105 -57l105 -57l-25 -46l-103 63l3 -120h-52l2 120l-102 -63l-25 46l105 57l-105 57l25 46l102 -63l-2 120h52
l-3 -120zM770 217l-105 -57l105 -57l-25 -46l-103 63l3 -120h-52l2 120l-102 -63l-25 46l105 57l-105 57l25 46l102 -63l-2 120h52l-3 -120l103 63z" />
    <glyph glyph-name="fraction" unicode="&#x2044;" horiz-adv-x="284" 
d="M421 640l-498 -640h-59l498 640h59z" />
    <glyph glyph-name="uni2051" unicode="&#x2051;" horiz-adv-x="398" 
d="M350 597l-105 -57l105 -57l-25 -46l-103 63l3 -120h-52l2 120l-102 -63l-25 46l105 57l-105 57l25 46l102 -63l-2 120h52l-3 -120l103 63zM325 263l25 -46l-105 -57l105 -57l-25 -46l-103 63l3 -120h-52l2 120l-102 -63l-25 46l105 57l-105 57l25 46l102 -63l-2 120h52
l-3 -120z" />
    <glyph glyph-name="uni2070" unicode="&#x2070;" horiz-adv-x="367" 
d="M184 337q-66 0 -108 51t-42 144t42 144.5t107 51.5t107.5 -52t42.5 -145q0 -92 -42 -143t-107 -51zM184 387q44 0 70.5 37t26.5 107q0 69 -26.5 107t-71.5 38t-71.5 -38t-26.5 -108q0 -69 27 -106t72 -37z" />
    <glyph glyph-name="uni2074" unicode="&#x2074;" horiz-adv-x="359" 
d="M335 465v-44h-63v-81h-47v81h-196v31l171 273h72v-260h63zM88 465h137v207h-5z" />
    <glyph glyph-name="uni2075" unicode="&#x2075;" horiz-adv-x="347" 
d="M178 592q61 0 98 -36.5t37 -95.5q0 -56 -39 -90.5t-101 -34.5q-65 0 -102 36t-37 84h48q2 -35 27.5 -57t63.5 -22q40 0 66 24.5t26 60.5q0 39 -25 65t-67 26q-56 0 -87 -45l-45 12l22 206h230v-44h-190l-13 -119q36 30 88 30z" />
    <glyph glyph-name="uni2076" unicode="&#x2076;" horiz-adv-x="355" 
d="M188 583q58 0 96 -34.5t38 -88.5q0 -56 -40 -90.5t-104 -34.5t-104 36t-40 97q0 47 54 125l93 132h59l-117 -156q31 14 65 14zM179 376q45 0 70.5 24t25.5 60q0 35 -25.5 58.5t-70.5 23.5t-71 -23.5t-26 -58.5q0 -36 26 -60t71 -24z" />
    <glyph glyph-name="uni2077" unicode="&#x2077;" horiz-adv-x="325" 
d="M29 725h272v-34q-156 -128 -166 -351h-49q9 222 141 341h-198v44z" />
    <glyph glyph-name="uni2078" unicode="&#x2078;" horiz-adv-x="369" 
d="M252 547q36 -8 59.5 -35.5t23.5 -64.5q0 -54 -42 -83t-110 -29q-66 0 -107.5 29t-41.5 83q0 38 24 64t59 36v4q-28 10 -46 31.5t-18 47.5q0 44 37 72t94 28q58 0 95.5 -28.5t37.5 -71.5q0 -27 -18 -48t-47 -31v-4zM184 691q-36 0 -58.5 -16.5t-22.5 -44.5q0 -30 24 -47.5
t56 -17.5q34 0 59.5 17.5t25.5 47.5q0 28 -24 44.5t-60 16.5zM182 375q47 0 74.5 18.5t27.5 52.5q0 31 -26 55t-75 24q-48 0 -72.5 -23.5t-24.5 -55.5q0 -34 25 -52.5t71 -18.5z" />
    <glyph glyph-name="uni2079" unicode="&#x2079;" horiz-adv-x="355" 
d="M167 482q-58 0 -96 34.5t-38 88.5q0 56 40 90.5t104 34.5t104 -36t40 -97q0 -47 -54 -125l-93 -132h-59l117 156q-31 -14 -65 -14zM176 689q-45 0 -70.5 -24t-25.5 -60q0 -35 25.5 -58.5t70.5 -23.5t71 23.5t26 58.5q0 36 -26 60t-71 24z" />
    <glyph glyph-name="uni2080" unicode="&#x2080;" horiz-adv-x="367" 
d="M184 -103q-66 0 -108 51t-42 144t42 144.5t107 51.5t107.5 -52t42.5 -145q0 -92 -42 -143t-107 -51zM184 -53q44 0 70.5 37t26.5 107q0 69 -26.5 107t-71.5 38t-71.5 -38t-26.5 -108q0 -69 27 -106t72 -37z" />
    <glyph glyph-name="uni2081" unicode="&#x2081;" horiz-adv-x="222" 
d="M117 -100v270h-88v44h45q45 0 45 46v25h49v-385h-51z" />
    <glyph glyph-name="uni2082" unicode="&#x2082;" horiz-adv-x="330" 
d="M189 57q-99 -51 -101 -113h206v-44h-260v21q0 101 108 162q70 39 85 54q17 17 17 41q0 29 -19 47.5t-53 18.5q-41 0 -62 -25.5t-23 -59.5h-52q0 51 35.5 91t102.5 40q53 0 88 -30t35 -78q0 -24 -8 -43t-25.5 -34t-32.5 -24.5t-41 -23.5z" />
    <glyph glyph-name="uni2083" unicode="&#x2083;" horiz-adv-x="340" 
d="M231 103q33 -8 54 -35t21 -61q0 -48 -37 -80.5t-105 -32.5q-65 0 -100 33t-40 85h50q3 -31 26.5 -53t64.5 -22q39 0 64.5 20.5t25.5 51.5q0 32 -24.5 52t-67.5 20h-21v44h21q34 0 55.5 17t21.5 43q0 27 -20.5 44t-53.5 17q-32 0 -53 -16.5t-24 -44.5h-50q0 46 37.5 75.5
t90.5 29.5q54 0 88.5 -28.5t34.5 -69.5q0 -56 -59 -85v-4z" />
    <glyph glyph-name="uni2084" unicode="&#x2084;" horiz-adv-x="359" 
d="M335 25v-44h-63v-81h-47v81h-196v31l171 273h72v-260h63zM88 25h137v207h-5z" />
    <glyph glyph-name="uni2085" unicode="&#x2085;" horiz-adv-x="347" 
d="M178 152q61 0 98 -36.5t37 -95.5q0 -56 -39 -90.5t-101 -34.5q-65 0 -102 36t-37 84h48q2 -35 27.5 -57t63.5 -22q40 0 66 24.5t26 60.5q0 39 -25 65t-67 26q-56 0 -87 -45l-45 12l22 206h230v-44h-190l-13 -119q36 30 88 30z" />
    <glyph glyph-name="uni2086" unicode="&#x2086;" horiz-adv-x="355" 
d="M188 143q58 0 96 -34.5t38 -88.5q0 -56 -40 -90.5t-104 -34.5t-104 36t-40 97q0 47 54 125l93 132h59l-117 -156q31 14 65 14zM179 -64q45 0 70.5 24t25.5 60q0 35 -25.5 58.5t-70.5 23.5t-71 -23.5t-26 -58.5q0 -36 26 -60t71 -24z" />
    <glyph glyph-name="uni2087" unicode="&#x2087;" horiz-adv-x="325" 
d="M29 285h272v-34q-156 -128 -166 -351h-49q9 222 141 341h-198v44z" />
    <glyph glyph-name="uni2088" unicode="&#x2088;" horiz-adv-x="369" 
d="M252 107q36 -8 59.5 -35.5t23.5 -64.5q0 -54 -42 -83t-110 -29q-66 0 -107.5 29t-41.5 83q0 38 24 64t59 36v4q-28 10 -46 31.5t-18 47.5q0 44 37 72t94 28q58 0 95.5 -28.5t37.5 -71.5q0 -27 -18 -48t-47 -31v-4zM184 251q-36 0 -58.5 -16.5t-22.5 -44.5q0 -30 24 -47.5
t56 -17.5q34 0 59.5 17.5t25.5 47.5q0 28 -24 44.5t-60 16.5zM182 -65q47 0 74.5 18.5t27.5 52.5q0 31 -26 55t-75 24q-48 0 -72.5 -23.5t-24.5 -55.5q0 -34 25 -52.5t71 -18.5z" />
    <glyph glyph-name="uni2089" unicode="&#x2089;" horiz-adv-x="355" 
d="M167 42q-58 0 -96 34.5t-38 88.5q0 56 40 90.5t104 34.5t104 -36t40 -97q0 -47 -54 -125l-93 -132h-59l117 156q-31 -14 -65 -14zM176 249q-45 0 -70.5 -24t-25.5 -60q0 -35 25.5 -58.5t70.5 -23.5t71 23.5t26 58.5q0 36 -26 60t-71 24z" />
    <glyph glyph-name="Euro" unicode="&#x20ac;" horiz-adv-x="676" 
d="M409 52q113 0 174 66l33 -47q-74 -81 -210 -81q-107 0 -178 63t-93 171h-81v53h74q-2 26 -2 41q0 28 3 53h-75v53h85q26 103 98.5 164.5t174.5 61.5q131 0 204 -92l-39 -44q-60 75 -167 75q-75 0 -127.5 -44.5t-74.5 -120.5h326l-15 -53h-322q-3 -24 -3 -51q0 -15 2 -43
h290l-15 -53h-266q20 -80 72.5 -126t131.5 -46z" />
    <glyph glyph-name="uni2113" unicode="&#x2113;" horiz-adv-x="420" 
d="M180 164q0 -115 100 -115q48 0 80 24v-63q-29 -20 -92 -20t-105.5 41t-42.5 117v103q-38 -10 -83 -18v55q44 9 83 21v187q0 67 32 110.5t96 43.5q62 0 93.5 -42t31.5 -104q0 -160 -193 -234v-106zM180 486v-154q136 60 136 165q0 43 -18 71t-51 28q-67 0 -67 -110z" />
    <glyph glyph-name="trademark" unicode="&#x2122;" horiz-adv-x="788" 
d="M37 648v52h260v-52h-103v-298h-54v298h-103zM625 700h83v-350h-50v280h-6l-88 -240h-69l-90 240h-5v-280h-52v350h83l95 -258h5z" />
    <glyph glyph-name="uni2153" unicode="&#x2153;" horiz-adv-x="760" 
d="M117 255v270h-88v44h45q45 0 45 46v25h49v-385h-51zM617 640l-498 -640h-59l498 640h59zM651 203q33 -8 54 -35t21 -61q0 -48 -37 -80.5t-105 -32.5q-65 0 -100 33t-40 85h50q3 -31 26.5 -53t64.5 -22q39 0 64.5 20.5t25.5 51.5q0 32 -24.5 52t-67.5 20h-21v44h21
q34 0 55.5 17t21.5 43q0 27 -20.5 44t-53.5 17q-32 0 -53 -16.5t-24 -44.5h-50q0 46 37.5 75.5t90.5 29.5q54 0 88.5 -28.5t34.5 -69.5q0 -56 -59 -85v-4z" />
    <glyph glyph-name="uni2154" unicode="&#x2154;" horiz-adv-x="870" 
d="M189 412q-99 -51 -101 -113h206v-44h-260v21q0 101 108 162q70 39 85 54q17 17 17 41q0 29 -19 47.5t-53 18.5q-41 0 -62 -25.5t-23 -59.5h-52q0 51 35.5 91t102.5 40q53 0 88 -30t35 -78q0 -24 -8 -43t-25.5 -34t-32.5 -24.5t-41 -23.5zM727 640l-498 -640h-59l498 640
h59zM761 203q33 -8 54 -35t21 -61q0 -48 -37 -80.5t-105 -32.5q-65 0 -100 33t-40 85h50q3 -31 26.5 -53t64.5 -22q39 0 64.5 20.5t25.5 51.5q0 32 -24.5 52t-67.5 20h-21v44h21q34 0 55.5 17t21.5 43q0 27 -20.5 44t-53.5 17q-32 0 -53 -16.5t-24 -44.5h-50q0 46 37.5 75.5
t90.5 29.5q54 0 88.5 -28.5t34.5 -69.5q0 -56 -59 -85v-4z" />
    <glyph glyph-name="arrowup" unicode="&#x2191;" horiz-adv-x="692" 
d="M644 444l-46 -47l-221 224v-629h-62v631l-222 -226l-45 47l294 288h7z" />
    <glyph glyph-name="arrowdown" unicode="&#x2193;" horiz-adv-x="692" 
d="M599 295l45 -47l-294 -288h-7l-295 288l46 47l221 -224v629h62v-631z" />
    <glyph glyph-name="arrowboth" unicode="&#x2194;" horiz-adv-x="1007" 
d="M692 611l288 -295v-7l-288 -294l-47 45l226 222h-735l226 -222l-47 -45l-288 294v7l288 295l47 -46l-224 -221h731l-224 221z" />
    <glyph glyph-name="arrowupdn" unicode="&#x2195;" horiz-adv-x="692" 
d="M377 -25l221 224l46 -47l-295 -288h-7l-294 288l45 47l222 -226v735l-222 -226l-45 47l294 288h7l295 -288l-46 -47l-221 224v-731z" />
    <glyph glyph-name="uni2196" unicode="&#x2196;" horiz-adv-x="627" 
d="M600 63l-47 -46l-444 444v-322h-61v424l6 6h425v-62h-324z" />
    <glyph glyph-name="uni2197" unicode="&#x2197;" horiz-adv-x="627" 
d="M573 569l6 -6v-424h-61v322l-444 -444l-47 46l445 444h-324v62h425z" />
    <glyph glyph-name="uni2198" unicode="&#x2198;" horiz-adv-x="626" 
d="M516 509h62v-425l-6 -6h-424v61h322l-444 444l46 47l444 -445v324z" />
    <glyph glyph-name="uni2199" unicode="&#x2199;" horiz-adv-x="626" 
d="M600 583l-444 -444h322v-61h-424l-6 6v425h62v-324l444 445z" />
    <glyph glyph-name="partialdiff" unicode="&#x2202;" horiz-adv-x="598" 
d="M534 312q0 -163 -62 -242.5t-177 -79.5q-95 0 -163 63.5t-68 166.5q0 104 64 166.5t163 62.5q62 0 116 -33t70 -76q-15 311 -189 311q-62 0 -96.5 -33.5t-45.5 -73.5h-63q9 66 63.5 116t142.5 50q245 0 245 -398zM297 49q74 0 120 51t46 126q0 73 -49 119t-122 46
q-74 0 -119.5 -48t-45.5 -123t48.5 -123t121.5 -48z" />
    <glyph glyph-name="emptyset" unicode="&#x2205;" horiz-adv-x="795" 
d="M648 536q80 -93 80 -216q0 -137 -96.5 -233.5t-233.5 -96.5q-118 0 -209 75l-74 -75l-39 40l73 74q-81 94 -81 216q0 137 96.5 233.5t233.5 96.5q119 0 210 -75l73 75l39 -40zM132 320q0 -98 60 -171l373 382q-75 59 -168 59q-109 0 -187 -79.5t-78 -190.5zM397 50
q109 0 188 79.5t79 190.5q0 98 -60 171l-373 -382q72 -59 166 -59z" />
    <glyph glyph-name="product" unicode="&#x220f;" horiz-adv-x="651" 
d="M80 700h491v-700h-63v643h-364v-643h-64v700z" />
    <glyph glyph-name="summation" unicode="&#x2211;" horiz-adv-x="523" 
d="M37 643v57h449v-57h-368l272 -274v-38l-272 -273h368v-58h-449v57l289 290v6z" />
    <glyph glyph-name="minus" unicode="&#x2212;" horiz-adv-x="536" 
d="M61 309h414v-58h-414v58z" />
    <glyph glyph-name="radical" unicode="&#x221a;" horiz-adv-x="671" 
d="M462 700h172v-59h-119l-225 -641h-92l-162 400h71l133 -336h7z" />
    <glyph glyph-name="infinity" unicode="&#x221e;" horiz-adv-x="808" 
d="M590 510q67 0 119 -49t52 -125t-52 -125t-119 -49q-104 0 -183 123h-6q-77 -123 -183 -123q-66 0 -118 49t-52 125t52 125t118 49q106 0 183 -122h6q79 122 183 122zM222 220q86 0 153 116q-67 116 -153 116q-44 0 -78 -31.5t-34 -84.5t34 -84.5t78 -31.5zM586 220
q45 0 79 31.5t34 84.5t-34 84.5t-79 31.5t-81.5 -28.5t-71.5 -87.5q35 -59 71.5 -87.5t81.5 -28.5z" />
    <glyph glyph-name="integral" unicode="&#x222b;" horiz-adv-x="561" 
d="M436 710q61 0 98 -44l-32 -47q-28 31 -64 31q-62 0 -75 -78l-102 -650q-21 -132 -137 -132q-60 0 -97 44l32 47q28 -31 63 -31q63 0 75 78l102 650q11 67 47.5 99.5t89.5 32.5z" />
    <glyph glyph-name="approxequal" unicode="&#x2248;" horiz-adv-x="590" 
d="M537 431q-10 -38 -46 -77.5t-93 -39.5q-34 0 -64 14t-48 30t-42.5 30t-49.5 14q-61 0 -96 -78l-45 15q11 40 46.5 79t92.5 39q43 0 78 -22t65 -44t61 -22q63 0 96 78zM537 219q-10 -38 -46 -77.5t-93 -39.5q-34 0 -64 14t-48 30t-42.5 30t-49.5 14q-61 0 -96 -78l-45 15
q11 40 46.5 79t92.5 39q43 0 78 -22t65 -44t61 -22q63 0 96 78z" />
    <glyph glyph-name="notequal" unicode="&#x2260;" horiz-adv-x="535" 
d="M480 349h-138l-89 -138h227v-59h-265l-72 -112l-43 26l56 86h-102v59h140l89 138h-229v59h267l72 112l42 -26l-55 -86h100v-59z" />
    <glyph glyph-name="lessequal" unicode="&#x2264;" horiz-adv-x="525" 
d="M472 579v-66l-352 -166v-5l352 -166v-67l-419 198v74zM472 0h-419v58h419v-58z" />
    <glyph glyph-name="greaterequal" unicode="&#x2265;" horiz-adv-x="525" 
d="M53 579l419 -198v-74l-419 -198v67l352 166v5l-352 166v66zM53 0v58h419v-58h-419z" />
    <glyph glyph-name="lozenge" unicode="&#x25ca;" horiz-adv-x="634" 
d="M317 570l290 -290l-290 -290l-290 290zM317 484l-204 -204l204 -204l204 204z" />
    <glyph glyph-name="smileface" unicode="&#x263a;" horiz-adv-x="848" 
d="M784 350q0 -150 -105 -255t-255 -105t-255 106t-105 254q0 149 105.5 254.5t254.5 105.5q151 0 255.5 -105.5t104.5 -254.5zM236 533v-45h44v-128h46v128h44v45h-134zM478 533v-45h45v-128h45v128h45v45h-135zM424 81q109 0 187 76t81 183l-46 8q0 -92 -65 -156.5
t-157 -64.5t-156.5 64.5t-64.5 156.5l-46 -8q3 -107 81 -183t186 -76z" />
    <glyph glyph-name="uni2731" unicode="&#x2731;" horiz-adv-x="535" 
d="M473 365l-152 -85l152 -85l-29 -50l-150 88l2 -173h-57l2 174l-151 -89l-28 50l151 85l-151 85l28 50l151 -89l-2 174h57l-2 -173l150 88z" />
    <glyph glyph-name="uni2780" unicode="&#x2780;" horiz-adv-x="848" 
d="M424 -10q-148 0 -254 105t-106 255t106 255t254 105t254 -105t106 -255t-106 -255t-254 -105zM424 33q129 0 223 94t94 223t-94 223t-223 94t-222 -94t-93 -223t93 -223t222 -94zM411 155v270h-88v44h45q45 0 45 46v25h49v-385h-51z" />
    <glyph glyph-name="uni2781" unicode="&#x2781;" horiz-adv-x="848" 
d="M424 -10q-148 0 -254 105t-106 255t106 255t254 105t254 -105t106 -255t-106 -255t-254 -105zM424 33q129 0 223 94t94 223t-94 223t-223 94t-222 -94t-93 -223t93 -223t222 -94zM449 325q-99 -51 -101 -113h206v-44h-260v21q0 101 108 162q70 39 85 54q17 18 17 41
q0 29 -19 47.5t-53 18.5q-41 0 -62 -25.5t-23 -59.5h-52q0 51 35.5 91t102.5 40q53 0 88 -30t35 -78q0 -24 -8 -43t-25.5 -34t-32.5 -24.5t-41 -23.5z" />
    <glyph glyph-name="uni2782" unicode="&#x2782;" horiz-adv-x="848" 
d="M424 -10q-148 0 -254 105t-106 255t106 255t254 105t254 -105t106 -255t-106 -255t-254 -105zM424 33q129 0 223 94t94 223t-94 223t-223 94t-222 -94t-93 -223t93 -223t222 -94zM489 361q33 -8 54 -35t21 -61q0 -48 -37 -80.5t-105 -32.5q-65 0 -100 33t-40 85h50
q3 -31 26.5 -53t64.5 -22q39 0 64.5 20.5t25.5 51.5q0 32 -24.5 52t-67.5 20h-21v44h21q34 0 55.5 17t21.5 43q0 27 -20.5 44t-53.5 17q-32 0 -53 -16.5t-24 -44.5h-50q0 46 37.5 75.5t90.5 29.5q54 0 88.5 -28.5t34.5 -69.5q0 -56 -59 -85v-4z" />
    <glyph glyph-name="uni2783" unicode="&#x2783;" horiz-adv-x="848" 
d="M424 -10q-148 0 -254 105t-106 255t106 255t254 105t254 -105t106 -255t-106 -255t-254 -105zM424 33q129 0 223 94t94 223t-94 223t-223 94t-222 -94t-93 -223t93 -223t222 -94zM560 281v-44h-63v-81h-47v81h-196v31l171 273h72v-260h63zM313 281h137v207h-5z" />
    <glyph glyph-name="uni2784" unicode="&#x2784;" horiz-adv-x="848" 
d="M424 -10q-148 0 -254 105t-106 255t106 255t254 105t254 -105t106 -255t-106 -255t-254 -105zM424 33q129 0 223 94t94 223t-94 223t-223 94t-222 -94t-93 -223t93 -223t222 -94zM431 408q61 0 98 -36.5t37 -95.5q0 -56 -39 -90.5t-101 -34.5q-65 0 -102 36t-37 84h48
q2 -35 27.5 -57t63.5 -22q40 0 66 24.5t26 60.5q0 39 -25 65t-67 26q-56 0 -87 -45l-45 12l22 206h230v-44h-190l-13 -119q36 30 88 30z" />
    <glyph glyph-name="uni2785" unicode="&#x2785;" horiz-adv-x="848" 
d="M424 -10q-148 0 -254 105t-106 255t106 255t254 105t254 -105t106 -255t-106 -255t-254 -105zM424 33q129 0 223 94t94 223t-94 223t-223 94t-222 -94t-93 -223t93 -223t222 -94zM431 409q58 0 96 -34.5t38 -88.5q0 -56 -40 -90.5t-104 -34.5t-104 36t-40 97q0 47 54 125
l93 132h59l-117 -156q31 14 65 14zM422 202q45 0 70.5 24t25.5 60q0 35 -25.5 58.5t-70.5 23.5t-71 -23.5t-26 -58.5q0 -36 26 -60t71 -24z" />
    <glyph glyph-name="uni2786" unicode="&#x2786;" horiz-adv-x="848" 
d="M424 -10q-148 0 -254 105t-106 255t106 255t254 105t254 -105t106 -255t-106 -255t-254 -105zM424 33q129 0 223 94t94 223t-94 223t-223 94t-222 -94t-93 -223t93 -223t222 -94zM303 528h272v-34q-156 -128 -166 -351h-49q9 222 141 341h-198v44z" />
    <glyph glyph-name="uni2787" unicode="&#x2787;" horiz-adv-x="848" 
d="M424 -10q-148 0 -254 105t-106 255t106 255t254 105t254 -105t106 -255t-106 -255t-254 -105zM424 33q129 0 223 94t94 223t-94 223t-223 94t-222 -94t-93 -223t93 -223t222 -94zM492 366q36 -8 59.5 -35.5t23.5 -64.5q0 -54 -42 -83t-110 -29q-66 0 -107.5 29t-41.5 83
q0 38 24 64t59 36v4q-28 10 -46 31.5t-18 47.5q0 44 37 72t94 28q58 0 95.5 -28.5t37.5 -71.5q0 -27 -18 -48t-47 -31v-4zM424 510q-36 0 -58.5 -16.5t-22.5 -44.5q0 -30 24 -47.5t56 -17.5q34 0 59.5 17.5t25.5 47.5q0 28 -24 44.5t-60 16.5zM422 194q47 0 74.5 18.5
t27.5 52.5q0 31 -26 55t-75 24q-48 0 -72.5 -23.5t-24.5 -55.5q0 -34 25 -52.5t71 -18.5z" />
    <glyph glyph-name="uni2788" unicode="&#x2788;" horiz-adv-x="848" 
d="M424 -10q-148 0 -254 105t-106 255t106 255t254 105t254 -105t106 -255t-106 -255t-254 -105zM424 33q129 0 223 94t94 223t-94 223t-223 94t-222 -94t-93 -223t93 -223t222 -94zM408 292q-58 0 -96 34.5t-38 88.5q0 56 40 90.5t104 34.5t104 -36t40 -97q0 -47 -54 -125
l-93 -132h-59l117 156q-31 -14 -65 -14zM417 499q-45 0 -70.5 -24t-25.5 -60q0 -35 25.5 -58.5t70.5 -23.5t71 23.5t26 58.5q0 36 -26 60t-71 24z" />
    <glyph glyph-name="uni2789" unicode="&#x2789;" horiz-adv-x="848" 
d="M424 -10q-148 0 -254 105t-106 255t106 255t254 105t254 -105t106 -255t-106 -255t-254 -105zM424 33q129 0 223 94t94 223t-94 223t-223 94t-222 -94t-93 -223t93 -223t222 -94zM508 191q-53 0 -87 41.5t-34 115.5t34 115.5t87 41.5q52 0 86 -42t34 -116t-33.5 -115
t-86.5 -41zM292 194v213h-70v38h37q36 0 36 36v21h43v-308h-46zM508 232q34 0 54 30t20 85q0 53 -20 83.5t-54 30.5t-55 -30.5t-21 -84.5q0 -53 21 -83.5t55 -30.5z" />
    <glyph glyph-name="uni278A" unicode="&#x278a;" horiz-adv-x="848" 
d="M424 -10q149 0 254.5 105.5t105.5 254.5t-105.5 254.5t-254.5 105.5t-254.5 -105.5t-105.5 -254.5t105.5 -254.5t254.5 -105.5zM411 155v270h-88v44h45q45 0 45 46v25h49v-385h-51z" />
    <glyph glyph-name="uni278B" unicode="&#x278b;" horiz-adv-x="848" 
d="M424 -10q149 0 254.5 105.5t105.5 254.5t-105.5 254.5t-254.5 105.5t-254.5 -105.5t-105.5 -254.5t105.5 -254.5t254.5 -105.5zM449 325q-99 -51 -101 -113h206v-44h-260v21q0 101 108 162q70 39 85 54q17 18 17 41q0 29 -19 47.5t-53 18.5q-41 0 -62 -25.5t-23 -59.5
h-52q0 51 35.5 91t102.5 40q53 0 88 -30t35 -78q0 -24 -8 -43t-25.5 -34t-32.5 -24.5t-41 -23.5z" />
    <glyph glyph-name="uni278C" unicode="&#x278c;" horiz-adv-x="848" 
d="M424 -10q149 0 254.5 105.5t105.5 254.5t-105.5 254.5t-254.5 105.5t-254.5 -105.5t-105.5 -254.5t105.5 -254.5t254.5 -105.5zM489 361q33 -8 54 -35t21 -61q0 -48 -37 -80.5t-105 -32.5q-65 0 -100 33t-40 85h50q3 -31 26.5 -53t64.5 -22q39 0 64.5 20.5t25.5 51.5
q0 32 -24.5 52t-67.5 20h-21v44h21q34 0 55.5 17t21.5 43q0 27 -20.5 44t-53.5 17q-32 0 -53 -16.5t-24 -44.5h-50q0 46 37.5 75.5t90.5 29.5q54 0 88.5 -28.5t34.5 -69.5q0 -56 -59 -85v-4z" />
    <glyph glyph-name="uni278D" unicode="&#x278d;" horiz-adv-x="848" 
d="M424 -10q149 0 254.5 105.5t105.5 254.5t-105.5 254.5t-254.5 105.5t-254.5 -105.5t-105.5 -254.5t105.5 -254.5t254.5 -105.5zM560 281v-44h-63v-81h-47v81h-196v31l171 273h72v-260h63zM313 281h137v207h-5z" />
    <glyph glyph-name="uni278E" unicode="&#x278e;" horiz-adv-x="848" 
d="M424 -10q149 0 254.5 105.5t105.5 254.5t-105.5 254.5t-254.5 105.5t-254.5 -105.5t-105.5 -254.5t105.5 -254.5t254.5 -105.5zM431 408q61 0 98 -36.5t37 -95.5q0 -56 -39 -90.5t-101 -34.5q-65 0 -102 36t-37 84h48q2 -35 27.5 -57t63.5 -22q40 0 66 24.5t26 60.5
q0 39 -25 65t-67 26q-56 0 -87 -45l-45 12l22 206h230v-44h-190l-13 -119q36 30 88 30z" />
    <glyph glyph-name="uni278F" unicode="&#x278f;" horiz-adv-x="848" 
d="M424 -10q149 0 254.5 105.5t105.5 254.5t-105.5 254.5t-254.5 105.5t-254.5 -105.5t-105.5 -254.5t105.5 -254.5t254.5 -105.5zM431 409q58 0 96 -34.5t38 -88.5q0 -56 -40 -90.5t-104 -34.5t-104 36t-40 97q0 47 54 125l93 132h59l-117 -156q31 14 65 14zM422 202
q45 0 70.5 24t25.5 60q0 35 -25.5 58.5t-70.5 23.5t-71 -23.5t-26 -58.5q0 -36 26 -60t71 -24z" />
    <glyph glyph-name="uni2790" unicode="&#x2790;" horiz-adv-x="848" 
d="M424 -10q149 0 254.5 105.5t105.5 254.5t-105.5 254.5t-254.5 105.5t-254.5 -105.5t-105.5 -254.5t105.5 -254.5t254.5 -105.5zM303 528h272v-34q-156 -128 -166 -351h-49q9 222 141 341h-198v44z" />
    <glyph glyph-name="uni2791" unicode="&#x2791;" horiz-adv-x="848" 
d="M424 -10q149 0 254.5 105.5t105.5 254.5t-105.5 254.5t-254.5 105.5t-254.5 -105.5t-105.5 -254.5t105.5 -254.5t254.5 -105.5zM492 366q36 -8 59.5 -35.5t23.5 -64.5q0 -54 -42 -83t-110 -29q-66 0 -107.5 29t-41.5 83q0 38 24 64t59 36v4q-28 10 -46 31.5t-18 47.5
q0 44 37 72t94 28q58 0 95.5 -28.5t37.5 -71.5q0 -27 -18 -48t-47 -31v-4zM424 510q-36 0 -58.5 -16.5t-22.5 -44.5q0 -30 24 -47.5t56 -17.5q34 0 59.5 17.5t25.5 47.5q0 28 -24 44.5t-60 16.5zM422 194q47 0 74.5 18.5t27.5 52.5q0 31 -26 55t-75 24q-48 0 -72.5 -23.5
t-24.5 -55.5q0 -34 25 -52.5t71 -18.5z" />
    <glyph glyph-name="uni2792" unicode="&#x2792;" horiz-adv-x="848" 
d="M424 -10q149 0 254.5 105.5t105.5 254.5t-105.5 254.5t-254.5 105.5t-254.5 -105.5t-105.5 -254.5t105.5 -254.5t254.5 -105.5zM408 292q-58 0 -96 34.5t-38 88.5q0 56 40 90.5t104 34.5t104 -36t40 -97q0 -47 -54 -125l-93 -132h-59l117 156q-31 -14 -65 -14zM417 499
q-45 0 -70.5 -24t-25.5 -60q0 -35 25.5 -58.5t70.5 -23.5t71 23.5t26 58.5q0 36 -26 60t-71 24z" />
    <glyph glyph-name="uni2793" unicode="&#x2793;" horiz-adv-x="848" 
d="M424 -10q149 0 254.5 105.5t105.5 254.5t-105.5 254.5t-254.5 105.5t-254.5 -105.5t-105.5 -254.5t105.5 -254.5t254.5 -105.5zM508 191q-53 0 -87 41.5t-34 115.5t34 115.5t87 41.5q52 0 86 -42t34 -116t-33.5 -115t-86.5 -41zM292 194v213h-70v38h37q36 0 36 36v21h43
v-308h-46zM508 232q34 0 54 30t20 85q0 53 -20 83.5t-54 30.5t-55 -30.5t-21 -84.5q0 -53 21 -83.5t55 -30.5z" />
    <glyph glyph-name="fl" unicode="&#xfb02;" horiz-adv-x="524" 
d="M382 710h68v-710h-68v444h-190v-444h-67v444h-88v56h88v95q0 53 30 84t83 31q40 0 69 -20l-21 -54q-22 14 -43 14q-51 0 -51 -62v-88h190v210z" />
    <glyph glyph-name="i.loclTRK" horiz-adv-x="217" 
d="M109 587q-21 0 -35.5 14t-14.5 35q0 20 15 34t35 14t34.5 -14t14.5 -34q0 -21 -14.5 -35t-34.5 -14zM143 500v-500h-68v500h68z" />
    <glyph glyph-name="a.fina" horiz-adv-x="513" 
d="M502 74l31 -40q-7 -15 -26 -29.5t-45 -14.5q-36 0 -57.5 20t-24.5 56q-29 -35 -75 -55.5t-94 -20.5q-70 0 -116.5 35.5t-46.5 101.5q0 147 227 165l97 8v13q0 64 -30 103t-87 39q-54 0 -83.5 -31t-37.5 -76h-65q8 69 57 115.5t129 46.5q83 0 132 -52t49 -142v-213
q0 -55 32 -55q17 0 34 26zM216 47q63 0 109.5 38.5t46.5 112.5v49l-93 -8q-77 -6 -120.5 -34t-43.5 -74q0 -42 29 -63t72 -21z" />
    <glyph glyph-name="aacute.fina" horiz-adv-x="513" 
d="M374 683l-93 -128h-48l57 128h84zM502 74l31 -40q-7 -15 -26 -29.5t-45 -14.5q-36 0 -57.5 20t-24.5 56q-29 -35 -75 -55.5t-94 -20.5q-70 0 -116.5 35.5t-46.5 101.5q0 147 227 165l97 8v13q0 64 -30 103t-87 39q-54 0 -83.5 -31t-37.5 -76h-65q8 69 57 115.5t129 46.5
q83 0 132 -52t49 -142v-213q0 -55 32 -55q17 0 34 26zM216 47q63 0 109.5 38.5t46.5 112.5v49l-93 -8q-77 -6 -120.5 -34t-43.5 -74q0 -42 29 -63t72 -21z" />
    <glyph glyph-name="abreve.fina" horiz-adv-x="513" 
d="M259 574q-57 0 -91 35.5t-34 80.5h57q0 -30 19 -49.5t49 -19.5q31 0 49 19t18 50h57q0 -45 -33.5 -80.5t-90.5 -35.5zM502 74l31 -40q-7 -15 -26 -29.5t-45 -14.5q-36 0 -57.5 20t-24.5 56q-29 -35 -75 -55.5t-94 -20.5q-70 0 -116.5 35.5t-46.5 101.5q0 147 227 165
l97 8v13q0 64 -30 103t-87 39q-54 0 -83.5 -31t-37.5 -76h-65q8 69 57 115.5t129 46.5q83 0 132 -52t49 -142v-213q0 -55 32 -55q17 0 34 26zM216 47q63 0 109.5 38.5t46.5 112.5v49l-93 -8q-77 -6 -120.5 -34t-43.5 -74q0 -42 29 -63t72 -21z" />
    <glyph glyph-name="uni01CE.fina" horiz-adv-x="513" 
d="M291 563h-62l-104 137h67l65 -90h6l64 90h67zM502 74l31 -40q-7 -15 -26 -29.5t-45 -14.5q-36 0 -57.5 20t-24.5 56q-29 -35 -75 -55.5t-94 -20.5q-70 0 -116.5 35.5t-46.5 101.5q0 147 227 165l97 8v13q0 64 -30 103t-87 39q-54 0 -83.5 -31t-37.5 -76h-65
q8 69 57 115.5t129 46.5q83 0 132 -52t49 -142v-213q0 -55 32 -55q17 0 34 26zM216 47q63 0 109.5 38.5t46.5 112.5v49l-93 -8q-77 -6 -120.5 -34t-43.5 -74q0 -42 29 -63t72 -21z" />
    <glyph glyph-name="acircumflex.fina" horiz-adv-x="513" 
d="M255 653l-64 -90h-67l103 137h62l104 -137h-67l-65 90h-6zM502 74l31 -40q-7 -15 -26 -29.5t-45 -14.5q-36 0 -57.5 20t-24.5 56q-29 -35 -75 -55.5t-94 -20.5q-70 0 -116.5 35.5t-46.5 101.5q0 147 227 165l97 8v13q0 64 -30 103t-87 39q-54 0 -83.5 -31t-37.5 -76h-65
q8 69 57 115.5t129 46.5q83 0 132 -52t49 -142v-213q0 -55 32 -55q17 0 34 26zM216 47q63 0 109.5 38.5t46.5 112.5v49l-93 -8q-77 -6 -120.5 -34t-43.5 -74q0 -42 29 -63t72 -21z" />
    <glyph glyph-name="adieresis.fina" horiz-adv-x="513" 
d="M173 564q-19 0 -33 14t-14 34t14 34t33 14t33 -14t14 -34t-14 -34t-33 -14zM349 564q-19 0 -33 14.5t-14 33.5t14 33.5t33 14.5t33 -14t14 -34t-14 -34t-33 -14zM502 74l31 -40q-7 -15 -26 -29.5t-45 -14.5q-36 0 -57.5 20t-24.5 56q-29 -35 -75 -55.5t-94 -20.5
q-70 0 -116.5 35.5t-46.5 101.5q0 147 227 165l97 8v13q0 64 -30 103t-87 39q-54 0 -83.5 -31t-37.5 -76h-65q8 69 57 115.5t129 46.5q83 0 132 -52t49 -142v-213q0 -55 32 -55q17 0 34 26zM216 47q63 0 109.5 38.5t46.5 112.5v49l-93 -8q-77 -6 -120.5 -34t-43.5 -74
q0 -42 29 -63t72 -21z" />
    <glyph glyph-name="uni0227.fina" horiz-adv-x="513" 
d="M260 587q-21 0 -35.5 14t-14.5 35q0 20 15 34t35 14t34.5 -14t14.5 -34q0 -21 -14.5 -35t-34.5 -14zM502 74l31 -40q-7 -15 -26 -29.5t-45 -14.5q-36 0 -57.5 20t-24.5 56q-29 -35 -75 -55.5t-94 -20.5q-70 0 -116.5 35.5t-46.5 101.5q0 147 227 165l97 8v13
q0 64 -30 103t-87 39q-54 0 -83.5 -31t-37.5 -76h-65q8 69 57 115.5t129 46.5q83 0 132 -52t49 -142v-213q0 -55 32 -55q17 0 34 26zM216 47q63 0 109.5 38.5t46.5 112.5v49l-93 -8q-77 -6 -120.5 -34t-43.5 -74q0 -42 29 -63t72 -21z" />
    <glyph glyph-name="uni1EA1.fina" horiz-adv-x="513" 
d="M502 74l31 -40q-7 -15 -26 -29.5t-45 -14.5q-36 0 -57.5 20t-24.5 56q-29 -35 -75 -55.5t-94 -20.5q-70 0 -116.5 35.5t-46.5 101.5q0 147 227 165l97 8v13q0 64 -30 103t-87 39q-54 0 -83.5 -31t-37.5 -76h-65q8 69 57 115.5t129 46.5q83 0 132 -52t49 -142v-213
q0 -55 32 -55q17 0 34 26zM216 47q63 0 109.5 38.5t46.5 112.5v49l-93 -8q-77 -6 -120.5 -34t-43.5 -74q0 -42 29 -63t72 -21zM261 -87q20 0 34.5 -14t14.5 -34q0 -21 -14.5 -35t-34.5 -14q-21 0 -35.5 14t-14.5 35q0 20 15 34t35 14z" />
    <glyph glyph-name="agrave.fina" horiz-adv-x="513" 
d="M286 555h-48l-93 128h84zM502 74l31 -40q-7 -15 -26 -29.5t-45 -14.5q-36 0 -57.5 20t-24.5 56q-29 -35 -75 -55.5t-94 -20.5q-70 0 -116.5 35.5t-46.5 101.5q0 147 227 165l97 8v13q0 64 -30 103t-87 39q-54 0 -83.5 -31t-37.5 -76h-65q8 69 57 115.5t129 46.5
q83 0 132 -52t49 -142v-213q0 -55 32 -55q17 0 34 26zM216 47q63 0 109.5 38.5t46.5 112.5v49l-93 -8q-77 -6 -120.5 -34t-43.5 -74q0 -42 29 -63t72 -21z" />
    <glyph glyph-name="amacron.fina" horiz-adv-x="513" 
d="M405 639v-52h-289v52h289zM502 74l31 -40q-7 -15 -26 -29.5t-45 -14.5q-36 0 -57.5 20t-24.5 56q-29 -35 -75 -55.5t-94 -20.5q-70 0 -116.5 35.5t-46.5 101.5q0 147 227 165l97 8v13q0 64 -30 103t-87 39q-54 0 -83.5 -31t-37.5 -76h-65q8 69 57 115.5t129 46.5
q83 0 132 -52t49 -142v-213q0 -55 32 -55q17 0 34 26zM216 47q63 0 109.5 38.5t46.5 112.5v49l-93 -8q-77 -6 -120.5 -34t-43.5 -74q0 -42 29 -63t72 -21z" />
    <glyph glyph-name="aogonek.fina" horiz-adv-x="516" 
d="M427 -81q0 -38 38.5 -48.5t67.5 7.5v-49q-18 -10 -50 -10q-44 0 -74.5 24.5t-30.5 67.5q0 52 55 83q-47 14 -53 73q-29 -36 -75 -56.5t-94 -20.5q-70 0 -116.5 35.5t-46.5 101.5q0 147 227 165l97 8v13q0 64 -30 103t-87 39q-54 0 -83.5 -31t-37.5 -76h-65q8 69 57 115.5
t129 46.5q83 0 132 -52t49 -142v-213q0 -55 33 -55q19 0 33 26l31 -40q-12 -26 -50 -41q-56 -24 -56 -74zM216 47q63 0 109.5 38.5t46.5 112.5v49l-93 -8q-77 -6 -120.5 -34t-43.5 -74q0 -42 29 -63t72 -21z" />
    <glyph glyph-name="aring.fina" horiz-adv-x="513" 
d="M260 545q-38 0 -66 27.5t-28 65.5q0 37 28 64.5t66 27.5t66 -27.5t28 -64.5q0 -38 -28 -65.5t-66 -27.5zM261 686q-21 0 -35 -14t-14 -34q0 -21 14 -35.5t35 -14.5q20 0 33.5 14.5t13.5 35.5q0 20 -14 34t-33 14zM502 74l31 -40q-7 -15 -26 -29.5t-45 -14.5
q-36 0 -57.5 20t-24.5 56q-29 -35 -75 -55.5t-94 -20.5q-70 0 -116.5 35.5t-46.5 101.5q0 147 227 165l97 8v13q0 64 -30 103t-87 39q-54 0 -83.5 -31t-37.5 -76h-65q8 69 57 115.5t129 46.5q83 0 132 -52t49 -142v-213q0 -55 32 -55q17 0 34 26zM216 47q63 0 109.5 38.5
t46.5 112.5v49l-93 -8q-77 -6 -120.5 -34t-43.5 -74q0 -42 29 -63t72 -21z" />
    <glyph glyph-name="atilde.fina" horiz-adv-x="513" 
d="M199 609q-33 0 -52 -42l-43 20q7 26 31.5 50.5t63.5 24.5q33 0 68.5 -23t54.5 -23q34 0 52 41l43 -19q-6 -26 -31.5 -50.5t-63.5 -24.5q-33 0 -68.5 23t-54.5 23zM502 74l31 -40q-7 -15 -26 -29.5t-45 -14.5q-36 0 -57.5 20t-24.5 56q-29 -35 -75 -55.5t-94 -20.5
q-70 0 -116.5 35.5t-46.5 101.5q0 147 227 165l97 8v13q0 64 -30 103t-87 39q-54 0 -83.5 -31t-37.5 -76h-65q8 69 57 115.5t129 46.5q83 0 132 -52t49 -142v-213q0 -55 32 -55q17 0 34 26zM216 47q63 0 109.5 38.5t46.5 112.5v49l-93 -8q-77 -6 -120.5 -34t-43.5 -74
q0 -42 29 -63t72 -21z" />
    <glyph glyph-name="a.ss02" 
d="M447 500h67v-500h-48l-15 78h-8q-59 -88 -168 -88q-99 0 -163 73t-64 187t65 187t165 73q122 0 169 -97v87zM114 250q0 -88 47.5 -143.5t122.5 -55.5q73 0 118 55t45 144t-45 144t-118 55q-75 0 -122.5 -55.5t-47.5 -143.5z" />
    <glyph glyph-name="aacute.ss02" 
d="M318 683h84l-93 -128h-48zM447 500h67v-500h-48l-15 78h-8q-59 -88 -168 -88q-99 0 -163 73t-64 187t65 187t165 73q122 0 169 -97v87zM114 250q0 -88 47.5 -143.5t122.5 -55.5q73 0 118 55t45 144t-45 144t-118 55q-75 0 -122.5 -55.5t-47.5 -143.5z" />
    <glyph glyph-name="abreve.ss02" 
d="M411 690q0 -45 -33.5 -80.5t-90.5 -35.5t-91 35.5t-34 80.5h57q0 -30 19 -49.5t49 -19.5q31 0 49 19t18 50h57zM447 500h67v-500h-48l-15 78h-8q-59 -88 -168 -88q-99 0 -163 73t-64 187t65 187t165 73q122 0 169 -97v87zM114 250q0 -88 47.5 -143.5t122.5 -55.5
q73 0 118 55t45 144t-45 144t-118 55q-75 0 -122.5 -55.5t-47.5 -143.5z" />
    <glyph glyph-name="uni01CE.ss02" 
d="M355 700h67l-103 -137h-62l-104 137h67l65 -90h6zM447 500h67v-500h-48l-15 78h-8q-59 -88 -168 -88q-99 0 -163 73t-64 187t65 187t165 73q122 0 169 -97v87zM114 250q0 -88 47.5 -143.5t122.5 -55.5q73 0 118 55t45 144t-45 144t-118 55q-75 0 -122.5 -55.5
t-47.5 -143.5z" />
    <glyph glyph-name="acircumflex.ss02" 
d="M219 563h-67l103 137h62l104 -137h-67l-65 90h-6zM447 500h67v-500h-48l-15 78h-8q-59 -88 -168 -88q-99 0 -163 73t-64 187t65 187t165 73q122 0 169 -97v87zM114 250q0 -88 47.5 -143.5t122.5 -55.5q73 0 118 55t45 144t-45 144t-118 55q-75 0 -122.5 -55.5
t-47.5 -143.5z" />
    <glyph glyph-name="adieresis.ss02" 
d="M201 564q-19 0 -33 14t-14 34t14 34t33 14t33 -14t14 -34t-14 -34t-33 -14zM377 564q-19 0 -33 14.5t-14 33.5t14 33.5t33 14.5t33 -14t14 -34t-14 -34t-33 -14zM447 500h67v-500h-48l-15 78h-8q-59 -88 -168 -88q-99 0 -163 73t-64 187t65 187t165 73q122 0 169 -97v87z
M114 250q0 -88 47.5 -143.5t122.5 -55.5q73 0 118 55t45 144t-45 144t-118 55q-75 0 -122.5 -55.5t-47.5 -143.5z" />
    <glyph glyph-name="uni0227.ss02" 
d="M288 587q-21 0 -35.5 14t-14.5 35q0 20 15 34t35 14t34.5 -14t14.5 -34q0 -21 -14.5 -35t-34.5 -14zM447 500h67v-500h-48l-15 78h-8q-59 -88 -168 -88q-99 0 -163 73t-64 187t65 187t165 73q122 0 169 -97v87zM114 250q0 -88 47.5 -143.5t122.5 -55.5q73 0 118 55
t45 144t-45 144t-118 55q-75 0 -122.5 -55.5t-47.5 -143.5z" />
    <glyph glyph-name="uni1EA1.ss02" 
d="M447 500h67v-500h-48l-15 78h-8q-59 -88 -168 -88q-99 0 -163 73t-64 187t65 187t165 73q122 0 169 -97v87zM114 250q0 -88 47.5 -143.5t122.5 -55.5q73 0 118 55t45 144t-45 144t-118 55q-75 0 -122.5 -55.5t-47.5 -143.5zM286 -184q-21 0 -35.5 14t-14.5 35q0 20 15 34
t35 14t34.5 -14t14.5 -34q0 -21 -14.5 -35t-34.5 -14z" />
    <glyph glyph-name="agrave.ss02" 
d="M257 683l57 -128h-48l-93 128h84zM447 500h67v-500h-48l-15 78h-8q-59 -88 -168 -88q-99 0 -163 73t-64 187t65 187t165 73q122 0 169 -97v87zM114 250q0 -88 47.5 -143.5t122.5 -55.5q73 0 118 55t45 144t-45 144t-118 55q-75 0 -122.5 -55.5t-47.5 -143.5z" />
    <glyph glyph-name="amacron.ss02" 
d="M144 639h289v-52h-289v52zM447 500h67v-500h-48l-15 78h-8q-59 -88 -168 -88q-99 0 -163 73t-64 187t65 187t165 73q122 0 169 -97v87zM114 250q0 -88 47.5 -143.5t122.5 -55.5q73 0 118 55t45 144t-45 144t-118 55q-75 0 -122.5 -55.5t-47.5 -143.5z" />
    <glyph glyph-name="aogonek.ss02" 
d="M441 -81q0 -38 38 -48.5t68 7.5v-49q-18 -10 -51 -10q-44 0 -74.5 24.5t-30.5 67.5q0 58 74 93l-14 74h-8q-59 -88 -168 -88q-99 0 -163 73t-64 187t65 187t165 73q122 0 169 -97v87h67v-500q-31 -11 -52 -34t-21 -47zM284 51q73 0 118 55t45 144t-45 144t-118 55
q-75 0 -122.5 -55.5t-47.5 -143.5t47.5 -143.5t122.5 -55.5z" />
    <glyph glyph-name="aring.ss02" 
d="M288 545q-38 0 -66 27.5t-28 65.5q0 37 28 64.5t66 27.5t66 -27.5t28 -64.5q0 -38 -28 -65.5t-66 -27.5zM289 588q20 0 33.5 14.5t13.5 35.5q0 20 -14 34t-33 14q-21 0 -35 -14t-14 -34q0 -21 14 -35.5t35 -14.5zM447 500h67v-500h-48l-15 78h-8q-59 -88 -168 -88
q-99 0 -163 73t-64 187t65 187t165 73q122 0 169 -97v87zM114 250q0 -88 47.5 -143.5t122.5 -55.5q73 0 118 55t45 144t-45 144t-118 55q-75 0 -122.5 -55.5t-47.5 -143.5z" />
    <glyph glyph-name="atilde.ss02" 
d="M445 638q-6 -26 -31.5 -50.5t-63.5 -24.5q-33 0 -68.5 23t-54.5 23q-33 0 -52 -42l-43 20q7 26 31.5 50.5t63.5 24.5q33 0 68.5 -23t54.5 -23q34 0 52 41zM447 500h67v-500h-48l-15 78h-8q-59 -88 -168 -88q-99 0 -163 73t-64 187t65 187t165 73q122 0 169 -97v87z
M114 250q0 -88 47.5 -143.5t122.5 -55.5q73 0 118 55t45 144t-45 144t-118 55q-75 0 -122.5 -55.5t-47.5 -143.5z" />
    <glyph glyph-name="a.fina.ss02" horiz-adv-x="596" 
d="M579 82l37 -30q-7 -26 -27.5 -44t-51.5 -18q-81 0 -84 90h-8q-62 -90 -170 -90q-99 0 -163 73t-64 187t65 187t165 73q120 0 169 -94v84h67v-349l-1 -1v-47q0 -55 33 -55q22 0 33 34zM284 51q73 0 118 55t45 144t-45 144t-118 55q-75 0 -122 -55.5t-47 -143.5
t47.5 -143.5t121.5 -55.5z" />
    <glyph glyph-name="aacute.fina.ss02" horiz-adv-x="596" 
d="M402 683l-93 -128h-48l57 128h84zM579 82l37 -30q-7 -26 -27.5 -44t-51.5 -18q-81 0 -84 90h-8q-62 -90 -170 -90q-99 0 -163 73t-64 187t65 187t165 73q120 0 169 -94v84h67v-349l-1 -1v-47q0 -55 33 -55q22 0 33 34zM284 51q73 0 118 55t45 144t-45 144t-118 55
q-75 0 -122 -55.5t-47 -143.5t47.5 -143.5t121.5 -55.5z" />
    <glyph glyph-name="abreve.fina.ss02" horiz-adv-x="596" 
d="M287 574q-57 0 -91 35.5t-34 80.5h57q0 -30 19 -49.5t49 -19.5q31 0 49 19t18 50h57q0 -45 -33.5 -80.5t-90.5 -35.5zM579 82l37 -30q-7 -26 -27.5 -44t-51.5 -18q-81 0 -84 90h-8q-62 -90 -170 -90q-99 0 -163 73t-64 187t65 187t165 73q120 0 169 -94v84h67v-349l-1 -1
v-47q0 -55 33 -55q22 0 33 34zM284 51q73 0 118 55t45 144t-45 144t-118 55q-75 0 -122 -55.5t-47 -143.5t47.5 -143.5t121.5 -55.5z" />
    <glyph glyph-name="uni01CE.fina.ss02" horiz-adv-x="596" 
d="M319 563h-62l-104 137h67l65 -90h6l64 90h67zM579 82l37 -30q-7 -26 -27.5 -44t-51.5 -18q-81 0 -84 90h-8q-62 -90 -170 -90q-99 0 -163 73t-64 187t65 187t165 73q120 0 169 -94v84h67v-349l-1 -1v-47q0 -55 33 -55q22 0 33 34zM284 51q73 0 118 55t45 144t-45 144
t-118 55q-75 0 -122 -55.5t-47 -143.5t47.5 -143.5t121.5 -55.5z" />
    <glyph glyph-name="acircumflex.fina.ss02" horiz-adv-x="596" 
d="M283 653l-64 -90h-67l103 137h62l104 -137h-67l-65 90h-6zM579 82l37 -30q-7 -26 -27.5 -44t-51.5 -18q-81 0 -84 90h-8q-62 -90 -170 -90q-99 0 -163 73t-64 187t65 187t165 73q120 0 169 -94v84h67v-349l-1 -1v-47q0 -55 33 -55q22 0 33 34zM284 51q73 0 118 55t45 144
t-45 144t-118 55q-75 0 -122 -55.5t-47 -143.5t47.5 -143.5t121.5 -55.5z" />
    <glyph glyph-name="adieresis.fina.ss02" horiz-adv-x="596" 
d="M201 564q-19 0 -33 14t-14 34t14 34t33 14t33 -14t14 -34t-14 -34t-33 -14zM377 564q-19 0 -33 14.5t-14 33.5t14 33.5t33 14.5t33 -14t14 -34t-14 -34t-33 -14zM579 82l37 -30q-7 -26 -27.5 -44t-51.5 -18q-81 0 -84 90h-8q-62 -90 -170 -90q-99 0 -163 73t-64 187
t65 187t165 73q120 0 169 -94v84h67v-349l-1 -1v-47q0 -55 33 -55q22 0 33 34zM284 51q73 0 118 55t45 144t-45 144t-118 55q-75 0 -122 -55.5t-47 -143.5t47.5 -143.5t121.5 -55.5z" />
    <glyph glyph-name="uni0227.fina.ss02" horiz-adv-x="596" 
d="M288 587q-21 0 -35.5 14t-14.5 35q0 20 15 34t35 14t34.5 -14t14.5 -34q0 -21 -14.5 -35t-34.5 -14zM579 82l37 -30q-7 -26 -27.5 -44t-51.5 -18q-81 0 -84 90h-8q-62 -90 -170 -90q-99 0 -163 73t-64 187t65 187t165 73q120 0 169 -94v84h67v-349l-1 -1v-47
q0 -55 33 -55q22 0 33 34zM284 51q73 0 118 55t45 144t-45 144t-118 55q-75 0 -122 -55.5t-47 -143.5t47.5 -143.5t121.5 -55.5z" />
    <glyph glyph-name="uni1EA1.fina.ss02" horiz-adv-x="596" 
d="M579 82l37 -30q-7 -26 -27.5 -44t-51.5 -18q-81 0 -84 90h-8q-62 -90 -170 -90q-99 0 -163 73t-64 187t65 187t165 73q120 0 169 -94v84h67v-349l-1 -1v-47q0 -55 33 -55q22 0 33 34zM284 51q73 0 118 55t45 144t-45 144t-118 55q-75 0 -122 -55.5t-47 -143.5
t47.5 -143.5t121.5 -55.5zM319 -87q20 0 34.5 -14t14.5 -34q0 -21 -14.5 -35t-34.5 -14q-21 0 -35.5 14t-14.5 35q0 20 15 34t35 14z" />
    <glyph glyph-name="agrave.fina.ss02" horiz-adv-x="596" 
d="M314 555h-48l-93 128h84zM579 82l37 -30q-7 -26 -27.5 -44t-51.5 -18q-81 0 -84 90h-8q-62 -90 -170 -90q-99 0 -163 73t-64 187t65 187t165 73q120 0 169 -94v84h67v-349l-1 -1v-47q0 -55 33 -55q22 0 33 34zM284 51q73 0 118 55t45 144t-45 144t-118 55
q-75 0 -122 -55.5t-47 -143.5t47.5 -143.5t121.5 -55.5z" />
    <glyph glyph-name="amacron.fina.ss02" horiz-adv-x="596" 
d="M433 639v-52h-289v52h289zM579 82l37 -30q-7 -26 -27.5 -44t-51.5 -18q-81 0 -84 90h-8q-62 -90 -170 -90q-99 0 -163 73t-64 187t65 187t165 73q120 0 169 -94v84h67v-349l-1 -1v-47q0 -55 33 -55q22 0 33 34zM284 51q73 0 118 55t45 144t-45 144t-118 55
q-75 0 -122 -55.5t-47 -143.5t47.5 -143.5t121.5 -55.5z" />
    <glyph glyph-name="aogonek.fina.ss02" horiz-adv-x="608" 
d="M505 -81q0 -38 38.5 -48.5t67.5 7.5v-49q-18 -10 -50 -10q-44 0 -74.5 24.5t-30.5 67.5q0 52 54 82q-54 15 -55 87h-10q-62 -90 -170 -90q-99 0 -163 73t-64 187t65 187t165 73q120 0 169 -94v84h67v-397q0 -55 32 -55q24 0 33 34l38 -30q-10 -38 -56 -59
q-56 -26 -56 -74zM284 51q73 0 118 55t45 144t-45 144t-118 55q-75 0 -122 -55.5t-47 -143.5t47.5 -143.5t121.5 -55.5z" />
    <glyph glyph-name="aring.fina.ss02" horiz-adv-x="596" 
d="M288 545q-38 0 -66 27.5t-28 65.5q0 37 28 64.5t66 27.5t66 -27.5t28 -64.5q0 -38 -28 -65.5t-66 -27.5zM289 686q-21 0 -35 -14t-14 -34q0 -21 14 -35.5t35 -14.5q20 0 33.5 14.5t13.5 35.5q0 20 -14 34t-33 14zM579 82l37 -30q-7 -26 -27.5 -44t-51.5 -18q-81 0 -84 90
h-8q-62 -90 -170 -90q-99 0 -163 73t-64 187t65 187t165 73q120 0 169 -94v84h67v-349l-1 -1v-47q0 -55 33 -55q22 0 33 34zM284 51q73 0 118 55t45 144t-45 144t-118 55q-75 0 -122 -55.5t-47 -143.5t47.5 -143.5t121.5 -55.5z" />
    <glyph glyph-name="atilde.fina.ss02" horiz-adv-x="596" 
d="M227 609q-33 0 -52 -42l-43 20q7 26 31.5 50.5t63.5 24.5q33 0 68.5 -23t54.5 -23q34 0 52 41l43 -19q-6 -26 -31.5 -50.5t-63.5 -24.5q-33 0 -68.5 23t-54.5 23zM579 82l37 -30q-7 -26 -27.5 -44t-51.5 -18q-81 0 -84 90h-8q-62 -90 -170 -90q-99 0 -163 73t-64 187
t65 187t165 73q120 0 169 -94v84h67v-349l-1 -1v-47q0 -55 33 -55q22 0 33 34zM284 51q73 0 118 55t45 144t-45 144t-118 55q-75 0 -122 -55.5t-47 -143.5t47.5 -143.5t121.5 -55.5z" />
    <glyph glyph-name="g.ss02" 
d="M513 349l1 -1v-323q0 -121 -68 -178.5t-162 -57.5q-95 0 -156 46.5t-69 126.5h67q8 -53 51 -83.5t110 -30.5q61 0 111 42t50 131v64q-22 -45 -66 -70.5t-104 -25.5q-100 0 -165 73t-65 187t64 187t163 73q107 0 168 -87h8l15 78h47v-151zM284 50q73 0 118 55t45 144
t-45 144t-118 55q-74 0 -121.5 -55.5t-47.5 -143.5t47 -143.5t122 -55.5z" />
    <glyph glyph-name="uni01F5.ss02" 
d="M402 683l-93 -128h-48l57 128h84zM513 349l1 -1v-323q0 -121 -68 -178.5t-162 -57.5q-95 0 -156 46.5t-69 126.5h67q8 -53 51 -83.5t110 -30.5q61 0 111 42t50 131v64q-22 -45 -66 -70.5t-104 -25.5q-100 0 -165 73t-65 187t64 187t163 73q107 0 168 -87h8l15 78h47v-151
zM284 50q73 0 118 55t45 144t-45 144t-118 55q-74 0 -121.5 -55.5t-47.5 -143.5t47 -143.5t122 -55.5z" />
    <glyph glyph-name="gbreve.ss02" 
d="M287 574q-57 0 -91 35.5t-34 80.5h57q0 -30 19 -49.5t49 -19.5q31 0 49 19t18 50h57q0 -45 -33.5 -80.5t-90.5 -35.5zM513 349l1 -1v-323q0 -121 -68 -178.5t-162 -57.5q-95 0 -156 46.5t-69 126.5h67q8 -53 51 -83.5t110 -30.5q61 0 111 42t50 131v64q-22 -45 -66 -70.5
t-104 -25.5q-100 0 -165 73t-65 187t64 187t163 73q107 0 168 -87h8l15 78h47v-151zM284 50q73 0 118 55t45 144t-45 144t-118 55q-74 0 -121.5 -55.5t-47.5 -143.5t47 -143.5t122 -55.5z" />
    <glyph glyph-name="gcaron.ss02" 
d="M319 563h-62l-104 137h67l65 -90h6l64 90h67zM513 349l1 -1v-323q0 -121 -68 -178.5t-162 -57.5q-95 0 -156 46.5t-69 126.5h67q8 -53 51 -83.5t110 -30.5q61 0 111 42t50 131v64q-22 -45 -66 -70.5t-104 -25.5q-100 0 -165 73t-65 187t64 187t163 73q107 0 168 -87h8
l15 78h47v-151zM284 50q73 0 118 55t45 144t-45 144t-118 55q-74 0 -121.5 -55.5t-47.5 -143.5t47 -143.5t122 -55.5z" />
    <glyph glyph-name="gcircumflex.ss02" 
d="M283 653l-64 -90h-67l103 137h62l104 -137h-67l-65 90h-6zM513 349l1 -1v-323q0 -121 -68 -178.5t-162 -57.5q-95 0 -156 46.5t-69 126.5h67q8 -53 51 -83.5t110 -30.5q61 0 111 42t50 131v64q-22 -45 -66 -70.5t-104 -25.5q-100 0 -165 73t-65 187t64 187t163 73
q107 0 168 -87h8l15 78h47v-151zM284 50q73 0 118 55t45 144t-45 144t-118 55q-74 0 -121.5 -55.5t-47.5 -143.5t47 -143.5t122 -55.5z" />
    <glyph glyph-name="gcommaaccent.ss02" 
d="M288 563q-26 0 -39.5 19t-13.5 49q0 47 26 82t61 54l18 -23q-52 -39 -52 -81q22 2 37 -11.5t15 -35.5q0 -23 -14.5 -38t-37.5 -15zM513 349l1 -1v-323q0 -121 -68 -178.5t-162 -57.5q-95 0 -156 46.5t-69 126.5h67q8 -53 51 -83.5t110 -30.5q61 0 111 42t50 131v64
q-22 -45 -66 -70.5t-104 -25.5q-100 0 -165 73t-65 187t64 187t163 73q107 0 168 -87h8l15 78h47v-151zM284 50q73 0 118 55t45 144t-45 144t-118 55q-74 0 -121.5 -55.5t-47.5 -143.5t47 -143.5t122 -55.5z" />
    <glyph glyph-name="gdotaccent.ss02" 
d="M288 587q-21 0 -35.5 14t-14.5 35q0 20 15 34t35 14t34.5 -14t14.5 -34q0 -21 -14.5 -35t-34.5 -14zM513 349l1 -1v-323q0 -121 -68 -178.5t-162 -57.5q-95 0 -156 46.5t-69 126.5h67q8 -53 51 -83.5t110 -30.5q61 0 111 42t50 131v64q-22 -45 -66 -70.5t-104 -25.5
q-100 0 -165 73t-65 187t64 187t163 73q107 0 168 -87h8l15 78h47v-151zM284 50q73 0 118 55t45 144t-45 144t-118 55q-74 0 -121.5 -55.5t-47.5 -143.5t47 -143.5t122 -55.5z" />
    <glyph glyph-name="y.ss02" horiz-adv-x="563" 
d="M418 500h70v-502q0 -106 -56.5 -157t-151.5 -51q-86 0 -143 46t-65 119h66q26 -106 146 -106q61 0 100.5 35.5t39.5 118.5v61h-5q-48 -74 -157 -74q-78 0 -129.5 53.5t-51.5 149.5v307h69v-292q0 -77 37 -116.5t97 -39.5q54 0 94 37.5t40 111.5v299z" />
    <glyph glyph-name="yacute.ss02" horiz-adv-x="563" 
d="M314 683h84l-93 -128h-48zM418 500h70v-502q0 -106 -56.5 -157t-151.5 -51q-86 0 -143 46t-65 119h66q26 -106 146 -106q61 0 100.5 35.5t39.5 118.5v61h-5q-48 -74 -157 -74q-78 0 -129.5 53.5t-51.5 149.5v307h69v-292q0 -77 37 -116.5t97 -39.5q54 0 94 37.5t40 111.5
v299z" />
    <glyph glyph-name="ycircumflex.ss02" horiz-adv-x="563" 
d="M215 563h-67l103 137h62l104 -137h-67l-65 90h-6zM418 500h70v-502q0 -106 -56.5 -157t-151.5 -51q-86 0 -143 46t-65 119h66q26 -106 146 -106q61 0 100.5 35.5t39.5 118.5v61h-5q-48 -74 -157 -74q-78 0 -129.5 53.5t-51.5 149.5v307h69v-292q0 -77 37 -116.5t97 -39.5
q54 0 94 37.5t40 111.5v299z" />
    <glyph glyph-name="ydieresis.ss02" horiz-adv-x="563" 
d="M197 564q-19 0 -33 14t-14 34t14 34t33 14t33 -14t14 -34t-14 -34t-33 -14zM373 564q-19 0 -33 14.5t-14 33.5t14 33.5t33 14.5t33 -14t14 -34t-14 -34t-33 -14zM418 500h70v-502q0 -106 -56.5 -157t-151.5 -51q-86 0 -143 46t-65 119h66q26 -106 146 -106
q61 0 100.5 35.5t39.5 118.5v61h-5q-48 -74 -157 -74q-78 0 -129.5 53.5t-51.5 149.5v307h69v-292q0 -77 37 -116.5t97 -39.5q54 0 94 37.5t40 111.5v299z" />
    <glyph glyph-name="ygrave.ss02" horiz-adv-x="563" 
d="M253 683l57 -128h-48l-93 128h84zM418 500h70v-502q0 -106 -56.5 -157t-151.5 -51q-86 0 -143 46t-65 119h66q26 -106 146 -106q61 0 100.5 35.5t39.5 118.5v61h-5q-48 -74 -157 -74q-78 0 -129.5 53.5t-51.5 149.5v307h69v-292q0 -77 37 -116.5t97 -39.5q54 0 94 37.5
t40 111.5v299z" />
    <glyph glyph-name="uni0233.ss02" horiz-adv-x="563" 
d="M140 639h289v-52h-289v52zM418 500h70v-502q0 -106 -56.5 -157t-151.5 -51q-86 0 -143 46t-65 119h66q26 -106 146 -106q61 0 100.5 35.5t39.5 118.5v61h-5q-48 -74 -157 -74q-78 0 -129.5 53.5t-51.5 149.5v307h69v-292q0 -77 37 -116.5t97 -39.5q54 0 94 37.5t40 111.5
v299z" />
    <glyph glyph-name="uni1E99.ss02" horiz-adv-x="563" 
d="M284 545q-38 0 -66 27.5t-28 65.5q0 37 28 64.5t66 27.5t66 -27.5t28 -64.5q0 -38 -28 -65.5t-66 -27.5zM285 588q20 0 33.5 14.5t13.5 35.5q0 20 -14 34t-33 14q-21 0 -35 -14t-14 -34q0 -21 14 -35.5t35 -14.5zM418 500h70v-502q0 -106 -56.5 -157t-151.5 -51
q-86 0 -143 46t-65 119h66q26 -106 146 -106q61 0 100.5 35.5t39.5 118.5v61h-5q-48 -74 -157 -74q-78 0 -129.5 53.5t-51.5 149.5v307h69v-292q0 -77 37 -116.5t97 -39.5q54 0 94 37.5t40 111.5v299z" />
    <glyph glyph-name="uni1EF9.ss02" horiz-adv-x="563" 
d="M441 638q-6 -26 -31.5 -50.5t-63.5 -24.5q-33 0 -68.5 23t-54.5 23q-33 0 -52 -42l-43 20q7 26 31.5 50.5t63.5 24.5q33 0 68.5 -23t54.5 -23q34 0 52 41zM418 500h70v-502q0 -106 -56.5 -157t-151.5 -51q-86 0 -143 46t-65 119h66q26 -106 146 -106q61 0 100.5 35.5
t39.5 118.5v61h-5q-48 -74 -157 -74q-78 0 -129.5 53.5t-51.5 149.5v307h69v-292q0 -77 37 -116.5t97 -39.5q54 0 94 37.5t40 111.5v299z" />
    <glyph glyph-name="f_f_l" horiz-adv-x="783" 
d="M641 710h68v-710h-68v444h-190v-444h-67v444h-195v-444h-66v444h-86v56h86v89q0 57 31 89t81 32q56 0 92 -36l-28 -49q-27 25 -57 25q-53 0 -53 -69v-81h195v95q0 53 30 84t83 31q40 0 69 -20l-21 -54q-22 14 -43 14q-51 0 -51 -62v-88h190v210z" />
    <glyph glyph-name="f_t" horiz-adv-x="634" 
d="M597 444h-117v-328q0 -65 53 -65q21 0 41 13l21 -53q-31 -21 -73 -21q-48 0 -78.5 28t-30.5 92v334h-224v-444h-66v444h-86v56h86v89q0 57 31 89t81 32q56 0 92 -36l-28 -49q-27 25 -57 25q-53 0 -53 -69v-81h154q78 0 78 71v55h59v-126h117v-56z" />
    <glyph glyph-name="t_t" horiz-adv-x="632" 
d="M595 444h-117v-328q0 -65 53 -65q21 0 41 13l21 -53q-31 -21 -73 -21q-48 0 -78.5 28t-30.5 92v334h-211v-328q0 -65 53 -65q21 0 41 13l21 -53q-31 -21 -73 -21q-48 0 -78.5 28t-30.5 92v334h-96v48h28q40 0 58 16.5t18 54.5v63h59v-126h141q78 0 78 71v55h59v-126h117
v-56z" />
    <glyph glyph-name="uni2780.ss01" horiz-adv-x="849" 
d="M424 -10q-149 0 -254.5 105.5t-105.5 254.5t105.5 254.5t254.5 105.5t255 -105.5t106 -254.5t-106 -254.5t-255 -105.5zM424 17q137 0 234.5 97.5t97.5 235.5t-97.5 235.5t-234.5 97.5t-233.5 -97.5t-96.5 -235.5t96.5 -235.5t233.5 -97.5zM411 155v270h-88v44h45
q45 0 45 46v25h49v-385h-51z" />
    <glyph glyph-name="uni2781.ss01" horiz-adv-x="849" 
d="M424 -10q-149 0 -254.5 105.5t-105.5 254.5t105.5 254.5t254.5 105.5t255 -105.5t106 -254.5t-106 -254.5t-255 -105.5zM424 17q137 0 234.5 97.5t97.5 235.5t-97.5 235.5t-234.5 97.5t-233.5 -97.5t-96.5 -235.5t96.5 -235.5t233.5 -97.5zM449 325q-99 -51 -101 -113
h206v-44h-260v21q0 101 108 162q70 39 85 54q17 18 17 41q0 29 -19 47.5t-53 18.5q-41 0 -62 -25.5t-23 -59.5h-52q0 51 35.5 91t102.5 40q53 0 88 -30t35 -78q0 -24 -8 -43t-25.5 -34t-32.5 -24.5t-41 -23.5z" />
    <glyph glyph-name="uni2782.ss01" horiz-adv-x="849" 
d="M424 -10q-149 0 -254.5 105.5t-105.5 254.5t105.5 254.5t254.5 105.5t255 -105.5t106 -254.5t-106 -254.5t-255 -105.5zM424 17q137 0 234.5 97.5t97.5 235.5t-97.5 235.5t-234.5 97.5t-233.5 -97.5t-96.5 -235.5t96.5 -235.5t233.5 -97.5zM489 361q33 -8 54 -35t21 -61
q0 -48 -37 -80.5t-105 -32.5q-65 0 -100 33t-40 85h50q3 -31 26.5 -53t64.5 -22q39 0 64.5 20.5t25.5 51.5q0 32 -24.5 52t-67.5 20h-21v44h21q34 0 55.5 17t21.5 43q0 27 -20.5 44t-53.5 17q-32 0 -53 -16.5t-24 -44.5h-50q0 46 37.5 75.5t90.5 29.5q54 0 88.5 -28.5
t34.5 -69.5q0 -56 -59 -85v-4z" />
    <glyph glyph-name="uni2783.ss01" horiz-adv-x="849" 
d="M424 -10q-149 0 -254.5 105.5t-105.5 254.5t105.5 254.5t254.5 105.5t255 -105.5t106 -254.5t-106 -254.5t-255 -105.5zM424 17q137 0 234.5 97.5t97.5 235.5t-97.5 235.5t-234.5 97.5t-233.5 -97.5t-96.5 -235.5t96.5 -235.5t233.5 -97.5zM560 281v-44h-63v-81h-47v81
h-196v31l171 273h72v-260h63zM313 281h137v207h-5z" />
    <glyph glyph-name="uni2784.ss01" horiz-adv-x="849" 
d="M424 -10q-149 0 -254.5 105.5t-105.5 254.5t105.5 254.5t254.5 105.5t255 -105.5t106 -254.5t-106 -254.5t-255 -105.5zM424 17q137 0 234.5 97.5t97.5 235.5t-97.5 235.5t-234.5 97.5t-233.5 -97.5t-96.5 -235.5t96.5 -235.5t233.5 -97.5zM431 408q61 0 98 -36.5
t37 -95.5q0 -56 -39 -90.5t-101 -34.5q-65 0 -102 36t-37 84h48q2 -35 27.5 -57t63.5 -22q40 0 66 24.5t26 60.5q0 39 -25 65t-67 26q-56 0 -87 -45l-45 12l22 206h230v-44h-190l-13 -119q36 30 88 30z" />
    <glyph glyph-name="uni2785.ss01" horiz-adv-x="849" 
d="M424 -10q-149 0 -254.5 105.5t-105.5 254.5t105.5 254.5t254.5 105.5t255 -105.5t106 -254.5t-106 -254.5t-255 -105.5zM424 17q137 0 234.5 97.5t97.5 235.5t-97.5 235.5t-234.5 97.5t-233.5 -97.5t-96.5 -235.5t96.5 -235.5t233.5 -97.5zM431 409q58 0 96 -34.5
t38 -88.5q0 -56 -40 -90.5t-104 -34.5t-104 36t-40 97q0 47 54 125l93 132h59l-117 -156q31 14 65 14zM422 202q45 0 70.5 24t25.5 60q0 35 -25.5 58.5t-70.5 23.5t-71 -23.5t-26 -58.5q0 -36 26 -60t71 -24z" />
    <glyph glyph-name="uni2786.ss01" horiz-adv-x="849" 
d="M424 -10q-149 0 -254.5 105.5t-105.5 254.5t105.5 254.5t254.5 105.5t255 -105.5t106 -254.5t-106 -254.5t-255 -105.5zM424 17q137 0 234.5 97.5t97.5 235.5t-97.5 235.5t-234.5 97.5t-233.5 -97.5t-96.5 -235.5t96.5 -235.5t233.5 -97.5zM303 528h272v-34
q-156 -128 -166 -351h-49q9 222 141 341h-198v44z" />
    <glyph glyph-name="uni2787.ss01" horiz-adv-x="849" 
d="M424 -10q-149 0 -254.5 105.5t-105.5 254.5t105.5 254.5t254.5 105.5t255 -105.5t106 -254.5t-106 -254.5t-255 -105.5zM424 17q137 0 234.5 97.5t97.5 235.5t-97.5 235.5t-234.5 97.5t-233.5 -97.5t-96.5 -235.5t96.5 -235.5t233.5 -97.5zM492 366q36 -8 59.5 -35.5
t23.5 -64.5q0 -54 -42 -83t-110 -29q-66 0 -107.5 29t-41.5 83q0 38 24 64t59 36v4q-28 10 -46 31.5t-18 47.5q0 44 37 72t94 28q58 0 95.5 -28.5t37.5 -71.5q0 -27 -18 -48t-47 -31v-4zM424 510q-36 0 -58.5 -16.5t-22.5 -44.5q0 -30 24 -47.5t56 -17.5q34 0 59.5 17.5
t25.5 47.5q0 28 -24 44.5t-60 16.5zM422 194q47 0 74.5 18.5t27.5 52.5q0 31 -26 55t-75 24q-48 0 -72.5 -23.5t-24.5 -55.5q0 -34 25 -52.5t71 -18.5z" />
    <glyph glyph-name="uni2788.ss01" horiz-adv-x="849" 
d="M424 -10q-149 0 -254.5 105.5t-105.5 254.5t105.5 254.5t254.5 105.5t255 -105.5t106 -254.5t-106 -254.5t-255 -105.5zM424 17q137 0 234.5 97.5t97.5 235.5t-97.5 235.5t-234.5 97.5t-233.5 -97.5t-96.5 -235.5t96.5 -235.5t233.5 -97.5zM408 292q-58 0 -96 34.5
t-38 88.5q0 56 40 90.5t104 34.5t104 -36t40 -97q0 -47 -54 -125l-93 -132h-59l117 156q-31 -14 -65 -14zM417 499q-45 0 -70.5 -24t-25.5 -60q0 -35 25.5 -58.5t70.5 -23.5t71 23.5t26 58.5q0 36 -26 60t-71 24z" />
    <glyph glyph-name="uni2789.ss01" horiz-adv-x="849" 
d="M424 -10q-149 0 -254.5 105.5t-105.5 254.5t105.5 254.5t254.5 105.5t255 -105.5t106 -254.5t-106 -254.5t-255 -105.5zM424 17q137 0 234.5 97.5t97.5 235.5t-97.5 235.5t-234.5 97.5t-233.5 -97.5t-96.5 -235.5t96.5 -235.5t233.5 -97.5zM508 191q-53 0 -87 41.5
t-34 115.5t34 115.5t87 41.5q52 0 86 -42t34 -116t-33.5 -115t-86.5 -41zM292 194v213h-70v38h37q36 0 36 36v21h43v-308h-46zM508 232q34 0 54 30t20 85q0 53 -20 83.5t-54 30.5t-55 -30.5t-21 -84.5q0 -53 21 -83.5t55 -30.5z" />
    <glyph glyph-name="zero.case" horiz-adv-x="623" 
d="M311 -10q-112 0 -179.5 91t-67.5 269q0 175 68 267.5t180 92.5t179.5 -92t67.5 -269q0 -178 -67.5 -268.5t-180.5 -90.5zM312 58q77 0 124 75t47 216q0 142 -47.5 217.5t-123.5 75.5t-123 -75t-47 -218t47 -217t123 -74z" />
    <glyph glyph-name="one.case" horiz-adv-x="316" 
d="M166 0v534h-129v57h61q75 0 75 73v36h64v-700h-71z" />
    <glyph glyph-name="two.case" horiz-adv-x="567" 
d="M326 292q-85 -50 -130.5 -109t-48.5 -119h351v-64h-434v34q0 90 54 168t142 128q93 53 132 91.5t39 92.5q0 59 -37 95t-102 36q-41 0 -71.5 -15.5t-47.5 -41.5t-26 -54.5t-11 -60.5h-71q0 42 13.5 82.5t40 76t71.5 57t102 21.5q93 0 152 -53t59 -139q0 -40 -14 -74
t-41.5 -62t-54 -47t-67.5 -43z" />
    <glyph glyph-name="three.case" horiz-adv-x="582" 
d="M395 369q55 -17 89 -64.5t34 -111.5q0 -92 -61 -147.5t-165 -55.5q-105 0 -162.5 55t-65.5 149h70q4 -58 44 -99t114 -41q68 0 111 38.5t43 103.5q0 61 -39.5 101t-111.5 40h-36v64h34q59 0 94 35t35 89q0 52 -35 86t-94 34q-57 0 -94 -32t-41 -87h-69q0 81 60.5 132.5
t146.5 51.5q84 0 139 -51.5t55 -124.5q0 -109 -95 -160v-5z" />
    <glyph glyph-name="four.case" horiz-adv-x="584" 
d="M546 221v-61h-123v-160h-67v160h-319v54l291 486h95v-479h123zM113 221h243v397h-8z" />
    <glyph glyph-name="five.case" horiz-adv-x="584" 
d="M298 455q100 0 161 -65t61 -174q0 -99 -64.5 -162.5t-164.5 -63.5q-108 0 -166 61.5t-61 155.5h69q4 -71 44.5 -113t111.5 -42q72 0 117.5 45.5t45.5 120.5q0 78 -44.5 127.5t-115.5 49.5q-51 0 -94.5 -22t-66.5 -64l-58 16l39 375h373v-66h-312l-25 -234q59 55 150 55z
" />
    <glyph glyph-name="six.case" horiz-adv-x="585" 
d="M316 437q78 0 141 -59.5t63 -159.5q0 -98 -63 -163t-164 -65q-103 0 -166 64.5t-63 169.5q0 39 13 80.5t28.5 69.5t45.5 77l150 249h86l-189 -294q18 12 25 16t32.5 9.5t60.5 5.5zM293 52q72 0 115 48.5t43 118.5q0 68 -42.5 114t-115.5 46q-72 0 -114.5 -46t-42.5 -114
q0 -70 43 -118.5t114 -48.5z" />
    <glyph glyph-name="seven.case" horiz-adv-x="548" 
d="M64 700h447v-46q-138 -124 -207.5 -284.5t-80.5 -369.5h-72q11 216 73.5 364.5t172.5 268.5h-333v67z" />
    <glyph glyph-name="eight.case" horiz-adv-x="592" 
d="M394 375q58 -19 95.5 -69.5t37.5 -117.5q0 -89 -64.5 -143.5t-167.5 -54.5q-105 0 -168 54t-63 143q0 69 38.5 120t95.5 68v5q-44 17 -74 59.5t-30 92.5q0 80 59 129t142 49q85 0 144 -48.5t59 -129.5q0 -52 -30 -93t-74 -59v-5zM296 650q-57 0 -94.5 -32t-37.5 -85
q0 -56 39.5 -91t90.5 -35q52 0 93 35t41 91q0 53 -37.5 85t-94.5 32zM292 53q68 0 115 38.5t47 101.5q0 59 -43.5 103.5t-116.5 44.5q-74 0 -115.5 -44.5t-41.5 -104.5q0 -62 43.5 -100.5t111.5 -38.5z" />
    <glyph glyph-name="nine.case" horiz-adv-x="585" 
d="M279 263q-78 0 -141 59.5t-63 159.5q0 98 63 163t164 65q103 0 166 -64.5t63 -169.5q0 -39 -13 -80.5t-28.5 -69.5t-45.5 -77l-150 -249h-86l189 294q-18 -12 -25 -16t-32.5 -9.5t-60.5 -5.5zM302 648q-72 0 -115 -48.5t-43 -118.5q0 -68 42.5 -114t115.5 -46
q72 0 114.5 46t42.5 114q0 70 -43 118.5t-114 48.5z" />
    <glyph glyph-name="zero.case.zero" horiz-adv-x="623" 
d="M312 710q112 0 179.5 -92t67.5 -269q0 -178 -67.5 -268.5t-180.5 -90.5q-112 0 -179.5 91t-67.5 269q0 175 68 267.5t180 92.5zM312 646q-78 0 -126 -76t-48 -221q0 -104 27 -177l261 417q-45 57 -114 57zM312 53q79 0 127 76t48 220q0 107 -28 179l-261 -417
q45 -58 114 -58z" />
    <glyph glyph-name="zero.lf" horiz-adv-x="584" 
d="M292 -10q-103 0 -165.5 84t-62.5 247q0 161 63 245.5t166 84.5q104 0 165.5 -84.5t61.5 -246.5q0 -164 -62 -247t-166 -83zM293 55q69 0 111.5 68t42.5 197q0 130 -42.5 198t-111.5 68t-111.5 -68t-42.5 -198q0 -129 42.5 -197t111.5 -68z" />
    <glyph glyph-name="one.lf" horiz-adv-x="305" 
d="M156 0v485h-119v55h57q70 0 70 68v32h61v-640h-69z" />
    <glyph glyph-name="two.lf" horiz-adv-x="534" 
d="M306 265q-154 -100 -160 -202h319v-63h-401v32q0 81 49 150t128 120q98 63 122 88q37 38 37 83q0 51 -33.5 83.5t-92.5 32.5q-70 0 -103 -45.5t-37 -109.5h-69q0 52 21 100t70.5 82.5t118.5 34.5q86 0 140.5 -49t54.5 -128q0 -37 -12.5 -67t-39.5 -56.5t-49 -43
t-63 -42.5z" />
    <glyph glyph-name="three.lf" horiz-adv-x="547" 
d="M370 339q52 -17 82.5 -60t30.5 -102q0 -84 -56.5 -135.5t-152.5 -51.5q-97 0 -150 51.5t-60 137.5h67q4 -53 40.5 -90t102.5 -37q61 0 100 35t39 93q0 56 -36 92t-101 36h-33v61h32q53 0 85 31.5t32 79.5t-31.5 78.5t-85.5 30.5q-51 0 -84 -29t-37 -78h-67q0 74 56 121.5
t135 47.5q78 0 128.5 -47t50.5 -114q0 -100 -87 -147v-4z" />
    <glyph glyph-name="four.lf" horiz-adv-x="545" 
d="M508 205v-58h-113v-147h-65v147h-293v50l268 443h90v-435h113zM111 205h219v358h-8z" />
    <glyph glyph-name="five.lf" horiz-adv-x="549" 
d="M280 417q93 0 149 -59.5t56 -159.5q0 -92 -59.5 -150t-151.5 -58q-99 0 -153 56.5t-57 143.5h67q4 -64 40.5 -102t100.5 -38t105 41t41 108q0 70 -40 115t-104 45q-46 0 -85 -20t-60 -57l-56 16l35 342h345v-63h-286l-22 -210q52 50 135 50z" />
    <glyph glyph-name="six.lf" horiz-adv-x="549" 
d="M297 401q72 0 130 -55t58 -147q0 -90 -58.5 -149.5t-151.5 -59.5q-95 0 -153 59t-58 156q0 52 19.5 97.5t60.5 111.5l137 226h83l-173 -268q15 10 22 14.5t29.5 9.5t54.5 5zM275 50q65 0 104 43.5t39 106.5q0 61 -38.5 103t-103.5 42t-104 -42t-39 -103q0 -63 39 -106.5
t103 -43.5z" />
    <glyph glyph-name="seven.lf" horiz-adv-x="512" 
d="M64 640h411v-45q-243 -221 -262 -595h-70q10 197 67.5 332.5t157.5 243.5h-304v64z" />
    <glyph glyph-name="eight.lf" horiz-adv-x="556" 
d="M369 344q53 -17 88 -63.5t35 -107.5q0 -82 -60 -132.5t-155 -50.5q-96 0 -154.5 50t-58.5 132q0 63 35.5 109.5t87.5 62.5v5q-41 15 -68 54t-27 85q0 73 54.5 118t130.5 45q78 0 133 -44.5t55 -118.5q0 -48 -27.5 -85t-68.5 -54v-5zM279 594q-52 0 -86 -29t-34 -77
q0 -51 35.5 -82t81.5 -31q48 0 85 31.5t37 82.5q0 48 -34 76.5t-85 28.5zM274 51q62 0 104.5 35t42.5 92q0 53 -39.5 93t-105.5 40t-103.5 -40t-37.5 -95q0 -56 39.5 -90.5t99.5 -34.5z" />
    <glyph glyph-name="nine.lf" horiz-adv-x="549" 
d="M263 237q-72 0 -130 55t-58 147q0 90 58.5 149.5t151.5 59.5q95 0 153 -59t58 -156q0 -52 -19.5 -97.5t-60.5 -111.5l-137 -226h-83l173 268q-15 -10 -22 -14.5t-29.5 -9.5t-54.5 -5zM285 588q-65 0 -104 -43.5t-39 -106.5q0 -61 38.5 -103t103.5 -42t104 42t39 103
q0 63 -39 106.5t-103 43.5z" />
    <glyph glyph-name="zero.lf.case" horiz-adv-x="623" 
d="M311 -10q-112 0 -179.5 91t-67.5 269q0 175 68 267.5t180 92.5t179.5 -92t67.5 -269q0 -178 -67.5 -268.5t-180.5 -90.5zM312 58q77 0 124 75t47 216q0 142 -47.5 217.5t-123.5 75.5t-123 -75t-47 -218t47 -217t123 -74z" />
    <glyph glyph-name="one.lf.case" horiz-adv-x="316" 
d="M166 0v534h-129v57h61q75 0 75 73v36h64v-700h-71z" />
    <glyph glyph-name="two.lf.case" horiz-adv-x="567" 
d="M326 292q-85 -50 -130.5 -109t-48.5 -119h351v-64h-434v34q0 90 54 168t142 128q93 53 132 91.5t39 92.5q0 59 -37 95t-102 36q-41 0 -71.5 -15.5t-47.5 -41.5t-26 -54.5t-11 -60.5h-71q0 42 13.5 82.5t40 76t71.5 57t102 21.5q93 0 152 -53t59 -139q0 -40 -14 -74
t-41.5 -62t-54 -47t-67.5 -43z" />
    <glyph glyph-name="three.lf.case" horiz-adv-x="582" 
d="M395 369q55 -17 89 -64.5t34 -111.5q0 -92 -61 -147.5t-165 -55.5q-105 0 -162.5 55t-65.5 149h70q4 -58 44 -99t114 -41q68 0 111 38.5t43 103.5q0 61 -39.5 101t-111.5 40h-36v64h34q59 0 94 35t35 89q0 52 -35 86t-94 34q-57 0 -94 -32t-41 -87h-69q0 81 60.5 132.5
t146.5 51.5q84 0 139 -51.5t55 -124.5q0 -109 -95 -160v-5z" />
    <glyph glyph-name="four.lf.case" horiz-adv-x="584" 
d="M546 221v-61h-123v-160h-67v160h-319v54l291 486h95v-479h123zM113 221h243v397h-8z" />
    <glyph glyph-name="five.lf.case" horiz-adv-x="584" 
d="M298 455q100 0 161 -65t61 -174q0 -99 -64.5 -162.5t-164.5 -63.5q-108 0 -166 61.5t-61 155.5h69q4 -71 44.5 -113t111.5 -42q72 0 117.5 45.5t45.5 120.5q0 78 -44.5 127.5t-115.5 49.5q-51 0 -94.5 -22t-66.5 -64l-58 16l39 375h373v-66h-312l-25 -234q59 55 150 55z
" />
    <glyph glyph-name="six.lf.case" horiz-adv-x="585" 
d="M316 437q78 0 141 -59.5t63 -159.5q0 -98 -63 -163t-164 -65q-103 0 -166 64.5t-63 169.5q0 39 13 80.5t28.5 69.5t45.5 77l150 249h86l-189 -294q18 12 25 16t32.5 9.5t60.5 5.5zM293 52q72 0 115 48.5t43 118.5q0 68 -42.5 114t-115.5 46q-72 0 -114.5 -46t-42.5 -114
q0 -70 43 -118.5t114 -48.5z" />
    <glyph glyph-name="seven.lf.case" horiz-adv-x="548" 
d="M64 700h447v-46q-138 -124 -207.5 -284.5t-80.5 -369.5h-72q11 216 73.5 364.5t172.5 268.5h-333v67z" />
    <glyph glyph-name="eight.lf.case" horiz-adv-x="592" 
d="M394 375q58 -19 95.5 -69.5t37.5 -117.5q0 -89 -64.5 -143.5t-167.5 -54.5q-105 0 -168 54t-63 143q0 69 38.5 120t95.5 68v5q-44 17 -74 59.5t-30 92.5q0 80 59 129t142 49q85 0 144 -48.5t59 -129.5q0 -52 -30 -93t-74 -59v-5zM296 650q-57 0 -94.5 -32t-37.5 -85
q0 -56 39.5 -91t90.5 -35q52 0 93 35t41 91q0 53 -37.5 85t-94.5 32zM292 53q68 0 115 38.5t47 101.5q0 59 -43.5 103.5t-116.5 44.5q-74 0 -115.5 -44.5t-41.5 -104.5q0 -62 43.5 -100.5t111.5 -38.5z" />
    <glyph glyph-name="nine.lf.case" horiz-adv-x="585" 
d="M279 263q-78 0 -141 59.5t-63 159.5q0 98 63 163t164 65q103 0 166 -64.5t63 -169.5q0 -39 -13 -80.5t-28.5 -69.5t-45.5 -77l-150 -249h-86l189 294q-18 -12 -25 -16t-32.5 -9.5t-60.5 -5.5zM302 648q-72 0 -115 -48.5t-43 -118.5q0 -68 42.5 -114t115.5 -46
q72 0 114.5 46t42.5 114q0 70 -43 118.5t-114 48.5z" />
    <glyph glyph-name="zero.tf" horiz-adv-x="521" 
d="M261 651q104 0 165.5 -84.5t61.5 -246.5q0 -164 -62 -247t-166 -83q-103 0 -165.5 84t-62.5 247q0 161 63 245.5t166 84.5zM261 589q-71 0 -114 -68.5t-43 -200.5q0 -93 24 -159l233 380q-41 48 -100 48zM261 52q72 0 115 68.5t43 199.5q0 97 -25 163l-233 -382
q39 -49 100 -49z" />
    <glyph glyph-name="one.tf" horiz-adv-x="521" 
d="M314 58h149v-58h-387v58h169v427h-119v55h57q70 0 70 68v32h61v-582z" />
    <glyph glyph-name="two.tf" horiz-adv-x="521" 
d="M295 265q-154 -100 -160 -202h319v-63h-401v32q0 81 49 150t128 120q98 63 122 88q37 38 37 83q0 51 -33.5 83.5t-92.5 32.5q-70 0 -103 -45.5t-37 -109.5h-69q0 52 21 100t70.5 82.5t118.5 34.5q86 0 140.5 -49t54.5 -128q0 -37 -12.5 -67t-39.5 -56.5t-49 -43
t-63 -42.5z" />
    <glyph glyph-name="three.tf" horiz-adv-x="521" 
d="M359 339q52 -17 82.5 -60t30.5 -102q0 -84 -56.5 -135.5t-152.5 -51.5q-97 0 -150 51.5t-60 137.5h67q4 -53 40.5 -90t102.5 -37q61 0 100 35t39 93q0 56 -36 92t-101 36h-33v61h32q53 0 85 31.5t32 79.5t-31.5 78.5t-85.5 30.5q-51 0 -84 -29t-37 -78h-67q0 74 56 121.5
t135 47.5q78 0 128.5 -47t50.5 -114q0 -100 -87 -147v-4z" />
    <glyph glyph-name="four.tf" horiz-adv-x="521" 
d="M492 205v-58h-113v-147h-65v147h-293v50l268 443h90v-435h113zM95 205h219v358h-8z" />
    <glyph glyph-name="five.tf" horiz-adv-x="521" 
d="M273 417q93 0 149 -59.5t56 -159.5q0 -92 -59.5 -150t-151.5 -58q-99 0 -153 56.5t-57 143.5h67q4 -64 40.5 -102t100.5 -38q65 0 105.5 41t40.5 108q0 70 -40 115t-104 45q-46 0 -85 -20t-60 -57l-56 16l35 342h345v-63h-286l-22 -210q52 50 135 50z" />
    <glyph glyph-name="six.tf" horiz-adv-x="521" 
d="M286 401q72 0 130 -55t58 -147q0 -90 -58.5 -149.5t-151.5 -59.5q-95 0 -153 59t-58 156q0 52 19.5 97.5t60.5 111.5l137 226h83l-173 -268q15 10 22 14.5t29.5 9.5t54.5 5zM264 50q65 0 104 43.5t39 106.5q0 61 -38.5 103t-103.5 42t-104 -42t-39 -103q0 -63 39 -106.5
t103 -43.5z" />
    <glyph glyph-name="seven.tf" horiz-adv-x="521" 
d="M68 640h411v-45q-243 -221 -262 -595h-70q10 197 67.5 332.5t157.5 243.5h-304v64z" />
    <glyph glyph-name="eight.tf" horiz-adv-x="521" 
d="M351 344q53 -17 88 -63.5t35 -107.5q0 -82 -60 -132.5t-155 -50.5q-96 0 -154.5 50t-58.5 132q0 63 35.5 109.5t87.5 62.5v5q-41 15 -68 54t-27 85q0 73 54.5 118t130.5 45q78 0 133 -44.5t55 -118.5q0 -48 -27.5 -85t-68.5 -54v-5zM261 594q-52 0 -86 -29t-34 -77
q0 -51 35.5 -82t81.5 -31q48 0 85 31.5t37 82.5q0 48 -34 76.5t-85 28.5zM256 51q62 0 104.5 35t42.5 92q0 53 -39.5 93t-105.5 40t-103.5 -40t-37.5 -95q0 -56 39.5 -90.5t99.5 -34.5z" />
    <glyph glyph-name="nine.tf" horiz-adv-x="521" 
d="M240 237q-72 0 -130 55t-58 147q0 90 58.5 149.5t151.5 59.5q95 0 153 -59t58 -156q0 -52 -19.5 -97.5t-60.5 -111.5l-137 -226h-83l173 268q-15 -10 -22 -14.5t-29.5 -9.5t-54.5 -5zM262 588q-65 0 -104 -43.5t-39 -106.5q0 -61 38.5 -103t103.5 -42t104 42t39 103
q0 63 -39 106.5t-103 43.5z" />
    <glyph glyph-name="zero.tf.case" horiz-adv-x="557" 
d="M279 710q112 0 179.5 -92t67.5 -269q0 -178 -67.5 -268.5t-180.5 -90.5q-112 0 -179.5 91t-67.5 269q0 175 68 267.5t180 92.5zM279 646q-78 0 -126 -76t-48 -221q0 -104 27 -177l261 417q-45 57 -114 57zM279 53q79 0 127 76t48 220q0 107 -28 179l-261 -417
q45 -58 114 -58z" />
    <glyph glyph-name="one.tf.case" horiz-adv-x="557" 
d="M336 60h156v-60h-418v60h191v474h-129v57h61q75 0 75 73v36h64v-640z" />
    <glyph glyph-name="two.tf.case" horiz-adv-x="557" 
d="M320 292q-85 -50 -130.5 -109t-48.5 -119h351v-64h-434v34q0 90 54 168t142 128q93 53 132 91.5t39 92.5q0 59 -37 95t-102 36q-41 0 -71.5 -15.5t-47.5 -41.5t-26 -54.5t-11 -60.5h-71q0 42 13.5 82.5t40 76t71.5 57t102 21.5q93 0 152 -53t59 -139q0 -40 -14 -74
t-41.5 -62t-54 -47t-67.5 -43z" />
    <glyph glyph-name="three.tf.case" horiz-adv-x="557" 
d="M381 369q55 -17 89 -64.5t34 -111.5q0 -92 -61 -147.5t-165 -55.5q-105 0 -162.5 55t-65.5 149h70q4 -58 44 -99t114 -41q68 0 111 38.5t43 103.5q0 61 -39.5 101t-111.5 40h-36v64h34q59 0 94 35t35 89q0 52 -35 86t-94 34q-57 0 -94 -32t-41 -87h-69q0 81 60.5 132.5
t146.5 51.5q84 0 139 -51.5t55 -124.5q0 -109 -95 -160v-5z" />
    <glyph glyph-name="four.tf.case" horiz-adv-x="557" 
d="M535 221v-61h-123v-160h-67v160h-319v54l291 486h95v-479h123zM102 221h243v397h-8z" />
    <glyph glyph-name="five.tf.case" horiz-adv-x="557" 
d="M297 455q100 0 161 -65t61 -174q0 -99 -64.5 -162.5t-164.5 -63.5q-108 0 -166 61.5t-61 155.5h69q4 -71 44.5 -113t111.5 -42q72 0 117.5 45.5t45.5 120.5q0 78 -44.5 127.5t-115.5 49.5q-51 0 -94.5 -22t-66.5 -64l-58 16l39 375h373v-66h-312l-25 -234q59 55 150 55z
" />
    <glyph glyph-name="six.tf.case" horiz-adv-x="557" 
d="M307 437q78 0 141 -59.5t63 -159.5q0 -98 -63 -163t-164 -65q-103 0 -166 64.5t-63 169.5q0 39 13 80.5t28.5 69.5t45.5 77l150 249h86l-189 -294q18 12 25 16t32.5 9.5t60.5 5.5zM284 52q72 0 115 48.5t43 118.5q0 68 -42.5 114t-115.5 46q-72 0 -114.5 -46t-42.5 -114
q0 -70 43 -118.5t114 -48.5z" />
    <glyph glyph-name="seven.tf.case" horiz-adv-x="557" 
d="M64 700h447v-46q-138 -124 -207.5 -284.5t-80.5 -369.5h-72q11 216 73.5 364.5t172.5 268.5h-333v67z" />
    <glyph glyph-name="eight.tf.case" horiz-adv-x="557" 
d="M383 375q58 -19 95.5 -69.5t37.5 -117.5q0 -89 -64.5 -143.5t-167.5 -54.5q-105 0 -168 54t-63 143q0 69 38.5 120t95.5 68v5q-44 17 -74 59.5t-30 92.5q0 80 59 129t142 49q85 0 144 -48.5t59 -129.5q0 -52 -30 -93t-74 -59v-5zM285 650q-57 0 -94.5 -32t-37.5 -85
q0 -56 39.5 -91t90.5 -35q52 0 93 35t41 91q0 53 -37.5 85t-94.5 32zM281 53q68 0 115 38.5t47 101.5q0 59 -43.5 103.5t-116.5 44.5q-74 0 -115.5 -44.5t-41.5 -104.5q0 -62 43.5 -100.5t111.5 -38.5z" />
    <glyph glyph-name="nine.tf.case" horiz-adv-x="557" 
d="M264 263q-78 0 -141 59.5t-63 159.5q0 98 63 163t164 65q103 0 166 -64.5t63 -169.5q0 -39 -13 -80.5t-28.5 -69.5t-45.5 -77l-150 -249h-86l189 294q-18 -12 -25 -16t-32.5 -9.5t-60.5 -5.5zM287 648q-72 0 -115 -48.5t-43 -118.5q0 -68 42.5 -114t115.5 -46
q72 0 114.5 46t42.5 114q0 70 -43 118.5t-114 48.5z" />
    <glyph glyph-name="zero.zero" horiz-adv-x="584" 
d="M293 651q104 0 165.5 -84.5t61.5 -246.5q0 -164 -62 -247t-166 -83q-103 0 -165.5 84t-62.5 247q0 161 63 245.5t166 84.5zM293 589q-71 0 -114 -68.5t-43 -200.5q0 -93 24 -159l233 380q-40 48 -100 48zM293 52q72 0 115 68.5t43 199.5q0 97 -25 163l-233 -382
q39 -49 100 -49z" />
    <glyph glyph-name="zero.dnom" horiz-adv-x="367" 
d="M184 -3q-66 0 -108 51t-42 144t42 144.5t107 51.5t107.5 -52t42.5 -145q0 -92 -42 -143t-107 -51zM184 47q44 0 70.5 37t26.5 107q0 69 -26.5 107t-71.5 38t-71.5 -38t-26.5 -108q0 -69 27 -106t72 -37z" />
    <glyph glyph-name="one.dnom" horiz-adv-x="222" 
d="M117 0v270h-88v44h45q45 0 45 46v25h49v-385h-51z" />
    <glyph glyph-name="two.dnom" horiz-adv-x="330" 
d="M189 157q-99 -51 -101 -113h206v-44h-260v21q0 101 108 162q70 39 85 54q17 18 17 41q0 29 -19 47.5t-53 18.5q-41 0 -62 -25.5t-23 -59.5h-52q0 51 35.5 91t102.5 40q53 0 88 -30t35 -78q0 -24 -8 -43t-25.5 -34t-32.5 -24.5t-41 -23.5z" />
    <glyph glyph-name="three.dnom" horiz-adv-x="340" 
d="M231 203q33 -8 54 -35t21 -61q0 -48 -37 -80.5t-105 -32.5q-65 0 -100 33t-40 85h50q3 -31 26.5 -53t64.5 -22q39 0 64.5 20.5t25.5 51.5q0 32 -24.5 52t-67.5 20h-21v44h21q34 0 55.5 17t21.5 43q0 27 -20.5 44t-53.5 17q-32 0 -53 -16.5t-24 -44.5h-50q0 46 37.5 75.5
t90.5 29.5q54 0 88.5 -28.5t34.5 -69.5q0 -56 -59 -85v-4z" />
    <glyph glyph-name="four.dnom" horiz-adv-x="359" 
d="M335 125v-44h-63v-81h-47v81h-196v31l171 273h72v-260h63zM88 125h137v207h-5z" />
    <glyph glyph-name="five.dnom" horiz-adv-x="347" 
d="M178 252q61 0 98 -36.5t37 -95.5q0 -56 -39 -90.5t-101 -34.5q-65 0 -102 36t-37 84h48q2 -35 27.5 -57t63.5 -22q40 0 66 24.5t26 60.5q0 39 -25 65t-67 26q-56 0 -87 -45l-45 12l22 206h230v-44h-190l-13 -119q36 30 88 30z" />
    <glyph glyph-name="six.dnom" horiz-adv-x="355" 
d="M188 243q58 0 96 -34.5t38 -88.5q0 -56 -40 -90.5t-104 -34.5t-104 36t-40 97q0 47 54 125l93 132h59l-117 -156q31 14 65 14zM179 36q45 0 70.5 24t25.5 60q0 35 -25.5 58.5t-70.5 23.5t-71 -23.5t-26 -58.5q0 -36 26 -60t71 -24z" />
    <glyph glyph-name="seven.dnom" horiz-adv-x="325" 
d="M29 385h272v-34q-156 -128 -166 -351h-49q9 222 141 341h-198v44z" />
    <glyph glyph-name="eight.dnom" horiz-adv-x="369" 
d="M252 207q36 -8 59.5 -35.5t23.5 -64.5q0 -54 -42 -83t-110 -29q-66 0 -107.5 29t-41.5 83q0 38 24 64t59 36v4q-28 10 -46 31.5t-18 47.5q0 44 37 72t94 28q58 0 95.5 -28.5t37.5 -71.5q0 -27 -18 -48t-47 -31v-4zM184 351q-36 0 -58.5 -16.5t-22.5 -44.5q0 -30 24 -47.5
t56 -17.5q34 0 59.5 17.5t25.5 47.5q0 28 -24 44.5t-60 16.5zM182 35q47 0 74.5 18.5t27.5 52.5q0 31 -26 55t-75 24q-48 0 -72.5 -23.5t-24.5 -55.5q0 -34 25 -52.5t71 -18.5z" />
    <glyph glyph-name="nine.dnom" horiz-adv-x="355" 
d="M167 142q-58 0 -96 34.5t-38 88.5q0 56 40 90.5t104 34.5t104 -36t40 -97q0 -47 -54 -125l-93 -132h-59l117 156q-31 -14 -65 -14zM176 349q-45 0 -70.5 -24t-25.5 -60q0 -35 25.5 -58.5t70.5 -23.5t71 23.5t26 58.5q0 36 -26 60t-71 24z" />
    <glyph glyph-name="zero.numr" horiz-adv-x="367" 
d="M184 252q-66 0 -108 51t-42 144t42 144.5t107 51.5t107.5 -52t42.5 -145q0 -92 -42 -143t-107 -51zM184 302q44 0 70.5 37t26.5 107q0 69 -26.5 107t-71.5 38t-71.5 -38t-26.5 -108q0 -69 27 -106t72 -37z" />
    <glyph glyph-name="one.numr" horiz-adv-x="222" 
d="M117 255v270h-88v44h45q45 0 45 46v25h49v-385h-51z" />
    <glyph glyph-name="two.numr" horiz-adv-x="330" 
d="M189 412q-99 -51 -101 -113h206v-44h-260v21q0 101 108 162q70 39 85 54q17 17 17 41q0 29 -19 47.5t-53 18.5q-41 0 -62 -25.5t-23 -59.5h-52q0 51 35.5 91t102.5 40q53 0 88 -30t35 -78q0 -24 -8 -43t-25.5 -34t-32.5 -24.5t-41 -23.5z" />
    <glyph glyph-name="three.numr" horiz-adv-x="340" 
d="M231 458q33 -8 54 -35t21 -61q0 -48 -37 -80.5t-105 -32.5q-65 0 -100 33t-40 85h50q3 -31 26.5 -53t64.5 -22q39 0 64.5 20.5t25.5 51.5q0 32 -24.5 52t-67.5 20h-21v44h21q34 0 55.5 17t21.5 43q0 27 -20.5 44t-53.5 17q-32 0 -53 -16.5t-24 -44.5h-50q0 46 37.5 75.5
t90.5 29.5q54 0 88.5 -28.5t34.5 -69.5q0 -55 -59 -85v-4z" />
    <glyph glyph-name="four.numr" horiz-adv-x="359" 
d="M335 380v-44h-63v-81h-47v81h-196v31l171 273h72v-260h63zM88 380h137v207h-5z" />
    <glyph glyph-name="five.numr" horiz-adv-x="347" 
d="M178 504q61 0 98 -36.5t37 -95.5q0 -56 -39 -90.5t-101 -34.5q-65 0 -102 36t-37 84h48q2 -35 27.5 -57t63.5 -22q40 0 66 24.5t26 60.5q0 39 -25 65t-67 26q-56 0 -87 -45l-45 12l22 206h230v-44h-190l-13 -119q36 30 88 30z" />
    <glyph glyph-name="six.numr" horiz-adv-x="355" 
d="M188 498q58 0 96 -34.5t38 -88.5q0 -56 -40 -90.5t-104 -34.5t-104 36t-40 97q0 47 54 125l93 132h59l-117 -156q31 14 65 14zM179 291q45 0 70.5 24t25.5 60q0 35 -25.5 58.5t-70.5 23.5t-71 -23.5t-26 -58.5q0 -36 26 -60t71 -24z" />
    <glyph glyph-name="seven.numr" horiz-adv-x="325" 
d="M29 640h272v-34q-156 -128 -166 -351h-49q9 222 141 341h-198v44z" />
    <glyph glyph-name="eight.numr" horiz-adv-x="369" 
d="M252 462q36 -8 59.5 -35.5t23.5 -64.5q0 -54 -42 -83t-110 -29q-66 0 -107.5 29t-41.5 83q0 38 24 64t59 36v4q-28 10 -46 31.5t-18 47.5q0 44 37 72t94 28q58 0 95.5 -28.5t37.5 -71.5q0 -27 -18 -48t-47 -31v-4zM184 606q-36 0 -58.5 -16.5t-22.5 -44.5q0 -30 24 -47.5
t56 -17.5q34 0 59.5 17.5t25.5 47.5q0 28 -24 44.5t-60 16.5zM182 290q47 0 74.5 18.5t27.5 52.5q0 31 -26 55t-75 24q-48 0 -72.5 -23.5t-24.5 -55.5q0 -34 25 -52.5t71 -18.5z" />
    <glyph glyph-name="nine.numr" horiz-adv-x="355" 
d="M167 400q-58 0 -96 34.5t-38 88.5q0 56 40 90.5t104 34.5t104 -36t40 -97q0 -47 -54 -125l-93 -132h-59l117 156q-31 -14 -65 -14zM176 607q-45 0 -70.5 -24t-25.5 -60q0 -35 25.5 -58.5t70.5 -23.5t71 23.5t26 58.5q0 36 -26 60t-71 24z" />
    <glyph glyph-name="fraction.ss01" horiz-adv-x="258" 
d="M394 640l-498 -640h-32l498 640h32z" />
    <glyph glyph-name="onehalf.ss01" horiz-adv-x="716" 
d="M117 255v270h-88v44h45q45 0 45 46v25h49v-385h-51zM590 640l-498 -640h-32l498 640h32zM575 157q-99 -51 -101 -113h206v-44h-260v21q0 101 108 162q70 39 85 54q17 18 17 41q0 29 -19 47.5t-53 18.5q-41 0 -62 -25.5t-23 -59.5h-52q0 51 35.5 91t102.5 40q53 0 88 -30
t35 -78q0 -24 -8 -43t-25.5 -34t-32.5 -24.5t-41 -23.5z" />
    <glyph glyph-name="uni2153.ss01" horiz-adv-x="734" 
d="M117 255v270h-88v44h45q45 0 45 46v25h49v-385h-51zM590 640l-498 -640h-32l498 640h32zM625 203q33 -8 54 -35t21 -61q0 -48 -37 -80.5t-105 -32.5q-65 0 -100 33t-40 85h50q3 -31 26.5 -53t64.5 -22q39 0 64.5 20.5t25.5 51.5q0 32 -24.5 52t-67.5 20h-21v44h21
q34 0 55.5 17t21.5 43q0 27 -20.5 44t-53.5 17q-32 0 -53 -16.5t-24 -44.5h-50q0 46 37.5 75.5t90.5 29.5q54 0 88.5 -28.5t34.5 -69.5q0 -56 -59 -85v-4z" />
    <glyph glyph-name="uni2154.ss01" horiz-adv-x="844" 
d="M189 412q-99 -51 -101 -113h206v-44h-260v21q0 101 108 162q70 39 85 54q17 17 17 41q0 29 -19 47.5t-53 18.5q-41 0 -62 -25.5t-23 -59.5h-52q0 51 35.5 91t102.5 40q53 0 88 -30t35 -78q0 -24 -8 -43t-25.5 -34t-32.5 -24.5t-41 -23.5zM700 640l-498 -640h-32l498 640
h32zM735 203q33 -8 54 -35t21 -61q0 -48 -37 -80.5t-105 -32.5q-65 0 -100 33t-40 85h50q3 -31 26.5 -53t64.5 -22q39 0 64.5 20.5t25.5 51.5q0 32 -24.5 52t-67.5 20h-21v44h21q34 0 55.5 17t21.5 43q0 27 -20.5 44t-53.5 17q-32 0 -53 -16.5t-24 -44.5h-50q0 46 37.5 75.5
t90.5 29.5q54 0 88.5 -28.5t34.5 -69.5q0 -56 -59 -85v-4z" />
    <glyph glyph-name="onequarter.ss01" horiz-adv-x="677" 
d="M117 255v270h-88v44h45q45 0 45 46v25h49v-385h-51zM590 640l-498 -640h-32l498 640h32zM653 125v-44h-63v-81h-47v81h-196v31l171 273h72v-260h63zM406 125h137v207h-5z" />
    <glyph glyph-name="threequarters.ss01" horiz-adv-x="765" 
d="M231 458q33 -8 54 -35t21 -61q0 -48 -37 -80.5t-105 -32.5q-65 0 -100 33t-40 85h50q3 -31 26.5 -53t64.5 -22q39 0 64.5 20.5t25.5 51.5q0 32 -24.5 52t-67.5 20h-21v44h21q34 0 55.5 17t21.5 43q0 27 -20.5 44t-53.5 17q-32 0 -53 -16.5t-24 -44.5h-50q0 46 37.5 75.5
t90.5 29.5q54 0 88.5 -28.5t34.5 -69.5q0 -55 -59 -85v-4zM678 640l-498 -640h-32l498 640h32zM741 125v-44h-63v-81h-47v81h-196v31l171 273h72v-260h63zM494 125h137v207h-5z" />
    <glyph glyph-name="exclamdown.case.alt" horiz-adv-x="250" 
d="M123 707q20 0 35 -15.5t15 -35.5q0 -22 -15 -37t-35 -15q-22 0 -37.5 15t-15.5 37q0 20 15.5 35.5t37.5 15.5zM158 92q3 -34 3 -56t-11 -35t-29 -13t-29 13t-11 35q0 7 1.5 26t1.5 30l21 417h33z" />
    <glyph glyph-name="exclam.alt" horiz-adv-x="250" 
d="M158 606l-20 -417h-33l-21 417q0 11 -1.5 30t-1.5 26q0 22 11 35t29 13t29 -13t11 -35t-3 -56zM123 -9q-22 0 -37.5 15.5t-15.5 35.5q0 22 15.5 37t37.5 15q20 0 35 -15t15 -37q0 -20 -15 -35.5t-35 -15.5z" />
    <glyph glyph-name="exclamdown.alt" horiz-adv-x="250" 
d="M123 509q20 0 35 -15.5t15 -35.5q0 -22 -15 -37t-35 -15q-22 0 -37.5 15t-15.5 37q0 20 15.5 35.5t37.5 15.5zM158 -106q3 -34 3 -56t-11 -35t-29 -13t-29 13t-11 35q0 7 1.5 26t1.5 30l21 417h33z" />
    <glyph glyph-name="exclamdown.case" horiz-adv-x="233" 
d="M115 709q22 0 37.5 -15.5t15.5 -35.5q0 -22 -15.5 -37t-37.5 -15q-20 0 -35 15t-15 37q0 20 15 35.5t35 15.5zM153 0h-73l12 512h48z" />
    <glyph glyph-name="questiondown.case" horiz-adv-x="437" 
d="M249 709q22 0 37.5 -15.5t15.5 -35.5q0 -22 -15.5 -37t-37.5 -15q-20 0 -35 15t-15 37q0 20 15 35.5t35 15.5zM282 461q0 -63 -17.5 -102.5t-66.5 -83.5q-54 -49 -67 -67q-18 -28 -18 -62q0 -43 27.5 -69.5t80.5 -26.5q56 0 83 34t32 79h64q-2 -67 -45.5 -120t-133.5 -53
q-81 0 -127 43t-46 111q0 30 7 54t26.5 47.5t29 33t38.5 35.5q38 34 53.5 69t15.5 83v46h64v-51z" />
    <glyph glyph-name="asterisk.ss01" horiz-adv-x="387" 
d="M339 608l-120 -68l120 -68l-13 -24l-118 69l-1 -137h-27v137l-118 -69l-14 24l120 68l-120 68l14 24l118 -69v137h27l1 -137l118 69z" />
    <glyph glyph-name="uni2042.ss01" horiz-adv-x="808" 
d="M538 448l-118 69l-1 -137h-27v137l-118 -69l-14 24l120 68l-120 68l14 24l118 -69v137h27l1 -137l118 69l13 -24l-120 -68l120 -68zM326 252l13 -24l-120 -68l120 -68l-13 -24l-118 69l-1 -137h-27v137l-118 -69l-14 24l120 68l-120 68l14 24l118 -69v137h27l1 -137z
M760 228l-120 -68l120 -68l-13 -24l-118 69l-1 -137h-27v137l-118 -69l-14 24l120 68l-120 68l14 24l118 -69v137h27l1 -137l118 69z" />
    <glyph glyph-name="backslash.ss01" horiz-adv-x="479" 
d="M27 750h39l386 -800h-40z" />
    </font>
</defs>
</svg>
